osu file format v12

[General]
AudioFilename: ARCADIA.mp3
AudioLeadIn: 0
PreviewTime: 54299
Countdown: 0
SampleSet: Soft
StackLeniency: 0.7
Mode: 3
LetterboxInBreaks: 0
SpecialStyle: 0
WidescreenStoryboard: 1

[Editor]
DistanceSpacing: 1
BeatDivisor: 4
GridSize: 8

[Metadata]
Title:ARCADIA
TitleUnicode:ARCADIA
Artist:earthmind
ArtistUnicode:earthmind
Creator:Simple_Star
Version:HD
Source:Fate/stay night Realta Nua
Tags:
BeatmapID:311120
BeatmapSetID:121542

[Difficulty]
HPDrainRate:7
CircleSize:4
OverallDifficulty:8
ApproachRate:5
SliderMultiplier:1.4
SliderTickRate:1

[Events]
//Background and Video events
0,0,"BG.jpg",0,0
Video,0,"ARCADIA.flv"
//Break Periods
//Storyboard Layer 0 (Background)
//Storyboard Layer 1 (Fail)
//Storyboard Layer 2 (Pass)
//Storyboard Layer 3 (Foreground)
//Storyboard Sound Samples
//Background Colour Transformations
3,100,163,162,255

[TimingPoints]
401,338.983050847458,4,2,0,30,1,0
54638,-100,4,2,0,30,0,1
65147,-100,4,2,0,30,0,0
65486,-100,4,2,0,30,0,1
75655,-100,4,2,0,30,0,0
76333,-100,4,2,0,30,0,1
76417,-100,4,2,0,30,0,0

[HitObjects]
448,192,401,1,0,0:0:0:0:
64,192,401,128,0,740:0:0:0:0:
320,192,740,1,0,0:0:0:0:
192,192,909,1,0,0:0:0:0:
448,192,1079,1,0,0:0:0:0:
320,192,1079,1,0,0:0:0:0:
192,192,1248,1,0,0:0:0:0:
448,192,1418,1,0,0:0:0:0:
64,192,1587,1,0,0:0:0:0:
320,192,1587,1,0,0:0:0:0:
192,192,1757,1,0,0:0:0:0:
320,192,1926,1,0,0:0:0:0:
64,192,2096,1,0,0:0:0:0:
448,192,2265,1,0,0:0:0:0:
192,192,2435,1,0,0:0:0:0:
64,192,2435,1,0,0:0:0:0:
320,192,2604,1,0,0:0:0:0:
64,192,2774,1,0,0:0:0:0:
320,192,2943,1,0,0:0:0:0:
448,192,3113,1,0,0:0:0:0:
192,192,3113,1,0,0:0:0:0:
320,192,3282,1,0,0:0:0:0:
64,192,3452,1,0,0:0:0:0:
448,192,3621,1,0,0:0:0:0:
64,192,3791,1,0,0:0:0:0:
320,192,3791,1,0,0:0:0:0:
192,192,3960,1,0,0:0:0:0:
448,192,4129,1,0,0:0:0:0:
320,192,4299,128,0,5146:0:0:0:0:
192,192,4469,1,0,0:0:0:0:
64,192,4638,1,0,0:0:0:0:
192,192,4808,1,0,0:0:0:0:
192,192,4977,1,0,0:0:0:0:
64,192,5146,1,0,0:0:0:0:
192,192,5231,1,0,0:0:0:0:
320,192,5316,1,0,0:0:0:0:
448,192,5401,1,0,0:0:0:0:
192,192,5485,128,0,5824:0:0:0:0:
320,192,5485,1,0,0:0:0:0:
64,192,5486,1,0,0:0:0:0:
448,192,5825,1,0,0:0:0:0:
64,192,5825,1,0,0:0:0:0:
192,192,5994,1,0,0:0:0:0:
320,192,6163,1,0,0:0:0:0:
448,192,6163,1,0,0:0:0:0:
192,192,6333,1,0,0:0:0:0:
320,192,6502,1,0,0:0:0:0:
64,192,6672,1,0,0:0:0:0:
320,192,6841,1,0,0:0:0:0:
448,192,7011,1,0,0:0:0:0:
64,192,7011,128,0,7350:0:0:0:0:
320,192,7180,1,0,0:0:0:0:
192,192,7350,1,0,0:0:0:0:
320,192,7519,1,0,0:0:0:0:
192,192,7519,1,0,0:0:0:0:
448,192,7689,1,0,0:0:0:0:
64,192,7858,1,0,0:0:0:0:
320,192,8028,1,0,0:0:0:0:
192,192,8197,1,0,0:0:0:0:
320,192,8367,1,0,0:0:0:0:
448,192,8367,128,0,8706:0:0:0:0:
64,192,8536,1,0,0:0:0:0:
320,192,8706,1,0,0:0:0:0:
192,192,8875,1,0,0:0:0:0:
64,192,8875,1,0,0:0:0:0:
448,192,9045,1,0,0:0:0:0:
320,192,9214,1,0,0:0:0:0:
192,192,9384,1,0,0:0:0:0:
64,192,9553,1,0,0:0:0:0:
448,192,9553,1,0,0:0:0:0:
192,192,9723,1,0,0:0:0:0:
448,192,9723,1,0,0:0:0:0:
320,192,9892,1,0,0:0:0:0:
192,192,10062,1,0,0:0:0:0:
448,192,10231,1,0,0:0:0:0:
320,192,10231,1,0,0:0:0:0:
64,192,10401,1,0,0:0:0:0:
320,192,10570,1,0,0:0:0:0:
192,192,10570,1,0,0:0:0:0:
448,192,10740,1,0,0:0:0:0:
64,192,10909,1,0,0:0:0:0:
320,192,10909,1,0,0:0:0:0:
64,192,11079,1,0,0:0:0:0:
448,192,11079,128,0,11418:0:0:0:0:
192,192,11248,1,0,0:0:0:0:
320,192,11418,1,0,0:0:0:0:
64,192,11587,1,0,0:0:0:0:
448,192,11587,1,0,0:0:0:0:
320,192,11757,1,0,0:0:0:0:
64,192,11841,1,0,0:0:0:0:
192,192,11926,1,0,0:0:0:0:
320,192,12096,1,0,0:0:0:0:
448,192,12265,1,0,0:0:0:0:
320,192,12265,1,0,0:0:0:0:
448,192,12435,1,0,0:0:0:0:
64,192,12435,128,0,12774:0:0:0:0:
320,192,12604,1,0,0:0:0:0:
192,192,12774,1,0,0:0:0:0:
64,192,12943,1,0,0:0:0:0:
320,192,12943,1,0,0:0:0:0:
448,192,13112,1,0,0:0:0:0:
320,192,13197,1,0,0:0:0:0:
192,192,13282,1,0,0:0:0:0:
320,192,13451,1,0,0:0:0:0:
448,192,13621,1,0,0:0:0:0:
64,192,13621,1,0,0:0:0:0:
448,192,13791,1,0,0:0:0:0:
192,192,13791,128,0,14130:0:0:0:0:
320,192,13960,1,0,0:0:0:0:
64,192,14130,1,0,0:0:0:0:
448,192,14299,1,0,0:0:0:0:
320,192,14299,1,0,0:0:0:0:
64,192,14469,1,0,0:0:0:0:
320,192,14638,1,0,0:0:0:0:
192,192,14808,1,0,0:0:0:0:
448,192,14977,1,0,0:0:0:0:
192,192,14977,1,0,0:0:0:0:
64,192,15147,1,0,0:0:0:0:
320,192,15147,128,0,15486:0:0:0:0:
192,192,15316,1,0,0:0:0:0:
448,192,15486,1,0,0:0:0:0:
64,192,15655,1,0,0:0:0:0:
448,192,15655,1,0,0:0:0:0:
192,192,15825,1,0,0:0:0:0:
448,192,15994,1,0,0:0:0:0:
64,192,15994,1,0,0:0:0:0:
320,192,16163,1,0,0:0:0:0:
192,192,16248,1,0,0:0:0:0:
448,192,16333,1,0,0:0:0:0:
192,192,16418,1,0,0:0:0:0:
64,192,16502,1,0,0:0:0:0:
320,192,16502,1,0,0:0:0:0:
448,192,16672,1,0,0:0:0:0:
192,192,16841,1,0,0:0:0:0:
320,192,17180,1,0,0:0:0:0:
64,192,17350,1,0,0:0:0:0:
64,192,17689,1,0,0:0:0:0:
320,192,17858,1,0,0:0:0:0:
192,192,18197,1,0,0:0:0:0:
448,192,18367,1,0,0:0:0:0:
448,192,18706,128,0,19045:0:0:0:0:
64,192,18706,1,0,0:0:0:0:
64,192,19045,128,0,19384:0:0:0:0:
320,192,19045,1,0,0:0:0:0:
448,192,19384,1,0,0:0:0:0:
320,192,19553,1,0,0:0:0:0:
64,192,19723,1,0,0:0:0:0:
320,192,19723,1,0,0:0:0:0:
192,192,19892,1,0,0:0:0:0:
320,192,20062,1,0,0:0:0:0:
448,192,20231,1,0,0:0:0:0:
192,192,20231,1,0,0:0:0:0:
192,192,20401,1,0,0:0:0:0:
448,192,20570,128,0,20740:0:0:0:0:
320,192,20570,1,0,0:0:0:0:
64,192,20740,1,0,0:0:0:0:
192,192,20909,1,0,0:0:0:0:
448,192,21079,1,0,0:0:0:0:
320,192,21079,1,0,0:0:0:0:
192,192,21248,128,0,21587:0:0:0:0:
64,192,21248,1,0,0:0:0:0:
320,192,21587,128,0,21757:0:0:0:0:
448,192,21587,1,0,0:0:0:0:
64,192,21757,1,0,0:0:0:0:
192,192,21926,1,0,0:0:0:0:
448,192,22096,1,0,0:0:0:0:
64,192,22096,128,0,22774:0:0:0:0:
192,192,22265,1,0,0:0:0:0:
320,192,22435,1,0,0:0:0:0:
448,192,22435,1,0,0:0:0:0:
192,192,22604,1,0,0:0:0:0:
448,192,22774,1,0,0:0:0:0:
320,192,22943,1,0,0:0:0:0:
192,192,23113,1,0,0:0:0:0:
448,192,23282,128,0,23621:0:0:0:0:
64,192,23282,1,0,0:0:0:0:
64,192,23621,128,0,23960:0:0:0:0:
320,192,23621,1,0,0:0:0:0:
448,192,23790,1,0,0:0:0:0:
320,192,23960,128,0,24299:0:0:0:0:
192,192,23960,1,0,0:0:0:0:
192,192,24299,128,0,24469:0:0:0:0:
448,192,24299,1,0,0:0:0:0:
64,192,24469,1,0,0:0:0:0:
320,192,24638,1,0,0:0:0:0:
192,192,24723,1,0,0:0:0:0:
64,192,24808,1,0,0:0:0:0:
448,192,24808,128,0,27011:0:0:0:0:
64,192,25147,1,0,0:0:0:0:
320,192,25147,1,0,0:0:0:0:
64,192,25485,1,0,0:0:0:0:
192,192,25655,1,0,0:0:0:0:
320,192,25824,1,0,0:0:0:0:
64,192,25994,1,0,0:0:0:0:
192,192,25994,1,0,0:0:0:0:
64,192,26333,1,0,0:0:0:0:
192,192,26502,1,0,0:0:0:0:
320,192,26502,1,0,0:0:0:0:
192,192,26841,1,0,0:0:0:0:
64,192,27011,1,0,0:0:0:0:
192,192,27180,1,0,0:0:0:0:
448,192,27180,1,0,0:0:0:0:
320,192,27350,1,0,0:0:0:0:
448,192,27519,128,0,29214:0:0:0:0:
64,192,27519,1,0,0:0:0:0:
192,192,27858,1,0,0:0:0:0:
64,192,27858,1,0,0:0:0:0:
192,192,28197,1,0,0:0:0:0:
320,192,28367,1,0,0:0:0:0:
192,192,28536,1,0,0:0:0:0:
64,192,28706,1,0,0:0:0:0:
320,192,28706,1,0,0:0:0:0:
64,192,29045,1,0,0:0:0:0:
192,192,29214,1,0,0:0:0:0:
320,192,29214,1,0,0:0:0:0:
64,192,29384,1,0,0:0:0:0:
192,192,29553,1,0,0:0:0:0:
448,192,29723,1,0,0:0:0:0:
320,192,29723,1,0,0:0:0:0:
192,192,29892,1,0,0:0:0:0:
320,192,29977,1,0,0:0:0:0:
192,192,30062,1,0,0:0:0:0:
320,192,30147,1,0,0:0:0:0:
64,192,30231,1,0,0:0:0:0:
448,192,30231,1,0,0:0:0:0:
192,192,30401,1,0,0:0:0:0:
64,192,30570,1,0,0:0:0:0:
320,192,30570,1,0,0:0:0:0:
192,192,30740,1,0,0:0:0:0:
192,192,30909,1,0,0:0:0:0:
448,192,30909,1,0,0:0:0:0:
64,192,31078,1,0,0:0:0:0:
320,192,31079,1,0,0:0:0:0:
192,192,31248,1,0,0:0:0:0:
64,192,31248,1,0,0:0:0:0:
320,192,31418,1,0,0:0:0:0:
448,192,31418,128,0,31587:0:0:0:0:
192,192,31757,1,0,0:0:0:0:
64,192,31757,128,0,31926:0:0:0:0:
192,192,32095,1,0,0:0:0:0:
320,192,32096,1,0,0:0:0:0:
448,192,32265,1,0,0:0:0:0:
320,192,32435,128,0,32604:0:0:0:0:
64,192,32435,1,0,0:0:0:0:
448,192,32604,128,0,32773:0:0:0:0:
192,192,32773,128,0,32943:0:0:0:0:
64,192,32943,1,0,0:0:0:0:
448,192,32943,1,0,0:0:0:0:
192,192,33113,1,0,0:0:0:0:
320,192,33282,1,0,0:0:0:0:
448,192,33282,1,0,0:0:0:0:
192,192,33452,1,0,0:0:0:0:
64,192,33621,1,0,0:0:0:0:
320,192,33791,1,0,0:0:0:0:
448,192,33960,1,0,0:0:0:0:
64,192,33960,1,0,0:0:0:0:
448,192,34130,128,0,34299:0:0:0:0:
192,192,34130,1,0,0:0:0:0:
192,192,34469,128,0,34638:0:0:0:0:
320,192,34469,1,0,0:0:0:0:
320,192,34808,128,0,35147:0:0:0:0:
64,192,34808,1,0,0:0:0:0:
64,192,35147,128,0,35316:0:0:0:0:
448,192,35147,1,0,0:0:0:0:
448,192,35316,1,0,0:0:0:0:
192,192,35316,128,0,35485:0:0:0:0:
320,192,35485,128,0,35655:0:0:0:0:
64,192,35655,1,0,0:0:0:0:
448,192,35655,1,0,0:0:0:0:
192,192,35824,1,0,0:0:0:0:
448,192,35994,1,0,0:0:0:0:
64,192,35994,128,0,37180:0:0:0:0:
320,192,35994,1,0,0:0:0:0:
320,192,36333,1,0,0:0:0:0:
192,192,36502,1,0,0:0:0:0:
320,192,36672,1,0,0:0:0:0:
448,192,36672,1,0,0:0:0:0:
192,192,36841,1,0,0:0:0:0:
320,192,37180,1,0,0:0:0:0:
192,192,37350,1,0,0:0:0:0:
448,192,37350,1,0,0:0:0:0:
320,192,37519,1,0,0:0:0:0:
64,192,37689,1,0,0:0:0:0:
192,192,37689,1,0,0:0:0:0:
448,192,37858,1,0,0:0:0:0:
320,192,38028,1,0,0:0:0:0:
64,192,38028,1,0,0:0:0:0:
192,192,38197,1,0,0:0:0:0:
320,192,38367,1,0,0:0:0:0:
448,192,38367,1,0,0:0:0:0:
192,192,38536,1,0,0:0:0:0:
64,192,38706,1,0,0:0:0:0:
320,192,38706,1,0,0:0:0:0:
192,192,38875,1,0,0:0:0:0:
448,192,39045,1,0,0:0:0:0:
320,192,39214,1,0,0:0:0:0:
64,192,39384,1,0,0:0:0:0:
192,192,39384,1,0,0:0:0:0:
320,192,39553,1,0,0:0:0:0:
448,192,39553,128,0,39892:0:0:0:0:
192,192,39892,1,0,0:0:0:0:
320,192,40062,1,0,0:0:0:0:
64,192,40062,1,0,0:0:0:0:
192,192,40231,1,0,0:0:0:0:
448,192,40401,1,0,0:0:0:0:
320,192,40486,1,0,0:0:0:0:
64,192,40570,1,0,0:0:0:0:
192,192,40655,1,0,0:0:0:0:
448,192,40740,1,0,0:0:0:0:
320,192,40825,1,0,0:0:0:0:
192,192,40909,1,0,0:0:0:0:
64,192,40994,1,0,0:0:0:0:
320,192,41079,1,0,0:0:0:0:
448,192,41079,1,0,0:0:0:0:
192,192,41248,1,0,0:0:0:0:
64,192,41418,1,0,0:0:0:0:
448,192,41418,1,0,0:0:0:0:
320,192,41587,1,0,0:0:0:0:
64,192,41757,1,0,0:0:0:0:
448,192,41757,1,0,0:0:0:0:
192,192,41926,1,0,0:0:0:0:
448,192,41926,1,0,0:0:0:0:
64,192,42096,1,0,0:0:0:0:
320,192,42096,1,0,0:0:0:0:
448,192,42265,1,0,0:0:0:0:
192,192,42265,1,0,0:0:0:0:
320,192,42435,1,0,0:0:0:0:
64,192,42604,1,0,0:0:0:0:
320,192,42774,1,0,0:0:0:0:
192,192,42774,1,0,0:0:0:0:
448,192,42943,1,0,0:0:0:0:
64,192,43113,1,0,0:0:0:0:
192,192,43282,1,0,0:0:0:0:
320,192,43452,1,0,0:0:0:0:
448,192,43452,1,0,0:0:0:0:
64,192,43621,1,0,0:0:0:0:
320,192,43791,1,0,0:0:0:0:
192,192,43960,1,0,0:0:0:0:
64,192,44130,1,0,0:0:0:0:
448,192,44130,1,0,0:0:0:0:
320,192,44299,1,0,0:0:0:0:
192,192,44469,1,0,0:0:0:0:
320,192,44638,1,0,0:0:0:0:
448,192,44808,1,0,0:0:0:0:
64,192,44808,1,0,0:0:0:0:
192,192,44977,1,0,0:0:0:0:
320,192,45316,1,0,0:0:0:0:
192,192,45486,1,0,0:0:0:0:
64,192,45486,1,0,0:0:0:0:
448,192,45655,1,0,0:0:0:0:
192,192,45825,1,0,0:0:0:0:
64,192,45825,1,0,0:0:0:0:
320,192,45909,1,0,0:0:0:0:
192,192,45994,1,0,0:0:0:0:
448,192,46079,1,0,0:0:0:0:
64,192,46163,1,0,0:0:0:0:
320,192,46248,1,0,0:0:0:0:
192,192,46333,1,0,0:0:0:0:
448,192,46418,1,0,0:0:0:0:
64,192,46502,1,0,0:0:0:0:
192,192,46502,1,0,0:0:0:0:
320,192,46672,1,0,0:0:0:0:
64,192,46841,1,0,0:0:0:0:
320,192,46841,1,0,0:0:0:0:
192,192,47011,1,0,0:0:0:0:
64,192,47180,1,0,0:0:0:0:
448,192,47180,1,0,0:0:0:0:
192,192,47350,1,0,0:0:0:0:
192,192,47519,1,0,0:0:0:0:
448,192,47519,1,0,0:0:0:0:
448,192,47689,1,0,0:0:0:0:
64,192,47689,1,0,0:0:0:0:
320,192,47858,1,0,0:0:0:0:
192,192,48028,1,0,0:0:0:0:
448,192,48197,1,0,0:0:0:0:
320,192,48197,1,0,0:0:0:0:
192,192,48367,1,0,0:0:0:0:
64,192,48536,1,0,0:0:0:0:
448,192,48536,1,0,0:0:0:0:
320,192,48706,1,0,0:0:0:0:
64,192,48875,1,0,0:0:0:0:
320,192,48875,1,0,0:0:0:0:
192,192,49045,1,0,0:0:0:0:
448,192,49214,128,0,50740:0:0:0:0:
64,192,49214,1,0,0:0:0:0:
320,192,49214,1,0,0:0:0:0:
64,192,49553,1,0,0:0:0:0:
192,192,49553,1,0,0:0:0:0:
320,192,49723,1,0,0:0:0:0:
192,192,49892,1,0,0:0:0:0:
320,192,50062,1,0,0:0:0:0:
64,192,50231,1,0,0:0:0:0:
192,192,50231,1,0,0:0:0:0:
192,192,50401,1,0,0:0:0:0:
320,192,50570,1,0,0:0:0:0:
192,192,50740,1,0,0:0:0:0:
320,192,50909,1,0,0:0:0:0:
64,192,50909,1,0,0:0:0:0:
192,192,51078,1,0,0:0:0:0:
448,192,51248,1,0,0:0:0:0:
320,192,51418,1,0,0:0:0:0:
192,192,51587,1,0,0:0:0:0:
64,192,51757,1,0,0:0:0:0:
320,192,51926,1,0,0:0:0:0:
448,192,51926,1,0,0:0:0:0:
64,192,52011,1,0,0:0:0:0:
320,192,52096,1,0,0:0:0:0:
192,192,52180,1,0,0:0:0:0:
448,192,52265,1,0,0:0:0:0:
192,192,52350,1,0,0:0:0:0:
320,192,52435,1,0,0:0:0:0:
64,192,52519,1,0,0:0:0:0:
320,192,52604,1,0,0:0:0:0:
448,192,52604,128,0,53621:0:0:0:0:
192,192,52689,1,0,0:0:0:0:
320,192,52773,1,0,0:0:0:0:
64,192,52943,1,0,0:0:0:0:
64,192,53113,1,0,0:0:0:0:
192,192,53113,1,0,0:0:0:0:
64,192,53452,1,0,0:0:0:0:
192,192,53621,1,0,0:0:0:0:
320,192,53791,1,0,0:0:0:0:
64,192,53960,1,0,0:0:0:0:
448,192,53960,1,0,0:0:0:0:
448,192,54130,1,0,0:0:0:0:
192,192,54130,1,0,0:0:0:0:
64,192,54468,128,0,54638:0:0:0:0:
320,192,54638,1,0,0:0:0:0:
448,192,54638,1,0,0:0:0:0:
192,192,54808,1,0,0:0:0:0:
320,192,54977,1,0,0:0:0:0:
64,192,54977,1,0,0:0:0:0:
192,192,55147,1,0,0:0:0:0:
448,192,55316,1,0,0:0:0:0:
320,192,55486,1,0,0:0:0:0:
64,192,55655,1,0,0:0:0:0:
320,192,55655,1,0,0:0:0:0:
64,192,55825,1,0,0:0:0:0:
448,192,55825,1,0,0:0:0:0:
320,192,55994,1,0,0:0:0:0:
192,192,56163,1,0,0:0:0:0:
320,192,56333,1,0,0:0:0:0:
448,192,56333,1,0,0:0:0:0:
64,192,56502,1,0,0:0:0:0:
448,192,56672,1,0,0:0:0:0:
320,192,56841,1,0,0:0:0:0:
64,192,57011,1,0,0:0:0:0:
448,192,57011,1,0,0:0:0:0:
192,192,57180,1,0,0:0:0:0:
448,192,57180,1,0,0:0:0:0:
320,192,57350,1,0,0:0:0:0:
64,192,57350,1,0,0:0:0:0:
192,192,57519,1,0,0:0:0:0:
448,192,57689,1,0,0:0:0:0:
320,192,57689,1,0,0:0:0:0:
64,192,57858,128,0,58197:0:0:0:0:
192,192,57858,1,0,0:0:0:0:
448,192,58197,128,0,58367:0:0:0:0:
320,192,58197,1,0,0:0:0:0:
192,192,58536,1,0,0:0:0:0:
64,192,58536,128,0,58706:0:0:0:0:
192,192,58875,128,0,59045:0:0:0:0:
320,192,58875,1,0,0:0:0:0:
320,192,59214,128,0,59384:0:0:0:0:
448,192,59214,1,0,0:0:0:0:
448,192,59553,1,0,0:0:0:0:
320,192,59638,1,0,0:0:0:0:
192,192,59723,1,0,0:0:0:0:
64,192,59808,1,0,0:0:0:0:
192,192,59892,1,0,0:0:0:0:
320,192,59977,1,0,0:0:0:0:
64,192,60062,128,0,60740:0:0:0:0:
448,192,60062,1,0,0:0:0:0:
320,192,60231,1,0,0:0:0:0:
448,192,60401,1,0,0:0:0:0:
192,192,60401,1,0,0:0:0:0:
192,192,60570,1,0,0:0:0:0:
448,192,60740,1,0,0:0:0:0:
192,192,60909,1,0,0:0:0:0:
64,192,61079,1,0,0:0:0:0:
448,192,61079,1,0,0:0:0:0:
320,192,61248,1,0,0:0:0:0:
448,192,61418,128,0,62096:0:0:0:0:
192,192,61418,1,0,0:0:0:0:
64,192,61587,1,0,0:0:0:0:
192,192,61757,1,0,0:0:0:0:
320,192,61757,1,0,0:0:0:0:
320,192,61926,1,0,0:0:0:0:
64,192,62096,1,0,0:0:0:0:
64,192,62265,1,0,0:0:0:0:
192,192,62435,1,0,0:0:0:0:
448,192,62435,1,0,0:0:0:0:
320,192,62604,1,0,0:0:0:0:
64,192,62774,1,0,0:0:0:0:
192,192,62774,1,0,0:0:0:0:
320,192,62943,1,0,0:0:0:0:
64,192,63113,1,0,0:0:0:0:
320,192,63282,1,0,0:0:0:0:
448,192,63367,1,0,0:0:0:0:
192,192,63452,1,0,0:0:0:0:
448,192,63621,1,0,0:0:0:0:
64,192,63621,1,0,0:0:0:0:
192,192,63790,1,0,0:0:0:0:
320,192,63960,1,0,0:0:0:0:
64,192,63960,1,0,0:0:0:0:
448,192,64130,1,0,0:0:0:0:
192,192,64299,1,0,0:0:0:0:
448,192,64469,1,0,0:0:0:0:
192,192,64638,1,0,0:0:0:0:
64,192,64808,1,0,0:0:0:0:
192,192,64892,1,0,0:0:0:0:
320,192,64977,1,0,0:0:0:0:
448,192,65062,1,0,0:0:0:0:
320,192,65147,1,0,0:0:0:0:
192,192,65231,1,0,0:0:0:0:
64,192,65316,1,0,0:0:0:0:
192,192,65401,1,0,0:0:0:0:
448,192,65486,1,0,0:0:0:0:
320,192,65486,1,0,0:0:0:0:
192,192,65655,1,0,0:0:0:0:
64,192,65825,1,0,0:0:0:0:
448,192,65994,1,0,0:0:0:0:
64,192,66163,1,0,0:0:0:0:
320,192,66163,1,0,0:0:0:0:
192,192,66333,1,0,0:0:0:0:
64,192,66502,1,0,0:0:0:0:
448,192,66502,1,0,0:0:0:0:
320,192,66672,1,0,0:0:0:0:
192,192,66672,1,0,0:0:0:0:
448,192,66841,1,0,0:0:0:0:
64,192,67011,1,0,0:0:0:0:
192,192,67011,1,0,0:0:0:0:
448,192,67180,1,0,0:0:0:0:
64,192,67350,1,0,0:0:0:0:
320,192,67350,1,0,0:0:0:0:
192,192,67519,1,0,0:0:0:0:
448,192,67689,1,0,0:0:0:0:
64,192,67858,1,0,0:0:0:0:
320,192,68028,1,0,0:0:0:0:
64,192,68197,1,0,0:0:0:0:
192,192,68197,1,0,0:0:0:0:
448,192,68367,1,0,0:0:0:0:
192,192,68536,1,0,0:0:0:0:
320,192,68536,1,0,0:0:0:0:
64,192,68706,1,0,0:0:0:0:
320,192,68875,1,0,0:0:0:0:
192,192,69045,1,0,0:0:0:0:
448,192,69045,1,0,0:0:0:0:
320,192,69214,1,0,0:0:0:0:
64,192,69384,1,0,0:0:0:0:
192,192,69384,1,0,0:0:0:0:
448,192,69553,1,0,0:0:0:0:
192,192,69723,1,0,0:0:0:0:
448,192,69723,1,0,0:0:0:0:
64,192,69892,1,0,0:0:0:0:
64,192,70062,1,0,0:0:0:0:
320,192,70062,1,0,0:0:0:0:
448,192,70231,1,0,0:0:0:0:
192,192,70401,1,0,0:0:0:0:
320,192,70401,1,0,0:0:0:0:
64,192,70570,1,0,0:0:0:0:
448,192,70739,1,0,0:0:0:0:
320,192,70740,1,0,0:0:0:0:
192,192,70909,1,0,0:0:0:0:
448,192,70909,1,0,0:0:0:0:
64,192,71079,1,0,0:0:0:0:
320,192,71248,1,0,0:0:0:0:
448,192,71248,1,0,0:0:0:0:
192,192,71418,1,0,0:0:0:0:
448,192,71587,128,0,72265:0:0:0:0:
320,192,71587,1,0,0:0:0:0:
64,192,71757,1,0,0:0:0:0:
192,192,71926,1,0,0:0:0:0:
320,192,71926,1,0,0:0:0:0:
320,192,72095,1,0,0:0:0:0:
192,192,72265,128,0,72604:0:0:0:0:
64,192,72265,1,0,0:0:0:0:
448,192,72604,1,0,0:0:0:0:
64,192,72774,128,0,73113:0:0:0:0:
448,192,72774,1,0,0:0:0:0:
320,192,72858,1,0,0:0:0:0:
192,192,72943,1,0,0:0:0:0:
320,192,73113,128,0,73452:0:0:0:0:
448,192,73113,1,0,0:0:0:0:
192,192,73282,1,0,0:0:0:0:
64,192,73452,128,0,75655:0:0:0:0:
448,192,73452,1,0,0:0:0:0:
192,192,73621,1,0,0:0:0:0:
448,192,73621,1,0,0:0:0:0:
320,192,73791,1,0,0:0:0:0:
448,192,73960,1,0,0:0:0:0:
320,192,73960,1,0,0:0:0:0:
192,192,74130,1,0,0:0:0:0:
320,192,74299,1,0,0:0:0:0:
448,192,74469,1,0,0:0:0:0:
320,192,74638,1,0,0:0:0:0:
192,192,74638,1,0,0:0:0:0:
192,192,74808,1,0,0:0:0:0:
448,192,74808,1,0,0:0:0:0:
320,192,74977,1,0,0:0:0:0:
448,192,75147,1,0,0:0:0:0:
192,192,75147,1,0,0:0:0:0:
448,192,75316,1,0,0:0:0:0:
192,192,75316,1,0,0:0:0:0:
320,192,75486,1,0,0:0:0:0:
448,192,75486,1,0,0:0:0:0:
448,192,75655,1,0,0:0:0:0:
320,192,75655,1,0,0:0:0:0:
192,192,75994,128,0,76333:0:0:0:0:
320,192,76163,128,0,76333:0:0:0:0:
64,192,76333,1,0,0:0:0:0:
448,192,76333,1,0,0:0:0:0:
192,192,76502,1,0,0:0:0:0:
320,192,76672,1,0,0:0:0:0:
448,192,76672,1,0,0:0:0:0:
192,192,76841,1,0,0:0:0:0:
448,192,77011,1,0,0:0:0:0:
64,192,77180,1,0,0:0:0:0:
320,192,77350,1,0,0:0:0:0:
192,192,77350,1,0,0:0:0:0:
64,192,77519,1,0,0:0:0:0:
448,192,77519,128,0,77858:0:0:0:0:
192,192,77858,1,0,0:0:0:0:
64,192,78028,1,0,0:0:0:0:
192,192,78197,1,0,0:0:0:0:
320,192,78367,1,0,0:0:0:0:
448,192,78536,1,0,0:0:0:0:
320,192,78706,1,0,0:0:0:0:
192,192,78875,1,0,0:0:0:0:
64,192,78875,128,0,79214:0:0:0:0:
320,192,79214,1,0,0:0:0:0:
448,192,79384,1,0,0:0:0:0:
192,192,79553,1,0,0:0:0:0:
320,192,79723,1,0,0:0:0:0:
192,192,79892,1,0,0:0:0:0:
320,192,80062,1,0,0:0:0:0:
64,192,80231,128,0,80570:0:0:0:0:
448,192,80231,1,0,0:0:0:0:
320,192,80570,1,0,0:0:0:0:
192,192,80740,1,0,0:0:0:0:
448,192,80909,1,0,0:0:0:0:
320,192,80994,1,0,0:0:0:0:
192,192,81079,1,0,0:0:0:0:
64,192,81248,1,0,0:0:0:0:
192,192,81417,1,0,0:0:0:0:
320,192,81417,1,0,0:0:0:0:
320,192,81587,1,0,0:0:0:0:
448,192,81587,128,0,81926:0:0:0:0:
192,192,81926,1,0,0:0:0:0:
320,192,82096,1,0,0:0:0:0:
64,192,82265,1,0,0:0:0:0:
192,192,82350,1,0,0:0:0:0:
320,192,82434,1,0,0:0:0:0:
448,192,82434,1,0,0:0:0:0:
192,192,82604,1,0,0:0:0:0:
64,192,82604,1,0,0:0:0:0:
320,192,82773,1,0,0:0:0:0:
448,192,82774,1,0,0:0:0:0:
192,192,82943,128,0,83282:0:0:0:0:
64,192,82943,1,0,0:0:0:0:
320,192,83282,1,0,0:0:0:0:
64,192,83451,1,0,0:0:0:0:
448,192,83621,1,0,0:0:0:0:
320,192,83706,1,0,0:0:0:0:
192,192,83790,1,0,0:0:0:0:
64,192,83790,1,0,0:0:0:0:
192,192,83960,1,0,0:0:0:0:
320,192,83960,1,0,0:0:0:0:
320,192,84129,1,0,0:0:0:0:
448,192,84130,1,0,0:0:0:0:
320,192,84299,128,0,84638:0:0:0:0:
192,192,84299,1,0,0:0:0:0:
64,192,84638,1,0,0:0:0:0:
448,192,84808,1,0,0:0:0:0:
64,192,84977,1,0,0:0:0:0:
320,192,85062,1,0,0:0:0:0:
64,192,85146,1,0,0:0:0:0:
192,192,85146,1,0,0:0:0:0:
192,192,85316,1,0,0:0:0:0:
320,192,85316,1,0,0:0:0:0:
64,192,85486,1,0,0:0:0:0:
448,192,85486,1,0,0:0:0:0:
320,192,85655,1,0,0:0:0:0:
64,192,85825,1,0,0:0:0:0:
448,192,85994,1,0,0:0:0:0:
320,192,86078,1,0,0:0:0:0:
192,192,86163,1,0,0:0:0:0:
64,192,86163,1,0,0:0:0:0:
320,192,86333,1,0,0:0:0:0:
64,192,86502,1,0,0:0:0:0:
448,192,86502,1,0,0:0:0:0:
192,192,86672,1,0,0:0:0:0:
320,192,86672,1,0,0:0:0:0:
64,192,86841,1,0,0:0:0:0:
192,192,86841,1,0,0:0:0:0:
448,192,87011,1,0,0:0:0:0:
320,192,87011,1,0,0:0:0:0:
320,192,87180,1,0,0:0:0:0:
64,192,87180,1,0,0:0:0:0:
192,192,87180,1,0,0:0:0:0:
320,192,87350,1,0,0:0:0:0:
64,192,87350,1,0,0:0:0:0:
192,192,87350,1,0,0:0:0:0:
448,192,87689,1,0,0:0:0:0:
192,192,87689,1,0,0:0:0:0:
320,192,87689,1,0,0:0:0:0:
448,192,87858,1,0,0:0:0:0:
192,192,87858,1,0,0:0:0:0:
320,192,87858,1,0,0:0:0:0:
64,192,88197,1,0,0:0:0:0:
448,192,88197,1,0,0:0:0:0:
320,192,88197,1,0,0:0:0:0:
192,192,88197,1,0,0:0:0:0:
64,192,88367,1,0,0:0:0:0:
448,192,88367,1,0,0:0:0:0:
320,192,88367,1,0,0:0:0:0:
192,192,88367,1,0,0:0:0:0:
