osu file format v12

[General]
AudioFilename: ARCADIA.mp3
AudioLeadIn: 0
PreviewTime: 54299
Countdown: 0
SampleSet: Soft
StackLeniency: 0.7
Mode: 3
LetterboxInBreaks: 0
SpecialStyle: 0
WidescreenStoryboard: 0

[Editor]
DistanceSpacing: 1
BeatDivisor: 4
GridSize: 8

[Metadata]
Title:ARCADIA
TitleUnicode:ARCADIA
Artist:earthmind
ArtistUnicode:earthmind
Creator:Simple_Star
Version:EZ
Source:Fate/stay night Realta Nua
Tags:
BeatmapID:311119
BeatmapSetID:121542

[Difficulty]
HPDrainRate:6
CircleSize:4
OverallDifficulty:7
ApproachRate:5
SliderMultiplier:1.4
SliderTickRate:1

[Events]
//Background and Video events
0,0,"BG.jpg",0,0
Video,0,"ARCADIA.flv"
//Break Periods
//Storyboard Layer 0 (Background)
//Storyboard Layer 1 (Fail)
//Storyboard Layer 2 (Pass)
//Storyboard Layer 3 (Foreground)
//Storyboard Sound Samples
//Background Colour Transformations
3,100,163,162,255

[TimingPoints]
401,338.983050847458,4,2,0,30,1,0
54638,-100,4,2,0,30,0,1
65147,-100,4,2,0,30,0,0
65486,-100,4,2,0,30,0,1
75655,-100,4,2,0,30,0,0
76333,-100,4,2,0,30,0,1
76417,-100,4,2,0,30,0,0

[HitObjects]
448,192,401,1,0,0:0:0:0:
192,192,740,1,0,0:0:0:0:
320,192,1079,1,0,0:0:0:0:
64,192,1587,1,0,0:0:0:0:
448,192,1926,1,0,0:0:0:0:
192,192,2435,1,0,0:0:0:0:
320,192,2774,1,0,0:0:0:0:
64,192,3113,1,0,0:0:0:0:
320,192,3452,1,0,0:0:0:0:
192,192,3791,1,0,0:0:0:0:
448,192,4130,1,0,0:0:0:0:
192,192,4469,1,0,0:0:0:0:
448,192,4808,1,0,0:0:0:0:
64,192,5147,128,0,5486:0:0:0:0:
320,192,5486,1,0,0:0:0:0:
192,192,5825,1,0,0:0:0:0:
320,192,5825,1,0,0:0:0:0:
448,192,6163,1,0,0:0:0:0:
64,192,6502,1,0,0:0:0:0:
192,192,6841,1,0,0:0:0:0:
320,192,7011,1,0,0:0:0:0:
192,192,7519,1,0,0:0:0:0:
448,192,7858,1,0,0:0:0:0:
64,192,8367,1,0,0:0:0:0:
320,192,8875,1,0,0:0:0:0:
192,192,9214,1,0,0:0:0:0:
64,192,9553,1,0,0:0:0:0:
448,192,9723,1,0,0:0:0:0:
64,192,10231,1,0,0:0:0:0:
320,192,10570,1,0,0:0:0:0:
192,192,11079,1,0,0:0:0:0:
448,192,11587,1,0,0:0:0:0:
64,192,11926,1,0,0:0:0:0:
320,192,12435,1,0,0:0:0:0:
192,192,12943,1,0,0:0:0:0:
448,192,13282,1,0,0:0:0:0:
64,192,13621,1,0,0:0:0:0:
320,192,13790,1,0,0:0:0:0:
320,192,14299,1,0,0:0:0:0:
64,192,14638,1,0,0:0:0:0:
448,192,15147,1,0,0:0:0:0:
192,192,15655,1,0,0:0:0:0:
320,192,15994,1,0,0:0:0:0:
192,192,16333,1,0,0:0:0:0:
448,192,16672,1,0,0:0:0:0:
448,192,17180,1,0,0:0:0:0:
64,192,17689,1,0,0:0:0:0:
64,192,18197,1,0,0:0:0:0:
320,192,18706,128,0,19045:0:0:0:0:
192,192,19045,128,0,19384:0:0:0:0:
448,192,19384,1,0,0:0:0:0:
64,192,19723,1,0,0:0:0:0:
320,192,20062,1,0,0:0:0:0:
320,192,20570,1,0,0:0:0:0:
192,192,20909,1,0,0:0:0:0:
64,192,21248,1,0,0:0:0:0:
320,192,21587,1,0,0:0:0:0:
192,192,22096,1,0,0:0:0:0:
320,192,22435,1,0,0:0:0:0:
64,192,22774,1,0,0:0:0:0:
448,192,23282,1,0,0:0:0:0:
192,192,23621,1,0,0:0:0:0:
448,192,23960,1,0,0:0:0:0:
192,192,24299,1,0,0:0:0:0:
64,192,24808,1,0,0:0:0:0:
448,192,24808,1,0,0:0:0:0:
320,192,25147,1,0,0:0:0:0:
64,192,25655,1,0,0:0:0:0:
320,192,25994,1,0,0:0:0:0:
320,192,27011,1,0,0:0:0:0:
64,192,27519,1,0,0:0:0:0:
448,192,28028,1,0,0:0:0:0:
192,192,28536,128,0,29553:0:0:0:0:
320,192,29553,128,0,30231:0:0:0:0:
64,192,30231,1,0,0:0:0:0:
448,192,30570,1,0,0:0:0:0:
192,192,30909,1,0,0:0:0:0:
448,192,31418,1,0,0:0:0:0:
64,192,31757,1,0,0:0:0:0:
448,192,32096,1,0,0:0:0:0:
64,192,32435,1,0,0:0:0:0:
320,192,32943,1,0,0:0:0:0:
192,192,33282,1,0,0:0:0:0:
448,192,33621,1,0,0:0:0:0:
64,192,34130,1,0,0:0:0:0:
448,192,34469,1,0,0:0:0:0:
64,192,34808,1,0,0:0:0:0:
448,192,35147,1,0,0:0:0:0:
320,192,35655,1,0,0:0:0:0:
192,192,35994,1,0,0:0:0:0:
64,192,35994,128,0,37011:0:0:0:0:
192,192,37350,1,0,0:0:0:0:
320,192,37689,1,0,0:0:0:0:
448,192,38028,1,0,0:0:0:0:
64,192,38367,1,0,0:0:0:0:
320,192,38706,1,0,0:0:0:0:
192,192,39045,1,0,0:0:0:0:
320,192,39553,128,0,40570:0:0:0:0:
64,192,41079,1,0,0:0:0:0:
448,192,41079,1,0,0:0:0:0:
192,192,41418,1,0,0:0:0:0:
320,192,41757,1,0,0:0:0:0:
192,192,42096,1,0,0:0:0:0:
448,192,42435,1,0,0:0:0:0:
64,192,42774,1,0,0:0:0:0:
320,192,43113,1,0,0:0:0:0:
192,192,43452,1,0,0:0:0:0:
448,192,43791,1,0,0:0:0:0:
192,192,44130,1,0,0:0:0:0:
320,192,44469,1,0,0:0:0:0:
64,192,44808,1,0,0:0:0:0:
192,192,45147,1,0,0:0:0:0:
320,192,45486,1,0,0:0:0:0:
192,192,45825,1,0,0:0:0:0:
64,192,46163,1,0,0:0:0:0:
320,192,46502,1,0,0:0:0:0:
448,192,46502,1,0,0:0:0:0:
192,192,46841,1,0,0:0:0:0:
320,192,47180,1,0,0:0:0:0:
64,192,47519,1,0,0:0:0:0:
448,192,47858,1,0,0:0:0:0:
192,192,48197,1,0,0:0:0:0:
448,192,48536,1,0,0:0:0:0:
64,192,48875,1,0,0:0:0:0:
320,192,49214,128,0,50740:0:0:0:0:
192,192,49214,1,0,0:0:0:0:
192,192,51248,1,0,0:0:0:0:
320,192,51587,1,0,0:0:0:0:
64,192,51926,1,0,0:0:0:0:
448,192,51926,1,0,0:0:0:0:
192,192,52604,1,0,0:0:0:0:
448,192,53112,1,0,0:0:0:0:
320,192,53113,1,0,0:0:0:0:
192,192,53621,1,0,0:0:0:0:
64,192,53960,1,0,0:0:0:0:
448,192,54129,1,0,0:0:0:0:
320,192,54638,1,0,0:0:0:0:
64,192,54638,1,0,0:0:0:0:
192,192,54977,1,0,0:0:0:0:
448,192,55316,1,0,0:0:0:0:
64,192,55825,1,0,0:0:0:0:
320,192,56163,1,0,0:0:0:0:
64,192,56502,1,0,0:0:0:0:
192,192,57350,1,0,0:0:0:0:
320,192,57350,1,0,0:0:0:0:
320,192,57858,1,0,0:0:0:0:
64,192,58197,1,0,0:0:0:0:
448,192,58536,1,0,0:0:0:0:
192,192,58875,1,0,0:0:0:0:
448,192,59214,1,0,0:0:0:0:
320,192,60062,128,0,60740:0:0:0:0:
64,192,60740,1,0,0:0:0:0:
192,192,61418,128,0,62096:0:0:0:0:
448,192,62096,1,0,0:0:0:0:
64,192,62774,1,0,0:0:0:0:
448,192,62774,1,0,0:0:0:0:
192,192,63112,1,0,0:0:0:0:
320,192,63282,1,0,0:0:0:0:
192,192,63621,1,0,0:0:0:0:
320,192,63960,128,0,65147:0:0:0:0:
64,192,65147,1,0,0:0:0:0:
192,192,65486,1,0,0:0:0:0:
448,192,65486,1,0,0:0:0:0:
448,192,65825,1,0,0:0:0:0:
64,192,66163,1,0,0:0:0:0:
320,192,66672,1,0,0:0:0:0:
192,192,67011,1,0,0:0:0:0:
448,192,67350,1,0,0:0:0:0:
64,192,67689,1,0,0:0:0:0:
320,192,68197,1,0,0:0:0:0:
192,192,68197,1,0,0:0:0:0:
64,192,68706,1,0,0:0:0:0:
320,192,69045,1,0,0:0:0:0:
192,192,69384,1,0,0:0:0:0:
448,192,69723,1,0,0:0:0:0:
192,192,70062,1,0,0:0:0:0:
320,192,70401,1,0,0:0:0:0:
64,192,70740,128,0,71079:0:0:0:0:
448,192,71587,128,0,72265:0:0:0:0:
192,192,72265,1,0,0:0:0:0:
320,192,72774,1,0,0:0:0:0:
64,192,73113,1,0,0:0:0:0:
448,192,73452,128,0,75655:0:0:0:0:
64,192,75655,1,0,0:0:0:0:
64,192,76333,1,0,0:0:0:0:
448,192,76333,1,0,0:0:0:0:
192,192,77519,1,0,0:0:0:0:
320,192,77519,1,0,0:0:0:0:
320,192,78875,1,0,0:0:0:0:
448,192,78875,1,0,0:0:0:0:
64,192,80231,1,0,0:0:0:0:
192,192,80231,1,0,0:0:0:0:
64,192,81587,1,0,0:0:0:0:
448,192,81587,1,0,0:0:0:0:
320,192,82943,1,0,0:0:0:0:
448,192,82943,1,0,0:0:0:0:
64,192,84299,1,0,0:0:0:0:
320,192,84299,1,0,0:0:0:0:
320,192,85485,1,0,0:0:0:0:
192,192,85824,1,0,0:0:0:0:
448,192,86163,1,0,0:0:0:0:
192,192,86502,1,0,0:0:0:0:
320,192,86841,1,0,0:0:0:0:
64,192,87180,1,0,0:0:0:0:
448,192,87180,1,0,0:0:0:0:
192,192,87689,1,0,0:0:0:0:
320,192,87689,1,0,0:0:0:0:
64,192,88197,1,0,0:0:0:0:
448,192,88197,1,0,0:0:0:0:
