osu file format v9

[General]
AudioFilename: CaptivAte2.mp3
AudioLeadIn: 2500
PreviewTime: 22557
Countdown: 0
SampleSet: Normal
StackLeniency: 0.7
Mode: 0
LetterboxInBreaks: 1

[Editor]
Bookmarks: 9781,21781,32752,46891,49463,66348,75434,82120
DistanceSpacing: 1
BeatDivisor: 4
GridSize: 4

[Metadata]
Title:CaptivAte2~Kakusei~
Artist:e-lma
Creator:Maddy
Version:Standard
Source:beatmania IIDX
Tags:16 EMPRESS DJ YOSHITAKA -kevincela- NeoRainier Backfire

[Difficulty]
HPDrainRate:4
CircleSize:3
OverallDifficulty:4
ApproachRate:5
SliderMultiplier:1.2
SliderTickRate:2

[Events]
//Background and Video events
0,0,"Kakusei Standard.jpg"
//Break Periods
2,45119,47490
//Storyboard Layer 0 (Background)
//Storyboard Layer 1 (Fail)
//Storyboard Layer 2 (Pass)
//Storyboard Layer 3 (Foreground)
//Storyboard Sound Samples
//Background Colour Transformations
3,100,0,0,0

[TimingPoints]
-680,342.857142857143,4,2,0,85,1,0
9433,-100,4,2,0,50,0,0
9776,-100,4,2,0,85,0,0
10290,-100,4,2,0,40,0,0
10633,-100,4,2,0,55,0,0
10976,-100,4,2,0,70,0,0
11576,-100,4,1,0,70,0,0
11662,-100,4,1,0,70,0,1
11833,-100,4,1,0,70,0,0
21947,-100,4,2,0,85,0,0
22633,-100,4,2,0,85,0,1
22805,-100,4,2,0,85,0,0
33090,-100,4,2,0,50,0,0
33433,-100,4,2,0,85,0,0
39262,-100,4,1,0,70,0,0
41662,-100,4,2,0,85,0,0
43376,-100,4,1,0,70,0,0
44748,-100,4,2,0,85,0,0
59662,-100,4,2,0,85,0,1
59834,-100,4,2,0,85,0,0
69090,-100,4,1,0,85,0,0
69690,-100,4,2,0,85,0,0
82976,-100,4,2,0,85,0,1
92490,-100,4,1,0,85,0,1
92919,-100,4,2,0,85,0,1
99605,-100,4,1,0,85,0,1
100633,-100,4,2,0,85,0,1
100976,-100,4,1,0,85,0,1
104747,-100,4,1,0,85,0,0
104919,-100,4,1,0,85,0,1
105090,-100,4,1,0,85,0,0

[Colours]
Combo1 : 64,128,128
Combo2 : 176,57,57
Combo3 : 27,117,165

[HitObjects]
336,76,348,1,2
360,192,690,2,0,B|292:196|252:176|220:128|220:88,2,180,6|0|0
120,72,2748,5,0
72,192,3090,1,0
120,312,3433,1,2
300,280,3948,2,0,B|300:229|280:188|234:165|186:171,1,180,2|0
392,260,5833,5,0
416,144,6177,2,0,B|360:148|335:105|335:105|312:52|248:64,2,180,2|2|2
392,260,7547,2,0,B|408:288|408:320,1,60,0|2
288,312,8062,2,0,B|272:280|272:240,1,60,0|2
148,84,8747,5,0
88,256,9262,2,0,B|148:228|204:260,1,120,2|0
360,84,10290,6,8,B|384:148|360:208,2,120
256,144,11319,1,0
248,264,11662,6,0,B|176:256|152:192,1,120,4|0
128,80,12348,2,0,B|60:96|40:168,1,120
56,280,13033,2,0,B|96:336|176:332,2,120
56,156,14062,1,0
160,216,14405,6,0,B|192:156|160:92,1,120
280,64,15090,2,0,B|392:132,1,120
384,248,15776,2,0,B|276:180,1,120
256,304,16462,1,0
140,264,16805,2,0,B|172:204|140:144,1,120,0|4
256,112,17490,5,0
364,60,17833,1,0
356,180,18176,1,0
416,284,18519,2,0,B|352:316|288:284,1,120
200,224,19205,1,0
152,332,19548,6,0,B|88:308|88:308|56:252,2,120
272,332,20576,1,0
392,332,20919,1,0
332,228,21262,5,4
264,64,22633,6,2,B|124:64,1,120
56,144,23319,2,2,B|80:208|148:212,2,120,0|0|2
144,64,24348,1,2
264,64,24690,6,2,B|336:64|352:132,1,120
348,248,25376,2,2,B|280:244|260:180,1,120,0|0
156,120,26062,2,0,B|132:180|132:180|156:240,2,120
264,60,27090,1,0
380,92,27433,2,2,B|360:160|280:180,1,120
256,288,28119,5,0
140,324,28462,1,0
156,204,28805,2,0,B|156:132|228:96,1,120
292,196,29490,1,0
344,88,29833,2,0,B|420:92|436:164,1,120
408,272,30519,1,0
288,268,30862,6,2,B|252:172|148:188|148:188|148:124,2,240,2|2|6
172,296,32576,1,0
60,256,32919,2,0,B|60:128,2,120,4|4|4
172,296,33948,5,0
212,184,34290,2,2,B|276:200|288:276,1,120
396,320,34976,1,0
420,204,35319,1,0
336,120,35662,6,2,B|296:52|216:64,2,120
296,232,36690,1,0
208,312,37033,1,0
88,296,37376,2,0,B|100:220|168:204,1,120
236,116,38062,1,0
348,160,38405,6,2,B|368:92|320:32,2,120,2|2|6
396,268,39433,1,0
288,320,39776,1,0
176,276,40119,1,0
268,200,40462,5,4
152,164,40805,1,0
56,236,41147,1,0
40,116,41490,1,0
140,52,41833,6,2,B|196:28|276:56,2,120,6|2|2
152,164,42862,1,0
272,152,43205,2,0,B|272:220,1,60,0|0
272,272,43547,2,0,B|308:336|384:324,1,120,0|0
436,224,44233,2,0,B|436:160,1,60,0|4
256,136,44919,5,4
296,80,48690,6,2,B|368:112|368:112|420:204,1,180
417,200,49548,1,0
260,288,50062,6,2,B|188:256|188:256|136:164,2,180
380,296,51433,2,0,B|372:240|344:208|304:184|248:176,1,180,0|2
136,40,52805,5,2
376,40,53490,1,2
136,40,54176,2,0,B|134:95|161:129|203:153|251:146,1,180,0|2
372,144,55033,1,0
376,344,55547,6,0,B|377:288|350:254|308:230|260:237,1,180,0|2
140,240,56405,1,0
188,68,56919,2,0,B|256:68|300:120|300:120|336:76|400:72,2,240,2|0|2
88,132,58633,1,0
192,188,58976,1,0
88,248,59319,1,0
192,312,59662,6,0,B|312:312,1,120,4|2
416,252,60347,2,0,B|380:188|300:192,1,120,0|2
316,72,61033,2,0,B|196:72,1,120,0|2
96,132,61719,2,0,B|132:196|212:192,1,120,0|2
312,192,62405,6,0,B|380:192,3,60,2|0|0|2
200,192,63776,6,0,B|132:192,3,60,2|0|0|2
256,56,65147,5,2
136,56,65490,2,0,B|72:72|56:148,1,120,0|2
176,164,66176,1,0
128,272,66519,2,0,B|192:296|252:256,1,120,2|0
176,164,67205,5,2
296,152,67547,2,0,B|288:86|228:58,2,120,0|0|0
336,264,68576,1,0
416,176,68919,1,0
460,288,69262,5,0
460,288,69433,1,0
488,108,69948,1,4
248,108,70633,6,0,B|188:108,1,60,4|0
72,72,71147,2,0,B|52:112|52:160|80:188|104:212|136:220,1,180,0|2
252,204,72005,2,0,B|316:204,1,60,4|0
320,324,72519,2,0,B|268:324|268:324|204:344|204:344|140:344,1,180,0|2
72,248,73376,6,0,B|72:188,1,60,4|0
76,68,73890,2,0,B|128:76|168:108|192:156|188:196,1,180,0|2
292,252,74747,2,0,B|356:252,1,60,4|0
444,172,75262,2,0,B|396:136|356:152|356:152|316:168|264:132,1,180,0|2
176,72,76119,6,0,B|144:64|116:72,7,60,4|0|0|0|0|0|0|0
88,124,77490,6,0,B|80:152|88:184,7,60,4|0|0|0|0|0|0|0
104,244,78862,6,2,B|164:256|220:212,3,120
300,128,80233,5,4
300,128,80919,2,2,B|300:40,2,90
300,308,81947,1,4
220,72,82976,6,2,B|200:140|116:144,1,120,6|2
44,224,83662,1,0
120,316,84005,1,0
192,220,84347,2,2,B|256:240|276:316,1,120
392,308,85033,2,0,B|392:188,2,120,0|0|4
272,304,86062,5,0
272,184,86405,2,0,B|272:112|336:84,1,120
392,188,87090,1,0
392,304,87433,2,2,B|260:304,2,120,2|2|2
392,188,88462,1,4
384,68,88805,6,2,B|312:72|288:128,1,120
184,192,89490,1,0
276,268,89833,1,0
172,328,90176,2,2,B|104:320|88:252,2,120
276,268,91205,1,0
380,324,91548,6,0,B|420:204,1,120
388,92,92233,1,2
292,160,92576,2,0,B|268:220,1,60
108,152,93262,2,0,B|96:84|156:52,1,120,4|4
276,68,93948,6,0,B|336:68|336:68|392:96,1,120,4|0
424,204,94633,1,0
364,308,94976,1,0
296,208,95319,2,2,B|228:236|240:316,1,120
136,236,96005,6,0,B|204:208|192:128,2,120,2|0|2
72,136,97033,1,0
152,48,97376,2,0,B|212:36|272:48,1,120,2|0
388,76,98062,1,2
432,188,98405,1,0
384,296,98748,2,2,B|320:272|312:192,2,120,2|2|6
272,336,99776,5,0
148,316,100119,1,0
68,228,100462,1,0
92,112,100805,5,4
180,196,101148,1,0
296,228,101490,1,0
416,216,101833,1,0
340,124,102176,6,0,B|300:68|228:64,1,120,0|0
120,88,102862,2,0,B|140:136|216:156,1,120,0|0
304,236,103548,6,0,B|256:288,3,60
212,312,104233,2,0,B|148:296|148:296|100:248,1,120,0|4
108,136,104919,1,4
