osu file format v13

[General]
AudioFilename: e-ZUKA - Assailant in the Night.mp3
AudioLeadIn: 1500
PreviewTime: 44339
Countdown: 0
SampleSet: None
StackLeniency: 0.7
Mode: 0
LetterboxInBreaks: 0
WidescreenStoryboard: 1

[Editor]
DistanceSpacing: 1
BeatDivisor: 2
GridSize: 4
TimelineZoom: 1.9

[Metadata]
Title:Assailant in the Night
TitleUnicode:Assailant in the Night
Artist:e-ZUKA
ArtistUnicode:e-ZUKA
Creator:Saten
Version:Hard
Source:NEEDLESS
Tags:Saten-san
BeatmapID:453724
BeatmapSetID:52499

[Difficulty]
HPDrainRate:4
CircleSize:3
OverallDifficulty:6
ApproachRate:8
SliderMultiplier:1
SliderTickRate:2

[Events]
//Background and Video events
0,0,"BG.jpg",0,0
//Break Periods
//Storyboard Layer 0 (Background)
//Storyboard Layer 1 (Fail)
//Storyboard Layer 2 (Pass)
//Storyboard Layer 3 (Foreground)
//Storyboard Sound Samples
//Background Colour Transformations
3,100,0,0,0

[TimingPoints]
370,204.081632653061,4,2,1,80,1,0
9502,-100,4,2,2,80,0,0
9604,-100,4,2,1,80,0,0
11135,-100,4,2,2,80,0,0
11237,-100,4,2,1,80,0,0
21747,-100,4,2,2,80,0,0
21849,-100,4,2,1,80,0,0
22155,-100,4,2,2,80,0,0
22257,-100,4,2,1,80,0,0
22563,-100,4,2,2,80,0,0
22665,-100,4,2,1,80,0,0
23380,-100,4,2,2,80,0,0
23482,-100,4,2,1,80,0,0
23788,-100,4,2,2,80,0,0
23890,-100,4,2,1,80,0,0
24196,-100,4,2,2,80,0,0
24298,-100,4,2,1,80,0,0
25012,-100,4,2,2,80,0,0
25114,-100,4,2,1,80,0,0
26645,-100,4,2,2,80,0,0
26747,-100,4,2,1,80,0,0
28278,-100,4,2,2,80,0,0
28380,-100,4,2,1,80,0,0
28686,-100,4,2,2,80,0,0
28788,-100,4,2,1,80,0,0
29502,-100,4,2,2,80,0,0
29604,-100,4,2,1,80,0,0
29910,-100,4,2,2,80,0,0
30012,-100,4,2,1,80,0,0
31543,-100,4,2,2,80,0,0
31645,-100,4,2,1,80,0,0
33176,-100,4,2,2,80,0,0
33278,-100,4,2,1,80,0,0
34808,-100,4,2,2,80,0,0
34910,-100,4,2,1,80,0,0
35216,-100,4,2,2,80,0,0
35318,-100,4,2,1,80,0,0
35625,-100,4,2,2,80,0,0
35727,-100,4,2,1,80,0,0
36441,-100,4,2,2,80,0,0
36543,-100,4,2,1,80,0,0
36849,-100,4,2,2,80,0,0
36951,-100,4,2,1,80,0,0
37257,-100,4,2,2,80,0,0
37359,-100,4,2,1,80,0,0
38074,-100,4,2,2,80,0,0
38176,-100,4,2,1,80,0,0
39706,-100,4,2,2,80,0,0
39808,-100,4,2,1,80,0,0
41339,-100,4,2,2,80,0,0
41441,-100,4,2,1,80,0,0
41747,-100,4,2,2,80,0,0
41849,-100,4,2,1,80,0,0
42155,-100,4,2,2,80,0,0
42257,-100,4,2,1,80,0,0
42563,-100,4,2,2,80,0,0
42665,-100,4,2,1,80,0,0
42972,-100,4,2,2,80,0,0
43074,-100,4,2,1,80,0,0
43278,-100,4,2,2,80,0,0
43482,-100,4,2,1,80,0,0
43584,-100,4,2,2,80,0,0
43686,-100,4,2,1,80,0,0
43788,-100,4,2,2,80,0,0
43992,-100,4,2,1,80,0,0
44094,-100,4,2,2,80,0,0
44451,-100,4,2,1,80,0,1
57512,-100,4,2,1,80,0,0
60931,-100,4,2,2,80,0,0
61033,-100,4,2,1,80,0,0
61747,-100,4,2,2,80,0,0
61849,-100,4,2,1,80,0,0
62563,-100,4,2,2,80,0,0
62665,-100,4,2,1,80,0,0
63380,-100,4,2,2,80,0,0
63482,-100,4,2,1,80,0,0
67461,-100,4,2,2,80,0,0
67563,-100,4,2,1,80,0,0
67869,-100,4,2,2,80,0,0
67972,-100,4,2,1,80,0,0
68686,-100,4,2,2,80,0,0
68788,-100,4,2,1,80,0,0
69094,-100,4,2,2,80,0,0
69196,-100,4,2,1,80,0,0
69502,-100,4,2,2,80,0,0
69604,-100,4,2,1,80,0,0
69808,-100,4,2,2,80,0,0
69910,-100,4,2,1,80,0,0
70114,-100,4,2,2,80,0,0
70216,-100,4,2,1,80,0,0
70727,-100,4,2,2,80,0,0
70829,-100,4,2,1,80,0,0
72359,-100,4,2,2,80,0,0
72461,-100,4,2,1,80,0,0
73992,-100,4,2,2,80,0,0
74094,-100,4,2,1,80,0,0
74400,-100,4,2,2,80,0,0
74502,-100,4,2,1,80,0,0
74808,-100,4,2,2,80,0,0
74910,-100,4,2,1,80,0,0
75216,-100,4,2,2,80,0,0
75318,-100,4,2,1,80,0,0
75625,-100,4,2,2,80,0,0
75727,-100,4,2,1,80,0,0
76033,-100,4,2,2,80,0,0
76135,-100,4,2,1,80,0,0
77257,-100,4,2,2,80,0,0
77359,-100,4,2,1,80,0,0
78890,-100,4,2,2,80,0,0
78992,-100,4,2,1,80,0,0
80523,-100,4,2,2,80,0,0
80625,-100,4,2,1,80,0,0
80931,-100,4,2,2,80,0,0
81033,-100,4,2,1,80,0,0
81339,-100,4,2,2,80,0,0
81441,-100,4,2,1,80,0,0
81747,-100,4,2,2,80,0,0
81849,-100,4,2,1,80,0,0
82155,-100,4,2,2,80,0,0
82257,-100,4,2,1,80,0,0
82461,-100,4,2,2,80,0,0
82563,-100,4,2,1,80,0,0
82767,-100,4,2,2,80,0,0
82869,-100,4,2,1,80,0,0
83074,-100,4,2,2,80,0,0
83278,-100,4,2,1,80,0,0
83635,-100,4,2,1,80,0,1
96696,-100,4,2,1,80,0,0
96798,-100,4,2,1,20,0,0
122818,-100,4,2,1,80,0,0
152206,-100,4,2,1,80,0,1
181594,-100,4,2,1,80,0,0
189094,-100,4,2,2,80,0,0
189196,-100,4,2,1,80,0,0
190727,-100,4,2,2,80,0,0
190829,-100,4,2,1,80,0,0
192359,-100,4,2,2,80,0,0
192461,-100,4,2,1,80,0,0
197257,-100,4,2,2,80,0,0
197359,-100,4,2,1,80,0,0
202155,-100,4,2,2,80,0,0
202257,-100,4,2,1,80,0,0
203788,-100,4,2,2,80,0,0
203890,-100,4,2,1,80,0,0
210318,-100,4,2,2,80,0,0
210421,-100,4,2,1,80,0,0

[Colours]
Combo1 : 255,255,121
Combo2 : 111,143,255
Combo3 : 255,83,83
Combo4 : 128,255,128

[HitObjects]
216,152,370,6,0,L|176:116,3,50,8|0|0|0,0:0|0:0|0:0|0:0,0:0:0:0:
296,152,778,2,0,L|336:116,3,50,8|0|0|0,0:0|0:0|0:0|0:0,0:0:0:0:
216,232,1186,2,0,L|176:268,3,50,8|0|0|0,0:0|0:0|0:0|0:0,0:0:0:0:
296,232,1594,2,0,L|336:268,3,50,8|8|8|8,0:0|0:0|0:0|0:0,0:0:0:0:
256,192,2002,6,0,L|256:92,1,100,4|0,0:0|0:0,0:0:0:0:
256,92,4451,5,4,0:0:0:0:
179,255,4757,1,12,0:0:0:0:
68,115,5063,1,4,0:0:0:0:
180,156,5267,1,4,0:0:0:0:
476,192,8533,6,0,P|464:140|436:100,1,100,4|8,0:0|0:0,0:0:0:0:
320,72,8941,1,0,0:0:0:0:
292,112,9043,1,0,0:0:0:0:
264,152,9145,1,8,0:0:0:0:
236,192,9247,1,0,0:0:0:0:
208,232,9349,2,0,P|140:228|80:176,2,150,0|0|8,0:0|0:0|0:0,0:0:0:0:
180,116,10165,1,0,0:0:0:0:
60,100,10369,6,0,L|60:200,1,100,8|0,0:0|0:0,0:0:0:0:
124,304,10778,1,8,0:0:0:0:
124,304,10880,1,0,0:0:0:0:
124,304,10982,2,0,P|192:288|228:220,2,150,0|0|8,0:0|0:0|0:0,0:0:0:0:
24,240,11798,6,0,L|24:140,1,100,0|8,0:0|0:0,0:0:0:0:
120,68,12206,1,0,0:0:0:0:
164,92,12308,1,0,0:0:0:0:
208,116,12410,1,8,0:0:0:0:
252,140,12512,1,0,0:0:0:0:
296,164,12614,2,0,L|340:136,3,50,0|0|8|0,0:0|0:0|0:0|0:0,0:0:0:0:
388,136,13023,2,0,L|430:162,3,50,8|0|0|0,0:0|0:0|0:0|0:0,0:0:0:0:
464,196,13431,6,0,P|436:268|372:296,1,150,12|8,0:0|0:0,0:0:0:0:
212,216,14043,2,0,L|299:167,1,100,12|8,0:0|0:0,0:0:0:0:
139,88,14553,2,0,P|72:119|48:188,1,150,8|8,0:0|0:0,0:0:0:0:
84,300,15063,6,0,B|164:360|164:360|256:320|256:320|348:360|348:360|428:300,1,400,4|0,0:0|0:0,0:0:0:0:
252,40,16696,6,0,L|208:64,3,50,8|0|0|0,0:0|0:0|0:0|0:0,0:0:0:0:
212,124,17104,2,0,L|256:148,3,50,8|0|0|0,0:0|0:0|0:0|0:0,0:0:0:0:
256,208,17512,2,0,L|212:232,3,50,8|0|0|0,0:0|0:0|0:0|0:0,0:0:0:0:
164,240,17921,1,8,0:0:0:0:
120,220,18023,1,8,0:0:0:0:
104,172,18125,1,8,0:0:0:0:
112,124,18227,1,8,0:0:0:0:
148,88,18329,6,0,L|248:88,1,100,4|8,0:0|0:0,0:0:0:0:
352,148,18737,1,0,0:0:0:0:
340,196,18839,1,0,0:0:0:0:
328,244,18941,2,0,P|425:253|500:191,1,200,8|8,0:0|0:0,0:0:0:0:
448,84,19553,1,0,0:0:0:0:
404,60,19655,1,0,0:0:0:0:
360,36,19757,2,0,P|308:36|264:52,1,100,8|0,0:0|0:0,0:0:0:0:
256,172,20165,5,8,0:0:0:0:
212,200,20267,1,0,0:0:0:0:
164,208,20369,1,0,0:0:0:0:
116,192,20472,1,0,0:0:0:0:
84,156,20574,2,0,P|40:248|76:332,1,200,8|8,0:0|0:0,0:0:0:0:
