osu file format v14

[General]
AudioFilename: duck.gif.mp3
AudioLeadIn: 0
PreviewTime: -1
Countdown: 0
SampleSet: Normal
StackLeniency: 0.7
Mode: 0
LetterboxInBreaks: 0
WidescreenStoryboard: 0

[Editor]
DistanceSpacing: 1.6
BeatDivisor: 4
GridSize: 4
TimelineZoom: 1.5

[Metadata]
Title:duck.gif
TitleUnicode:duck.gif
Artist:
ArtistUnicode:
Creator:Lach
Version:CALLUM DOT GIF
Source:
Tags:redalice flower jubeat yoshitaka dj nagai sound voltex infinite infection whoosh bang rlc callum some1
BeatmapID:617167
BeatmapSetID:271439

[Difficulty]
HPDrainRate:7
CircleSize:4
OverallDifficulty:7
ApproachRate:9
SliderMultiplier:1.8
SliderTickRate:1

[Events]
//Background and Video events
Video,0,"duck.gif.avi"
0,0,"ducksama.png",0,0
//Break Periods
//Storyboard Layer 0 (Background)
//Storyboard Layer 1 (Fail)
//Storyboard Layer 2 (Pass)
//Storyboard Layer 3 (Foreground)
//Storyboard Sound Samples

[TimingPoints]
213,333.333333333333,4,1,0,100,1,0
8212,-100,4,1,0,100,0,0
26879,-133.333333333333,4,1,0,100,0,0
48212,-100,4,1,0,100,0,0

[HitObjects]
72,108,8212,5,0,0:0:0:0:
272,140,8462,1,0,0:0:0:0:
76,200,8712,1,0,0:0:0:0:
196,32,8962,1,0,0:0:0:0:
156,216,9212,2,0,P|120:268|80:272,1,90
392,212,9546,5,0,0:0:0:0:
268,344,9796,1,0,0:0:0:0:
316,152,10046,1,0,0:0:0:0:
380,332,10296,1,0,0:0:0:0:
236,160,10546,2,0,P|272:220|312:228,1,90
288,24,10879,6,0,L|312:160,1,135
392,92,11379,1,0,0:0:0:0:
136,272,11546,2,0,L|256:200,1,135
256,316,12046,1,0,0:0:0:0:
164,160,12212,1,0,0:0:0:0:
344,160,12379,1,0,0:0:0:0:
316,132,12462,1,0,0:0:0:0:
120,232,12629,1,0,0:0:0:0:
144,264,12712,2,0,P|204:312|412:332,1,270
212,160,13546,6,0,P|156:132|108:128,1,90
272,88,13879,1,0,0:0:0:0:
152,228,14046,2,0,P|216:256|248:252,1,90
160,120,14379,1,0,0:0:0:0:
304,192,14546,1,0,0:0:0:0:
104,288,14712,1,0,0:0:0:0:
304,288,14879,6,0,P|274:321|228:328,1,90,0|0,0:0|0:0,0:0:0:0:
230,328,15129,1,0,0:0:0:0:
230,328,15212,1,0,0:0:0:0:
356,208,15379,1,0,0:0:0:0:
320,68,15546,2,0,P|272:140|268:188,1,135
236,212,15879,2,0,P|180:228|128:196,1,90
248,100,16212,5,0,0:0:0:0:
92,248,16379,1,0,0:0:0:0:
84,208,16462,1,0,0:0:0:0:
100,172,16546,1,0,0:0:0:0:
184,328,16712,1,0,0:0:0:0:
208,92,16879,1,0,0:0:0:0:
216,132,16962,1,0,0:0:0:0:
200,168,17046,1,0,0:0:0:0:
276,288,17212,2,0,B|312:256|312:256|332:200,1,90
368,352,17546,5,0,0:0:0:0:
400,320,17629,1,0,0:0:0:0:
392,276,17712,1,0,0:0:0:0:
424,244,17796,1,0,0:0:0:0:
416,200,17879,2,0,L|376:36,1,135
340,68,18212,5,0,0:0:0:0:
296,60,18296,1,0,0:0:0:0:
264,72,18379,2,0,B|208:60|208:60|172:76|172:76|96:56,1,135
88,60,18712,1,0,0:0:0:0:
272,172,18879,1,0,0:0:0:0:
128,144,19046,6,0,B|84:132|84:132|84:132,1,45
192,208,19212,1,0,0:0:0:0:
120,332,19379,1,0,0:0:0:0:
240,300,19546,2,0,L|288:284,1,45
364,248,19712,2,0,P|324:212|276:208,1,90
400,332,20046,1,0,0:0:0:0:
208,232,20212,5,0,0:0:0:0:
264,96,20379,2,0,L|176:124,1,90
312,160,20712,1,0,0:0:0:0:
312,160,20796,1,0,0:0:0:0:
312,160,20879,2,0,P|360:128|364:56,1,135
324,36,21212,2,0,L|220:32,1,90
76,200,21546,5,0,0:0:0:0:
168,76,21712,1,0,0:0:0:0:
168,76,21796,1,0,0:0:0:0:
168,76,21879,1,0,0:0:0:0:
228,208,22046,1,0,0:0:0:0:
144,332,22212,1,0,0:0:0:0:
144,332,22296,1,0,0:0:0:0:
144,332,22379,1,0,0:0:0:0:
296,276,22546,2,0,L|352:184,1,90
265,53,22879,5,0,0:0:0:0:
236,88,22962,1,0,0:0:0:0:
252,129,23046,1,0,0:0:0:0:
217,160,23129,1,0,0:0:0:0:
192,196,23212,2,0,B|148:232|148:232|156:280|156:280|120:312,1,135
92,284,23546,1,0,0:0:0:0:
80,240,23629,1,0,0:0:0:0:
76,196,23712,2,0,B|136:148|136:148|160:120|168:92|168:48,1,180
88,84,24212,5,0,0:0:0:0:
104,100,24296,1,0,0:0:0:0:
120,116,24379,1,0,0:0:0:0:
140,128,24462,1,0,0:0:0:0:
164,132,24546,1,0,0:0:0:0:
188,132,24629,5,0,0:0:0:0:
212,128,24712,1,0,0:0:0:0:
232,120,24796,1,0,0:0:0:0:
252,108,24879,1,0,0:0:0:0:
272,104,24962,1,0,0:0:0:0:
296,104,25046,5,0,0:0:0:0:
320,108,25129,1,0,0:0:0:0:
340,116,25212,1,0,0:0:0:0:
360,128,25296,1,0,0:0:0:0:
376,144,25379,1,0,0:0:0:0:
388,164,25462,5,0,0:0:0:0:
396,184,25546,1,0,0:0:0:0:
400,204,25629,1,0,0:0:0:0:
400,228,25712,1,0,0:0:0:0:
396,252,25796,1,0,0:0:0:0:
388,272,25879,5,0,0:0:0:0:
376,292,25962,1,0,0:0:0:0:
372,316,26046,1,0,0:0:0:0:
376,336,26129,1,0,0:0:0:0:
388,356,26212,1,0,0:0:0:0:
256,192,26296,12,0,26879,0:0:0:0:
48,168,27046,5,0,0:0:0:0:
84,224,27212,1,0,0:0:0:0:
140,260,27379,2,0,P|264:280|328:240,1,202.500007724762
356,184,28046,1,0,0:0:0:0:
336,120,28212,1,0,0:0:0:0:
280,84,28379,1,0,0:0:0:0:
128,116,28546,5,0,0:0:0:0:
176,160,28712,1,0,0:0:0:0:
244,172,28879,1,0,0:0:0:0:
244,172,28962,1,0,0:0:0:0:
244,172,29046,1,0,0:0:0:0:
244,172,29129,1,0,0:0:0:0:
244,172,29212,2,0,P|228:216|184:228,1,67.5000025749208
152,260,29546,5,0,0:0:0:0:
92,288,29712,1,0,0:0:0:0:
24,300,29879,1,0,0:0:0:0:
76,188,30046,1,0,0:0:0:0:
136,156,30212,1,0,0:0:0:0:
204,152,30379,1,0,0:0:0:0:
208,220,30546,5,0,0:0:0:0:
324,164,30712,2,0,B|384:132|384:132|392:60,1,135.000005149842
391,65,31212,1,0,0:0:0:0:
292,72,31379,2,0,P|239:126|237:187,1,135.000005149842
284,232,31879,1,0,0:0:0:0:
316,292,32046,2,0,B|284:312|284:312|248:288|248:288|212:312|212:312|172:280|172:280|132:308|132:308|96:276|96:276|48:296|48:296|20:292,1,337.500012874604
44,228,33046,5,0,0:0:0:0:
80,172,33212,1,0,0:0:0:0:
100,144,33296,1,0,0:0:0:0:
120,116,33379,1,0,0:0:0:0:
272,112,33546,1,0,0:0:0:0:
236,168,33712,1,0,0:0:0:0:
200,224,33879,1,0,0:0:0:0:
164,280,34046,1,0,0:0:0:0:
124,336,34212,5,0,0:0:0:0:
260,316,34379,1,0,0:0:0:0:
292,256,34546,1,0,0:0:0:0:
312,228,34629,1,0,0:0:0:0:
328,200,34712,1,0,0:0:0:0:
364,80,34879,1,0,0:0:0:0:
312,36,35046,1,0,0:0:0:0:
244,40,35212,1,0,0:0:0:0:
184,72,35379,1,0,0:0:0:0:
172,140,35546,5,0,0:0:0:0:
204,200,35712,1,0,0:0:0:0:
272,128,35879,1,0,0:0:0:0:
272,128,35962,1,0,0:0:0:0:
272,128,36046,1,0,0:0:0:0:
304,244,36212,6,0,P|280:288|164:296,1,168.750006437302,0|0,0:0|0:0,0:0:0:0:
144,280,36712,2,0,L|120:256,2,33.7500012874604,0|0|0,0:0|0:0|0:0,0:0:0:0:
200,384,37046,1,0,0:0:0:0:
216,228,37212,2,0,L|212:204,7,16.8750006437302,0|0|0|0|0|0|0|0,0:0|0:0|0:0|0:0|0:0|0:0|0:0|0:0,0:0:0:0:
213,211,37546,2,0,P|304:160|392:216,1,202.500007724762
300,264,38212,1,0,0:0:0:0:
160,304,38546,2,0,P|116:280|108:180,1,135.000005149842
64,328,39212,1,0,0:0:0:0:
176,220,39379,2,0,P|168:164|144:132,1,67.5000025749208
380,296,39879,5,0,0:0:0:0:
256,156,40046,2,0,P|264:212|288:244,1,67.5000025749208
328,92,40546,1,0,0:0:0:0:
204,44,40712,2,0,P|192:88|200:128,1,67.5000025749208
188,340,41212,1,0,0:0:0:0:
224,284,41379,2,0,P|252:224|256:192,1,67.5000025749208
260,192,41629,1,0,0:0:0:0:
264,160,41712,1,0,0:0:0:0:
264,124,41796,1,0,0:0:0:0:
264,92,41879,1,0,0:0:0:0:
204,12,42046,2,0,P|184:72|188:104,1,67.5000025749208
328,72,42546,5,0,0:0:0:0:
216,200,42712,2,0,P|236:140|232:108,1,67.5000025749208,0|0,0:0|0:0,0:0:0:0:
304,216,43129,1,0,0:0:0:0:
136,324,43379,2,0,P|141:290|156:260,1,67.5000025749208
456,48,44046,5,0,0:0:0:0:
340,184,44212,2,0,P|352:140|404:76,1,101.250003862381
420,208,44712,2,0,P|396:260|372:272,1,67.5000025749208
232,296,45212,1,0,0:0:0:0:
96,28,45546,5,0,0:0:0:0:
136,168,45712,1,0,0:0:0:0:
204,76,45879,1,0,0:0:0:0:
72,128,46046,1,0,0:0:0:0:
212,148,46212,1,0,0:0:0:0:
164,16,46379,1,0,0:0:0:0:
40,72,46546,1,0,0:0:0:0:
156,108,46712,1,0,0:0:0:0:
56,192,46879,2,0,L|40:224,2,33.7500012874604,0|0|0,0:0|0:0|0:0,0:0:0:0:
88,296,47212,5,0,0:0:0:0:
160,244,47379,1,0,0:0:0:0:
252,184,47546,1,0,0:0:0:0:
352,112,47712,1,0,0:0:0:0:
472,28,47879,2,0,L|496:12,8,16.8750006437302,0|0|0|0|0|0|0|0|0,0:0|0:0|0:0|0:0|0:0|0:0|0:0|0:0|0:0,0:0:0:0:
252,280,49212,6,0,P|300:260|328:228,1,90
224,96,49546,1,0,0:0:0:0:
168,232,49712,1,0,0:0:0:0:
160,276,49796,1,0,0:0:0:0:
172,320,49879,1,0,0:0:0:0:
200,356,49962,5,0,0:0:0:0:
156,368,50046,1,0,0:0:0:0:
112,360,50129,1,0,0:0:0:0:
92,320,50212,1,0,0:0:0:0:
88,276,50296,1,0,0:0:0:0:
92,232,50379,1,0,0:0:0:0:
108,188,50462,1,0,0:0:0:0:
144,160,50546,5,0,0:0:0:0:
188,160,50629,1,0,0:0:0:0:
228,184,50712,1,0,0:0:0:0:
240,228,50796,1,0,0:0:0:0:
232,272,50879,1,0,0:0:0:0:
232,272,51879,6,0,P|304:304|336:292,1,90
452,216,52212,1,0,0:0:0:0:
412,196,52296,1,0,0:0:0:0:
368,200,52379,1,0,0:0:0:0:
328,220,52462,1,0,0:0:0:0:
300,256,52546,1,0,0:0:0:0:
268,224,52629,1,0,0:0:0:0:
228,208,52712,5,0,0:0:0:0:
184,224,52796,1,0,0:0:0:0:
168,264,52879,1,0,0:0:0:0:
180,308,52962,1,0,0:0:0:0:
172,352,53046,1,0,0:0:0:0:
132,372,53129,1,0,0:0:0:0:
88,364,53212,1,0,0:0:0:0:
72,324,53296,1,0,0:0:0:0:
100,288,53379,1,0,0:0:0:0:
112,244,53462,1,0,0:0:0:0:
100,200,53546,1,0,0:0:0:0:
168,112,53796,5,0,0:0:0:0:
232,276,54046,1,0,0:0:0:0:
356,100,54379,2,0,L|412:28,2,90,0|0|0,0:0|0:0|0:0,0:0:0:0:
360,216,54879,5,0,0:0:0:0:
316,224,54962,1,0,0:0:0:0:
276,204,55046,1,0,0:0:0:0:
252,164,55129,1,0,0:0:0:0:
260,120,55212,1,0,0:0:0:0:
272,76,55296,1,0,0:0:0:0:
252,36,55379,1,0,0:0:0:0:
208,28,55462,1,0,0:0:0:0:
164,40,55546,5,0,0:0:0:0:
140,76,55629,1,0,0:0:0:0:
144,120,55712,1,0,0:0:0:0:
168,160,55796,1,0,0:0:0:0:
160,204,55879,1,0,0:0:0:0:
124,232,55962,1,0,0:0:0:0:
80,236,56046,1,0,0:0:0:0:
48,204,56129,1,0,0:0:0:0:
48,160,56212,1,0,0:0:0:0:
204,96,56379,5,0,0:0:0:0:
100,172,56546,1,0,0:0:0:0:
232,232,56712,1,0,0:0:0:0:
204,96,56879,1,0,0:0:0:0:
144,252,57046,1,0,0:0:0:0:
172,288,57129,1,0,0:0:0:0:
212,308,57212,1,0,0:0:0:0:
256,312,57296,1,0,0:0:0:0:
296,292,57379,1,0,0:0:0:0:
316,252,57462,1,0,0:0:0:0:
312,208,57546,1,0,0:0:0:0:
144,40,57796,5,0,0:0:0:0:
236,236,58046,1,0,0:0:0:0:
364,60,58296,1,0,0:0:0:0:
124,180,58546,1,0,0:0:0:0:
248,124,58712,1,0,0:0:0:0:
356,224,58879,1,0,0:0:0:0:
