osu file format v12

[General]
AudioFilename: 09 Big or Small .mp3
AudioLeadIn: 0
PreviewTime: 244524
Countdown: 1
SampleSet: None
StackLeniency: 0.7
Mode: 0
LetterboxInBreaks: 1
WidescreenStoryboard: 0

[Editor]
DistanceSpacing: 2
BeatDivisor: 4
GridSize: 8
TimelineZoom: 1

[Metadata]
Title:Triangle * Scramble! ~Which do you like? Big or Small?
TitleUnicode:トライアングル☆スクランブル! ~どっちが好き?Big or Small?~
Artist:doubleeleven Uppercut
ArtistUnicode:doubleeleven Uppercut
Creator:vidya
Version:Both!
Source:
Tags:denpa
BeatmapID:420536
BeatmapSetID:174103

[Difficulty]
HPDrainRate:7
CircleSize:5
OverallDifficulty:8
ApproachRate:9
SliderMultiplier:2.4
SliderTickRate:1

[Events]
//Background and Video events
0,0,"cover.jpg",0,0
//Break Periods
//Storyboard Layer 0 (Background)
//Storyboard Layer 1 (Fail)
//Storyboard Layer 2 (Pass)
//Storyboard Layer 3 (Foreground)
//Storyboard Sound Samples
//Background Colour Transformations
3,100,163,162,255

[TimingPoints]
1701,352.941176470588,4,1,0,100,1,0
12995,-100,4,1,0,100,0,1
35583,-100,4,1,0,100,0,0
83583,-100,4,1,0,100,0,1
106174,-100,4,1,0,100,0,0
128759,-100,4,1,0,100,0,1
154171,-100,4,1,0,100,0,0

[HitObjects]
456,192,1701,5,0,0:0:0:0:
417,146,1789,1,0,0:0:0:0:
367,113,1877,1,0,0:0:0:0:
310,93,1965,1,0,0:0:0:0:
249,96,2054,1,0,0:0:0:0:
128,104,2230,1,0,0:0:0:0:
80,96,2318,1,0,0:0:0:0:
56,136,2406,1,0,0:0:0:0:
56,280,2583,2,0,P|96:328|200:320,1,120
240,168,2936,1,0,0:0:0:0:
434,133,3112,5,0,0:0:0:0:
454,176,3200,1,0,0:0:0:0:
440,226,3289,1,0,0:0:0:0:
458,274,3377,1,0,0:0:0:0:
431,319,3465,1,0,0:0:0:0:
384,344,3553,1,0,0:0:0:0:
332,336,3642,1,0,0:0:0:0:
294,299,3730,1,0,0:0:0:0:
256,240,3818,2,0,P|184:176|112:192,1,120
56,232,4171,1,0,0:0:0:0:
8,120,4524,5,0,0:0:0:0:
256,8,4700,1,0,0:0:0:0:
504,120,4877,1,0,0:0:0:0:
8,264,5230,5,0,0:0:0:0:
256,376,5406,1,0,0:0:0:0:
504,264,5583,1,0,0:0:0:0:
256,192,5936,1,0,0:0:0:0:
256,192,6112,12,0,7348,0:0:0:0:
115,75,7524,5,0,0:0:0:0:
304,50,7700,2,0,P|350:122|288:157,1,120
222,266,8230,1,0,0:0:0:0:
397,345,8407,2,0,P|458:340|484:275,1,120
34,200,8936,1,0,0:0:0:0:
171,333,9112,2,0,P|242:275|205:236,1,120
113,186,9818,5,0,0:0:0:0:
423,68,10171,6,0,P|493:226|436:285,1,240
89,68,10700,6,0,P|19:226|76:285,1,240
407,249,11406,5,0,0:0:0:0:
348,90,11583,1,0,0:0:0:0:
284,245,11759,1,0,0:0:0:0:
238,82,11936,1,0,0:0:0:0:
387,53,12112,1,0,0:0:0:0:
476,203,12289,1,0,0:0:0:0:
69,289,12642,1,0,0:0:0:0:
69,289,12818,1,0,0:0:0:0:
56,120,12995,2,0,P|109:58|285:79,1,240
108,214,13524,1,0,0:0:0:0:
214,269,13700,2,0,P|283:353|420:321,1,240
416,78,14230,2,0,P|337:177|108:168,1,360
283,316,14936,1,0,0:0:0:0:
67,306,15112,2,0,P|34:155|132:81,1,240
143,308,15642,5,0,0:0:0:0:
149,92,15818,2,0,P|260:24|393:94,1,240
173,169,16348,1,0,0:0:0:0:
448,174,16524,1,0,0:0:0:0:
380,270,16700,1,0,0:0:0:0:
380,270,16877,2,0,P|306:313|181:241,2,240
456,234,17759,1,0,0:0:0:0:
140,234,17936,2,0,P|70:269|178:317,1,240
140,234,18465,1,0,0:0:0:0:
61,77,18642,5,0,0:0:0:0:
61,77,19171,2,0,P|148:133|175:114,1,120
281,109,19524,1,0,0:0:0:0:
402,32,19700,1,0,0:0:0:0:
456,165,19877,1,0,0:0:0:0:
358,270,20053,2,0,L|269:365,1,120
344,230,20406,2,0,L|252:327,1,120
332,191,20759,2,0,L|232:285,2,120
286,53,21289,1,0,0:0:0:0:
48,80,21465,5,0,0:0:0:0:
48,80,21642,1,0,0:0:0:0:
483,120,21818,1,0,0:0:0:0:
483,120,21995,1,0,0:0:0:0:
36,204,22171,1,0,0:0:0:0:
36,204,22348,1,0,0:0:0:0:
494,240,22524,1,0,0:0:0:0:
494,240,22700,1,0,0:0:0:0:
49,328,22877,2,0,L|26:197,1,120
409,267,23230,2,0,L|441:130,1,120
59,147,23583,2,0,P|46:61|114:43,1,120
470,90,23936,2,0,B|469:48|469:48|408:88|394:19,1,120
210,61,24289,5,0,0:0:0:0:
210,61,24465,1,0,0:0:0:0:
195,253,24642,2,0,P|317:307|381:196,1,240
198,170,25171,1,0,0:0:0:0:
198,172,25348,2,0,P|197:110|109:83,1,120
55,142,25700,1,0,0:0:0:0:
99,309,25877,2,0,P|65:208|83:203,1,120
286,273,26230,2,0,P|353:303|382:246,1,120
166,109,26583,2,0,P|176:49|93:49,1,120
174,212,26936,1,0,0:0:0:0:
362,315,27112,2,0,P|445:226|377:115,1,240
200,50,27642,2,0,B|131:49|131:49|103:101,1,120
142,307,27995,1,0,0:0:0:0:
142,307,28171,2,0,P|185:348|267:311,1,120
291,240,28524,1,0,0:0:0:0:
92,221,28700,1,0,0:0:0:0:
244,66,28877,1,0,0:0:0:0:
30,42,29053,1,0,0:0:0:0:
148,156,29230,1,0,0:0:0:0:
136,33,29406,1,0,0:0:0:0:
17,184,29583,1,0,0:0:0:0:
447,301,29936,5,0,0:0:0:0:
447,301,30465,2,0,P|351:318|315:281,1,120
144,211,30818,2,0,P|237:230|283:192,1,120
433,98,31171,1,0,0:0:0:0:
373,306,31348,1,0,0:0:0:0:
388,195,31524,1,0,0:0:0:0:
314,35,31700,1,0,0:0:0:0:
223,173,31877,1,0,0:0:0:0:
383,56,32053,1,0,0:0:0:0:
371,211,32230,1,0,0:0:0:0:
497,201,32406,1,0,0:0:0:0:
288,143,32583,1,0,0:0:0:0:
110,265,32759,6,0,L|110:138,1,120
110,57,33112,1,0,0:0:0:0:
191,257,33289,2,0,L|191:134,1,120
192,38,33642,1,0,0:0:0:0:
405,68,33818,2,0,L|277:78,1,120
285,293,34171,2,0,P|270:234|203:198,1,120
426,160,34524,2,0,L|281:130,1,120
92,154,34877,2,0,P|122:104|211:116,1,120
118,319,35230,2,0,P|42:266|41:191,1,120
246,195,35583,5,0,0:0:0:0:
278,76,35759,1,0,0:0:0:0:
278,76,35848,1,0,0:0:0:0:
278,76,35936,1,0,0:0:0:0:
346,280,36112,1,0,0:0:0:0:
419,76,36289,1,0,0:0:0:0:
212,135,36465,1,0,0:0:0:0:
92,316,36642,1,0,0:0:0:0:
212,135,36818,1,0,0:0:0:0:
32,157,37171,5,0,0:0:0:0:
246,190,37348,1,0,0:0:0:0:
458,157,37524,1,0,0:0:0:0:
264,63,37700,2,0,P|184:47|138:79,1,120
248,321,38053,2,0,P|328:337|374:305,1,120
429,115,38406,1,0,0:0:0:0:
345,54,38583,1,0,0:0:0:0:
319,267,38759,1,0,0:0:0:0:
156,123,38936,1,0,0:0:0:0:
224,214,39112,1,0,0:0:0:0:
380,284,39289,1,0,0:0:0:0:
186,169,39465,1,0,0:0:0:0:
469,24,39642,1,0,0:0:0:0:
277,85,39818,5,0,0:0:0:0:
443,181,39995,1,0,0:0:0:0:
407,40,40171,1,0,0:0:0:0:
271,177,40348,1,0,0:0:0:0:
453,235,40524,1,0,0:0:0:0:
397,134,40700,1,0,0:0:0:0:
296,298,40877,1,0,0:0:0:0:
487,309,41053,1,0,0:0:0:0:
130,166,41406,5,0,0:0:0:0:
114,107,41495,1,0,0:0:0:0:
56,91,41583,1,0,0:0:0:0:
72,290,41759,2,0,P|151:275|171:237,1,120
385,234,42112,2,0,P|446:260|442:315,2,120
257,57,42642,1,0,0:0:0:0:
255,272,42818,1,0,0:0:0:0:
196,260,42906,1,0,0:0:0:0:
149,220,42995,1,0,0:0:0:0:
94,120,43171,1,0,0:0:0:0:
212,139,43348,2,0,P|305:172|319:137,1,120
476,99,43700,5,0,0:0:0:0:
303,28,43877,1,0,0:0:0:0:
282,218,44053,1,0,0:0:0:0:
350,48,44230,1,0,0:0:0:0:
290,56,44318,1,0,0:0:0:0:
231,63,44406,1,0,0:0:0:0:
364,201,44583,1,0,0:0:0:0:
172,206,44759,1,0,0:0:0:0:
259,34,44936,1,0,0:0:0:0:
268,225,45112,1,0,0:0:0:0:
167,60,45289,1,0,0:0:0:0:
136,249,45465,1,0,0:0:0:0:
268,109,45642,1,0,0:0:0:0:
83,160,45818,1,0,0:0:0:0:
234,278,45995,1,0,0:0:0:0:
138,112,46171,1,0,0:0:0:0:
49,282,46348,1,0,0:0:0:0:
234,233,46524,1,0,0:0:0:0:
77,122,46700,1,0,0:0:0:0:
181,284,46877,6,0,P|263:336|414:247,1,240
412,100,47406,1,0,0:0:0:0:
412,100,47583,2,0,P|311:49|162:95,1,240
341,192,48112,1,0,0:0:0:0:
123,283,48289,2,0,B|-1:240|19:92|113:227|113:227|176:78|217:204|122:290,1,480
482,350,49348,1,0,0:0:0:0:
438,68,49700,6,0,B|365:88|339:68|339:68|300:44|300:44|245:24|215:95,1,240
364,210,50230,1,0,0:0:0:0:
220,337,50406,2,0,P|103:289|66:177,1,240
255,226,50936,1,0,0:0:0:0:
339,80,51112,5,0,0:0:0:0:
98,202,51289,1,0,0:0:0:0:
389,327,51465,1,0,0:0:0:0:
388,18,51642,1,0,0:0:0:0:
27,201,51818,1,0,0:0:0:0:
441,380,51995,1,0,0:0:0:0:
388,18,52171,1,0,0:0:0:0:
175,301,52348,2,0,P|131:345|90:290,1,120
257,192,52877,5,0,0:0:0:0:
257,192,52965,1,0,0:0:0:0:
257,192,53053,1,0,0:0:0:0:
129,47,53230,6,0,P|62:34|2:47,2,120
314,98,53759,1,0,0:0:0:0:
344,288,53936,1,0,0:0:0:0:
163,223,54112,1,0,0:0:0:0:
351,185,54289,1,0,0:0:0:0:
314,98,54465,1,0,0:0:0:0:
235,273,54642,2,0,P|194:319|113:286,2,120
172,90,55171,1,0,0:0:0:0:
19,161,55348,1,0,0:0:0:0:
155,258,55524,1,0,0:0:0:0:
304,183,55700,1,0,0:0:0:0:
457,114,55877,1,0,0:0:0:0:
393,268,56053,1,0,0:0:0:0:
457,114,56230,2,0,P|476:186|454:256,1,120
318,308,56583,1,0,0:0:0:0:
207,181,56759,5,0,0:0:0:0:
158,342,56936,1,0,0:0:0:0:
158,342,57024,1,0,0:0:0:0:
158,342,57112,1,0,0:0:0:0:
44,217,57289,1,0,0:0:0:0:
56,170,57377,1,0,0:0:0:0:
59,125,57465,1,0,0:0:0:0:
82,83,57553,1,0,0:0:0:0:
129,72,57642,1,0,0:0:0:0:
166,42,57730,1,0,0:0:0:0:
213,45,57818,1,0,0:0:0:0:
296,93,57995,1,0,0:0:0:0:
381,50,58171,6,0,P|448:98|394:260,1,240
262,337,58700,1,0,0:0:0:0:
69,340,58877,2,0,P|6:266|45:222,1,120
200,246,59230,1,0,0:0:0:0:
11,214,59406,1,0,0:0:0:0:
65,29,59583,1,0,0:0:0:0:
125,210,59759,1,0,0:0:0:0:
42,117,59936,1,0,0:0:0:0:
224,57,60112,1,0,0:0:0:0:
209,151,60289,1,0,0:0:0:0:
33,73,60465,1,0,0:0:0:0:
66,276,60642,1,0,0:0:0:0:
66,276,60818,6,0,P|106:326|156:272,1,120
347,263,61171,1,0,0:0:0:0:
347,263,61259,1,0,0:0:0:0:
347,263,61347,1,0,0:0:0:0:
228,111,61524,1,0,0:0:0:0:
228,111,61612,1,0,0:0:0:0:
228,111,61700,1,0,0:0:0:0:
410,49,61877,1,0,0:0:0:0:
410,49,61965,1,0,0:0:0:0:
410,49,62053,1,0,0:0:0:0:
451,236,62230,6,0,L|478:290,2,60
337,80,62583,1,0,0:0:0:0:
225,235,62759,1,0,0:0:0:0:
121,72,62936,1,0,0:0:0:0:
232,46,63112,1,0,0:0:0:0:
89,175,63289,1,0,0:0:0:0:
374,166,63465,1,0,0:0:0:0:
232,46,63642,1,0,0:0:0:0:
49,324,63818,5,0,0:0:0:0:
11,210,63994,1,0,0:0:0:0:
40,93,64171,1,0,0:0:0:0:
139,27,64347,1,0,0:0:0:0:
139,27,64524,1,0,0:0:0:0:
175,140,64700,1,0,0:0:0:0:
256,51,64877,1,0,0:0:0:0:
463,324,65053,5,0,0:0:0:0:
501,210,65229,1,0,0:0:0:0:
472,93,65406,1,0,0:0:0:0:
373,27,65582,1,0,0:0:0:0:
373,27,65759,1,0,0:0:0:0:
337,140,65935,1,0,0:0:0:0:
256,51,66112,1,0,0:0:0:0:
256,51,66289,1,0,0:0:0:0:
175,140,66465,1,0,0:0:0:0:
54,275,66642,6,0,P|141:337|186:319,2,120
256,296,67171,1,0,0:0:0:0:
458,275,67348,2,0,P|371:337|326:319,2,120
256,51,67877,1,0,0:0:0:0:
189,230,68053,1,0,0:0:0:0:
352,128,68230,1,0,0:0:0:0:
160,126,68406,1,0,0:0:0:0:
320,232,68583,1,0,0:0:0:0:
256,192,68759,12,0,69465,0:0:0:0:
256,192,69642,5,0,0:0:0:0:
256,192,69730,1,0,0:0:0:0:
256,192,69818,1,0,0:0:0:0:
80,112,69995,2,0,P|32:184|48:224,1,120
161,61,70348,1,0,0:0:0:0:
161,61,70524,1,0,0:0:0:0:
327,133,70700,6,0,P|426:134|426:271,1,240
268,335,71230,1,0,0:0:0:0:
82,287,71406,1,0,0:0:0:0:
216,149,71583,1,0,0:0:0:0:
216,149,71759,1,0,0:0:0:0:
216,149,71936,1,0,0:0:0:0:
51,50,72112,2,0,P|140:120|252:72,1,240
293,56,72553,1,0,0:0:0:0:
331,78,72642,2,0,P|416:84|417:129,1,120
369,287,72995,5,0,0:0:0:0:
315,292,73083,1,0,0:0:0:0:
261,289,73171,1,0,0:0:0:0:
210,271,73259,1,0,0:0:0:0:
169,235,73348,1,0,0:0:0:0:
140,189,73436,1,0,0:0:0:0:
137,135,73524,1,0,0:0:0:0:
236,176,73700,2,0,P|302:199|383:169,1,120
347,81,74053,2,0,P|267:85|235:133,1,120
169,190,74406,1,0,0:0:0:0:
114,283,74583,1,0,0:0:0:0:
304,261,74759,1,0,0:0:0:0:
427,113,74936,5,0,0:0:0:0:
262,210,75112,1,0,0:0:0:0:
256,17,75289,1,0,0:0:0:0:
258,113,75465,1,0,0:0:0:0:
400,242,75642,1,0,0:0:0:0:
341,59,75818,1,0,0:0:0:0:
219,208,75995,2,0,P|143:201|120:163,1,120
306,115,76348,1,0,0:0:0:0:
183,261,76524,1,0,0:0:0:0:
370,300,76700,1,0,0:0:0:0:
242,184,76877,1,0,0:0:0:0:
358,211,77053,1,0,0:0:0:0:
277,290,77230,1,0,0:0:0:0:
306,115,77406,1,0,0:0:0:0:
306,115,77583,1,0,0:0:0:0:
120,65,77759,6,0,P|62:129|64:167,1,120
151,328,78112,1,0,0:0:0:0:
342,311,78289,2,0,P|415:305|433:265,1,120
254,196,78642,1,0,0:0:0:0:
78,119,78818,1,0,0:0:0:0:
138,301,78995,1,0,0:0:0:0:
188,116,79171,1,0,0:0:0:0:
28,223,79348,1,0,0:0:0:0:
21,31,79524,1,0,0:0:0:0:
124,191,79700,1,0,0:0:0:0:
227,28,79877,1,0,0:0:0:0:
317,196,80053,1,0,0:0:0:0:
411,363,80230,1,0,0:0:0:0:
223,324,80406,1,0,0:0:0:0:
22,190,80583,5,0,0:0:0:0:
22,191,80759,1,0,0:0:0:0:
22,191,80935,1,0,0:0:0:0:
257,20,81112,1,0,0:0:0:0:
258,363,81289,1,0,0:0:0:0:
258,363,81465,1,0,0:0:0:0:
391,224,81642,1,0,0:0:0:0:
330,37,81818,1,0,0:0:0:0:
47,68,81995,2,0,P|139:24|186:50,1,120
257,193,82348,1,0,0:0:0:0:
257,193,82524,1,0,0:0:0:0:
402,371,82877,2,0,P|484:362|483:343,2,120
57,199,83583,6,0,P|96:146|149:172,1,120
65,337,83936,1,0,0:0:0:0:
241,261,84112,2,0,P|277:210|229:171,1,120
90,58,84465,2,0,P|159:63|224:60,1,120
400,36,84818,1,0,0:0:0:0:
230,128,84995,1,0,0:0:0:0:
415,173,85171,1,0,0:0:0:0:
237,248,85348,1,0,0:0:0:0:
419,307,85524,1,0,0:0:0:0:
237,366,85700,1,0,0:0:0:0:
53,307,85877,1,0,0:0:0:0:
237,248,86053,1,0,0:0:0:0:
53,190,86230,6,0,P|29:129|85:106,1,120
251,52,86583,1,0,0:0:0:0:
440,80,86759,2,0,P|474:151|360:249,1,240
185,201,87289,1,0,0:0:0:0:
57,57,87465,1,0,0:0:0:0:
28,247,87642,1,0,0:0:0:0:
150,99,87818,1,0,0:0:0:0:
40,151,87995,1,0,0:0:0:0:
148,308,88171,1,0,0:0:0:0:
265,155,88348,1,0,0:0:0:0:
151,155,88524,1,0,0:0:0:0:
45,314,88700,1,0,0:0:0:0:
237,299,88877,2,0,P|346:316|382:281,1,120
421,137,89230,5,0,0:0:0:0:
39,94,89583,1,0,0:0:0:0:
39,94,89759,1,0,0:0:0:0:
224,40,89936,2,0,P|349:52|295:232,1,360
132,319,90642,2,0,P|48:277|36:237,1,120
223,315,90995,2,0,P|298:315|326:266,1,120
147,203,91348,2,0,P|213:231|268:162,1,120
67,156,91700,1,0,0:0:0:0:
67,156,91877,1,0,0:0:0:0:
227,52,92053,6,0,P|379:43|389:129,1,240
81,320,92759,2,0,B|150:292|209:341|209:341|282:331|283:239,1,240
51,69,93465,2,0,L|50:205,1,120
437,68,93818,2,0,L|439:199,1,120
112,69,94171,2,0,L|112:197,1,120
367,67,94524,2,0,L|368:192,1,120
199,281,94877,5,0,0:0:0:0:
59,150,95053,1,0,0:0:0:0:
59,150,95230,2,0,P|149:100|271:162,1,240
265,153,95759,1,0,0:0:0:0:
265,153,95936,2,0,P|325:209|383:176,1,120
172,262,96289,2,0,P|69:270|53:301,1,120
150,107,96642,1,0,0:0:0:0:
150,107,96818,2,0,P|92:43|44:80,1,120
264,64,97171,1,0,0:0:0:0:
453,31,97348,1,0,0:0:0:0:
398,214,97524,1,0,0:0:0:0:
398,214,97700,2,0,P|382:307|221:304,1,240
105,210,98230,1,0,0:0:0:0:
105,210,98406,2,0,P|133:260|218:257,1,120
398,214,98759,2,0,L|285:122,1,120
237,84,99112,1,0,0:0:0:0:
51,134,99289,1,0,0:0:0:0:
116,23,99465,1,0,0:0:0:0:
183,203,99642,1,0,0:0:0:0:
117,23,99818,1,0,0:0:0:0:
351,110,99995,2,0,P|421:202|410:245,1,120
51,303,100524,5,0,0:0:0:0:
435,304,101053,2,0,P|407:233|460:179,1,120
280,112,101406,1,0,0:0:0:0:
114,210,101583,1,0,0:0:0:0:
114,18,101759,1,0,0:0:0:0:
26,108,101936,1,0,0:0:0:0:
217,110,102112,1,0,0:0:0:0:
84,109,102289,1,0,0:0:0:0:
280,112,102465,1,0,0:0:0:0:
151,109,102642,1,0,0:0:0:0:
151,109,102818,1,0,0:0:0:0:
343,112,102995,1,0,0:0:0:0:
343,112,103171,1,0,0:0:0:0:
89,272,103348,5,0,0:0:0:0:
89,272,103524,1,0,0:0:0:0:
322,218,103700,1,0,0:0:0:0:
322,218,103877,1,0,0:0:0:0:
144,57,104053,1,0,0:0:0:0:
144,57,104230,1,0,0:0:0:0:
144,57,104406,1,0,0:0:0:0:
401,325,104759,2,0,P|464:272|465:229,1,120
285,81,105112,2,0,P|220:113|176:71,1,120
153,329,105465,2,0,P|53:285|51:246,1,120
294,277,105818,2,0,P|272:342|237:330,1,120
165,102,106171,5,0,0:0:0:0:
64,320,106348,1,0,0:0:0:0:
64,320,106436,1,0,0:0:0:0:
64,320,106524,1,0,0:0:0:0:
304,328,106700,1,0,0:0:0:0:
88,232,106877,1,0,0:0:0:0:
264,72,107053,1,0,0:0:0:0:
264,72,107230,1,0,0:0:0:0:
304,328,107406,1,0,0:0:0:0:
184,120,107583,2,0,P|224:200|256:200,3,120
432,216,108289,1,0,0:0:0:0:
256,136,108465,1,0,0:0:0:0:
432,216,108642,1,0,0:0:0:0:
432,216,108818,1,0,0:0:0:0:
56,288,109171,6,0,L|48:160,1,120
208,64,109524,1,0,0:0:0:0:
192,256,109700,1,0,0:0:0:0:
296,96,109877,1,0,0:0:0:0:
136,200,110053,1,0,0:0:0:0:
328,168,110230,1,0,0:0:0:0:
307,261,110406,1,0,0:0:0:0:
338,289,110495,1,0,0:0:0:0:
376,288,110583,1,0,0:0:0:0:
407,259,110671,1,0,0:0:0:0:
445,248,110759,1,0,0:0:0:0:
435,206,110848,1,0,0:0:0:0:
444,164,110936,1,0,0:0:0:0:
432,123,111024,1,0,0:0:0:0:
388,100,111112,1,0,0:0:0:0:
351,78,111200,1,0,0:0:0:0:
315,100,111289,1,0,0:0:0:0:
164,218,111465,2,0,P|96:203|132:143,2,120
90,333,111995,5,0,0:0:0:0:
90,333,112083,1,0,0:0:0:0:
90,333,112172,1,0,0:0:0:0:
247,275,112348,1,0,0:0:0:0:
327,101,112524,1,0,0:0:0:0:
327,101,112700,1,0,0:0:0:0:
143,43,112877,1,0,0:0:0:0:
37,203,113053,2,0,P|63:263|233:254,1,240
327,101,113583,1,0,0:0:0:0:
218,271,113759,1,0,0:0:0:0:
37,203,113936,1,0,0:0:0:0:
218,271,114112,1,0,0:0:0:0:
218,271,114289,2,0,P|83:281|35:190,1,240
200,103,114818,5,0,0:0:0:0:
390,130,114995,1,0,0:0:0:0:
249,260,115171,1,0,0:0:0:0:
218,169,115348,1,0,0:0:0:0:
351,31,115524,1,0,0:0:0:0:
321,220,115700,1,0,0:0:0:0:
295,126,115877,1,0,0:0:0:0:
463,216,116053,1,0,0:0:0:0:
437,25,116230,1,0,0:0:0:0:
391,127,116406,1,0,0:0:0:0:
317,63,116583,1,0,0:0:0:0:
223,230,116759,1,0,0:0:0:0:
397,311,116936,1,0,0:0:0:0:
209,351,117112,1,0,0:0:0:0:
209,351,117289,1,0,0:0:0:0:
98,130,117465,6,0,P|191:78|300:156,1,240
109,200,117995,1,0,0:0:0:0:
93,269,118171,2,0,P|198:310|319:241,1,240
109,200,118700,1,0,0:0:0:0:
347,169,118877,2,0,B|472:121|457:-5|359:114|359:114|298:-39|254:85|349:171,1,480
347,169,119936,1,0,0:0:0:0:
44,269,120289,6,0,P|92:160|214:121,1,240
299,284,120818,1,0,0:0:0:0:
411,127,120995,2,0,P|334:76|161:248,1,360
385,291,121700,1,0,0:0:0:0:
376,50,121877,1,0,0:0:0:0:
317,282,122053,1,0,0:0:0:0:
302,41,122230,1,0,0:0:0:0:
247,274,122406,1,0,0:0:0:0:
233,33,122583,1,0,0:0:0:0:
173,264,122759,1,0,0:0:0:0:
166,23,122936,1,0,0:0:0:0:
359,163,123112,2,0,L|187:143,1,120
94,284,123818,5,0,0:0:0:0:
94,284,123995,1,0,0:0:0:0:
94,284,124171,1,0,0:0:0:0:
146,49,124348,1,0,0:0:0:0:
146,49,124524,1,0,0:0:0:0:
348,177,124700,1,0,0:0:0:0:
348,177,124877,1,0,0:0:0:0:
142,299,125053,2,0,P|213:337|287:316,1,120
206,281,125583,5,0,0:0:0:0:
155,172,125760,1,0,0:0:0:0:
243,90,125937,1,0,0:0:0:0:
348,148,126113,1,0,0:0:0:0:
325,266,126290,1,0,0:0:0:0:
103,353,126465,1,0,0:0:0:0:
58,116,126642,1,0,0:0:0:0:
270,6,126818,1,0,0:0:0:0:
489,103,126995,1,0,0:0:0:0:
424,333,127171,1,0,0:0:0:0:
416,237,127348,5,0,0:0:0:0:
478,164,127524,1,0,0:0:0:0:
478,164,127612,1,0,0:0:0:0:
478,164,127700,1,0,0:0:0:0:
411,94,127877,1,0,0:0:0:0:
373,109,127965,1,0,0:0:0:0:
331,122,128053,1,0,0:0:0:0:
282,122,128142,1,0,0:0:0:0:
238,109,128230,1,0,0:0:0:0:
216,76,128318,1,0,0:0:0:0:
174,53,128406,1,0,0:0:0:0:
125,59,128495,1,0,0:0:0:0:
90,91,128583,1,0,0:0:0:0:
80,137,128671,1,0,0:0:0:0:
96,181,128759,1,0,0:0:0:0:
171,240,128936,6,0,P|197:308|364:271,1,240
401,229,129465,1,0,0:0:0:0:
330,163,129642,2,0,P|240:205|175:90,2,240
355,70,130524,1,0,0:0:0:0:
271,22,130700,1,0,0:0:0:0:
191,76,130877,1,0,0:0:0:0:
107,29,131053,1,0,0:0:0:0:
18,199,131406,5,0,0:0:0:0:
92,260,131583,1,0,0:0:0:0:
183,278,131759,1,0,0:0:0:0:
255,215,131936,1,0,0:0:0:0:
211,195,132024,1,0,0:0:0:0:
197,149,132112,1,0,0:0:0:0:
236,122,132200,1,0,0:0:0:0:
277,146,132289,1,0,0:0:0:0:
320,126,132377,1,0,0:0:0:0:
325,78,132465,1,0,0:0:0:0:
290,44,132553,1,0,0:0:0:0:
241,44,132642,2,0,P|155:68|119:83,1,120
70,263,132995,1,0,0:0:0:0:
246,336,133171,1,0,0:0:0:0:
424,263,133348,1,0,0:0:0:0:
424,263,133524,1,0,0:0:0:0:
254,173,133877,6,0,P|259:232|327:152,1,240
156,89,134406,1,0,0:0:0:0:
73,149,134583,1,0,0:0:0:0:
198,293,134759,1,0,0:0:0:0:
287,122,134936,1,0,0:0:0:0:
349,302,135112,1,0,0:0:0:0:
209,168,135289,2,0,P|149:223|190:129,1,240
325,61,135818,1,0,0:0:0:0:
428,38,135995,1,0,0:0:0:0:
422,229,136171,1,0,0:0:0:0:
376,41,136348,1,0,0:0:0:0:
190,89,136524,1,0,0:0:0:0:
194,280,136700,2,0,P|266:320|275:188,1,240
88,91,137230,5,0,0:0:0:0:
327,102,137406,1,0,0:0:0:0:
100,184,137583,1,0,0:0:0:0:
339,189,137759,1,0,0:0:0:0:
173,14,137936,1,0,0:0:0:0:
282,226,138112,1,0,0:0:0:0:
41,208,138289,1,0,0:0:0:0:
96,101,138465,1,0,0:0:0:0:
173,14,138642,1,0,0:0:0:0:
80,234,138818,1,0,0:0:0:0:
299,136,138995,1,0,0:0:0:0:
96,101,139171,1,0,0:0:0:0:
208,281,139524,6,0,P|362:299|407:198,1,240
184,139,140053,1,0,0:0:0:0:
184,139,140142,1,0,0:0:0:0:
184,139,140230,1,0,0:0:0:0:
422,123,140406,1,0,0:0:0:0:
226,16,140583,1,0,0:0:0:0:
98,218,140759,1,0,0:0:0:0:
184,139,140936,1,0,0:0:0:0:
85,72,141112,1,0,0:0:0:0:
274,220,141289,1,0,0:0:0:0:
274,220,141377,1,0,0:0:0:0:
274,220,141465,1,0,0:0:0:0:
425,32,141642,1,0,0:0:0:0:
274,220,141818,1,0,0:0:0:0:
134,23,141995,1,0,0:0:0:0:
274,220,142171,1,0,0:0:0:0:
425,32,142348,1,0,0:0:0:0:
470,147,142700,6,0,P|333:296|293:276,1,240
99,303,143230,2,0,P|63:233|99:228,1,120
207,96,143583,1,0,0:0:0:0:
242,63,143671,1,0,0:0:0:0:
285,42,143759,1,0,0:0:0:0:
333,44,143848,1,0,0:0:0:0:
378,57,143936,1,0,0:0:0:0:
416,85,144024,1,0,0:0:0:0:
445,122,144112,1,0,0:0:0:0:
439,218,144289,2,0,P|417:317|375:314,2,120
359,272,144818,2,0,P|207:292|211:229,1,240
196,164,145348,1,0,0:0:0:0:
196,164,145524,1,0,0:0:0:0:
128,96,145700,5,0,0:0:0:0:
63,24,145877,1,0,0:0:0:0:
36,213,146053,1,0,0:0:0:0:
198,110,146230,1,0,0:0:0:0:
128,96,146406,1,0,0:0:0:0:
57,84,146583,1,0,0:0:0:0:
57,84,146759,1,0,0:0:0:0:
172,237,146936,1,0,0:0:0:0:
272,73,147112,1,0,0:0:0:0:
57,84,147289,1,0,0:0:0:0:
112,162,147465,1,0,0:0:0:0:
171,237,147642,1,0,0:0:0:0:
272,74,147818,1,0,0:0:0:0:
272,73,147995,1,0,0:0:0:0:
272,73,148171,1,0,0:0:0:0:
446,155,148348,6,0,P|354:258|304:207,1,240
133,130,148877,1,0,0:0:0:0:
262,271,149053,2,0,P|204:350|162:344,1,120
104,310,149406,1,0,0:0:0:0:
69,219,149583,2,0,P|157:166|192:204,2,120
259,188,150112,1,0,0:0:0:0:
259,188,150289,1,0,0:0:0:0:
416,297,150465,2,0,P|424:235|384:178,1,120
248,63,150818,1,0,0:0:0:0:
165,236,150995,1,0,0:0:0:0:
396,175,151171,5,0,0:0:0:0:
396,175,151348,1,0,0:0:0:0:
396,175,151524,1,0,0:0:0:0:
147,27,151700,1,0,0:0:0:0:
53,295,151877,2,0,P|119:355|196:346,3,120
489,167,152583,2,0,P|454:40|297:138,1,360
25,351,153465,2,0,L|91:352,1,60
