osu file format v9

[General]
AudioFilename: doriko feat. Hatsune Miku - Paradise Cage.mp3
AudioLeadIn: 0
PreviewTime: 55467
Countdown: 0
SampleSet: Soft
StackLeniency: 0.7
Mode: 0
LetterboxInBreaks: 0

[Editor]
Bookmarks: 22450,41588
DistanceSpacing: 1
BeatDivisor: 4
GridSize: 8

[Metadata]
Title:Paradise Cage
Artist:doriko feat. Hatsune Miku
Creator:KanbeKotori
Version:Insane
Source:Vocaloid
Tags:Romeo and Cinderella eveless impossiblexu AngelHoney aho kaouji

[Difficulty]
HPDrainRate:7
CircleSize:4
OverallDifficulty:7
ApproachRate:8
SliderMultiplier:1.8
SliderTickRate:1

[Events]
//Background and Video events
0,0,"IMG_0007.jpg" F,0,0,0,0
//Break Periods
2,88857,98941
2,156443,165493
2,189547,199631
//Storyboard Layer 0 (Background)
//Storyboard Layer 1 (Fail)
//Storyboard Layer 2 (Pass)
//Storyboard Layer 3 (Foreground)
//Storyboard Sound Samples
//Background Colour Transformations
3,100,163,162,255

[TimingPoints]
11416,344.827586206897,4,2,1,80,1,0
22105,-100,4,1,1,50,0,0
22450,-100,4,2,1,80,0,0
32105,-200,4,2,1,80,0,0
32622,-100,4,2,1,80,0,0
32795,-100,4,1,1,50,0,0
33484,-100,4,2,1,80,0,0
44174,-100,4,1,1,50,0,0
44519,-100,4,2,1,50,0,0
50381,-200,4,2,1,80,0,0
52795,-100,4,2,1,80,0,0
55553,-100,4,2,1,80,0,1
65209,-100,4,1,1,50,0,1
66588,-100,4,2,1,80,0,1
82450,-100,4,1,1,50,0,1
82795,-100,4,2,1,80,0,1
87450,-100,4,1,1,50,0,1
87967,-100,4,2,1,0,0,1
88657,-100,4,2,1,80,0,0
104864,-100,4,1,1,50,0,0
105209,-100,4,2,1,80,0,0
110377,-100,4,1,1,50,0,0
110726,-100,4,2,1,80,0,0
116243,-200,4,2,1,80,0,0
119002,-100,4,2,1,80,0,0
122019,-100,4,2,1,60,0,0
123140,-100,4,2,1,80,0,1
132795,-100,4,1,1,50,0,1
134174,-100,4,2,1,80,0,1
150036,-100,4,1,1,50,0,1
150381,-100,4,2,1,80,0,1
155036,-100,4,1,1,50,0,1
155553,-100,4,1,1,0,0,1
156243,-100,4,2,1,80,0,0
183657,-100,4,1,1,50,0,0
183829,-100,4,2,1,80,0,0
188140,-100,4,1,1,50,0,0
189347,-100,4,2,1,80,0,0
200381,-100,4,2,1,80,0,1
211071,-100,4,1,1,50,0,1
211416,-100,4,2,1,80,0,1
227278,-100,4,1,1,50,0,1
227622,-100,4,2,1,80,0,1
232105,-100,4,1,1,30,0,1
232278,-100,4,1,1,50,0,1
232450,-100,4,1,1,40,0,1
232622,-100,4,1,1,30,0,1
232795,-100,4,2,1,60,0,1
233484,-100,4,2,1,80,0,0
243312,-100,4,1,1,50,0,0
244002,-100,4,1,1,20,0,0
244174,-100,4,1,1,50,0,0
244260,-100,4,1,1,40,0,0
244347,-100,4,1,1,30,0,0
244519,-100,4,1,1,20,0,0

[Colours]
Combo1 : 0,0,255
Combo2 : 255,0,0
Combo3 : 0,255,0

[HitObjects]
104,88,11416,2,0,B|160:88|208:128,1,90,4|0
168,200,11760,2,0,B|224:200|272:160,1,90,8|0
280,88,12105,1,0
344,152,12278,1,0
320,240,12450,1,8
368,64,12622,6,0,B|435:117|455:216,1,180
400,288,13140,1,8
320,240,13312,2,0,B|233:237|154:300,1,180
152,208,13829,1,8
72,248,14002,5,0
72,248,14088,1,0
72,248,14174,2,0,B|36:205|35:142,1,90
184,40,14519,2,0,B|219:82|220:145,1,90,8|0
120,120,14864,1,8
120,120,15036,1,0
480,120,15381,6,0,B|439:195|345:232,1,180,0|0
288,160,15898,2,0,B|253:202|251:265,1,90,8|0
328,88,16243,2,0,B|381:97|437:67,1,90,8|0
240,88,16588,2,0,B|221:36|167:3,1,90,8|0
72,256,16933,6,0,B|125:265|181:235,1,90,4|0
240,280,17278,2,0,B|249:227|219:171,1,90,8|0
144,176,17622,2,0,B|147:107|238:78|280:131,1,180,0|8
228,191,18140,1,0
229,192,18312,2,0,B|275:218|338:209,1,90,0|0
424,40,18657,2,0,B|371:31|315:61,1,90,8|0
288,128,19002,2,0,B|235:106|225:27,2,90,0|0|8
288,128,19519,1,0
152,32,19691,6,0,B|75:72|38:166,1,180,8|8
128,192,20209,1,0
64,256,20381,2,0,B|24:296|40:352,2,90,8|0|8
288,272,20898,6,0,B|328:312|384:296,1,90,4|0
448,256,21243,1,8
416,176,21416,1,8
472,104,21588,2,0,B|418:37|319:17,1,180,0|0
232,32,22105,1,0
208,72,22191,1,0
224,112,22278,1,0
256,192,22450,5,4
416,272,22795,6,0,B|400:320|344:336,2,90
328,248,23312,2,0,B|240:248,1,90,0|8
160,296,23657,1,8
72,144,24002,1,8
248,152,24347,1,8
424,144,24691,6,0,B|424:88|464:56,2,90,0|8|0
448,232,25209,2,0,B|445:301|354:330|312:277,1,180,0|0
360,200,25726,2,0,B|320:149|229:178|226:247,1,180,0|0
240,336,26243,2,0,B|184:336|152:296,1,90,8|0
56,144,26588,6,0,B|109:77|208:57,1,180,4|0
216,144,27105,1,0
296,96,27278,2,0,B|344:68|392:86,1,90
352,168,27622,2,0,B|407:177|431:222,1,90,8|0
352,256,27967,2,0,B|387:298|377:349,1,90,4|0
136,272,28312,6,0,B|56:336,2,90
96,192,28829,2,0,B|144:176|184:200,1,90,0|8
224,280,29174,1,8
400,224,29519,1,8
264,104,29864,1,8
88,72,30209,6,0,B|56:104|64:160,2,90,0|8|0
152,136,30726,2,0,B|239:168|294:276,1,180
192,248,31243,2,0,B|263:187|385:194,1,180
424,128,31760,1,8
456,208,31933,1,0
416,280,32105,6,0,B|366:290|328:321,1,90
248,328,32622,1,0
160,304,32795,5,0
160,288,32881,1,0
160,272,32967,1,0
160,256,33053,1,0
160,240,33140,1,0
160,224,33226,1,0
160,208,33312,1,0
160,192,33398,1,0
160,176,33484,2,0,B|160:128|160:128|176:80,1,90
456,232,33829,6,0,B|424:200|368:208,1,90,8|0
392,296,34174,2,0,B|360:328|304:320,1,90
264,240,34519,1,8
264,240,34691,2,0,B|168:240,1,90
296,168,35036,2,0,B|424:168,1,90,0|8
264,96,35381,2,0,B|168:96,1,90
112,160,35726,6,0,B|80:128|88:72,2,90,0|8|0
88,248,36243,2,0,B|168:248|168:192|256:192,1,180,0|8
320,256,36760,2,0,B|377:225|364:130|296:115,1,180,0|0
208,112,37278,1,8
248,32,37450,1,0
248,192,37622,6,0,B|176:251|55:244,1,180,0|8
40,160,38140,1,0
128,168,38312,2,0,B|187:239|180:360,1,180,0|8
272,344,38830,1,0
272,344,39002,1,4
80,240,39347,6,0,B|80:144,1,90,8|0
24,80,39691,2,0,B|56:48|112:56,1,90
168,120,40036,1,8
168,120,40209,2,0,B|256:120,1,90
344,40,40553,2,0,B|224:40,1,90,0|8
344,120,40898,2,0,B|464:120,1,90
456,208,41243,6,0,B|488:240|480:296,2,90,0|8|0
384,264,41760,2,0,B|288:264|320:304|208:304,1,180,0|8
136,360,42278,2,0,B|79:329|92:234|160:219,1,180,0|0
232,168,42795,1,8
248,80,42967,1,0
432,48,43140,6,0,B|478:128|450:246,1,180,0|8
376,184,43657,1,0
352,96,43829,2,0,B|306:92|269:134,1,90,0|0
184,120,44174,5,0
152,152,44260,1,0
136,192,44347,1,0
152,232,44433,1,0
184,264,44519,2,0,B|256:264|256:264|304:280|304:280|368:280,1,180,4|8
392,368,45036,2,0,B|456:369|493:280|441:233,1,180,0|0
448,144,45553,2,0,B|402:140|365:182,1,90,8|0
168,248,45898,6,0,B|144:208|144:208|144:64,1,180,0|8
232,72,46416,1,0
320,48,46588,2,0,B|368:131,1,90
400,288,46933,2,0,B|352:204,1,90,8|0
280,160,47278,6,0,B|249:103|154:116|139:184,1,180,4|8
200,248,47795,2,0,B|169:305|74:292|59:224,1,180,0|0
56,136,48312,1,8
139,181,48484,1,0
232,168,48657,6,0,B|278:172|315:130,1,90,4|0
480,128,49002,2,0,B|434:124|397:166,1,90,8|0
312,136,49347,5,8
287,246,49519,1,8
385,303,49691,1,8
470,228,49864,1,8
424,124,50036,1,12
72,240,50381,6,0,B|72:344,2,90,0|8|0
64,152,51416,2,0,B|120:160|144:208,1,90
168,232,51933,2,0,B|186:269|242:277,1,90
288,288,52450,1,0
328,272,52622,1,0
368,264,52795,6,0,B|408:232|408:152,1,90,4|0
406,184,53053,1,0
406,184,53140,1,8
360,112,53312,1,4
184,64,53657,1,4
56,192,54002,6,0,B|133:201|136:276|207:280,1,180,4|8
207,280,54519,1,8
207,280,54691,1,8
432,144,55553,6,0,B|456:96|504:88,2,90,4|0|8
488,216,56071,2,0,B|457:273|362:260|347:192,1,180,4|0
344,104,56588,2,0,B|320:56|272:48,1,90,8|0
200,96,56933,6,0,B|120:152|112:248,1,180,0|8
312,288,57450,2,0,B|392:232|400:136,1,180
384,48,57967,1,8
312,96,58140,1,0
120,256,58312,6,0,B|64:256|24:208,1,90
192,224,58657,2,0,B|248:224|288:272,1,90,8|0
456,264,59174,6,8,B|456:360,2,90,8|8|0
456,120,59864,6,8,B|456:24,2,90,8|8|0
368,96,60381,2,0,B|336:200,1,90,8|0
240,304,60726,2,0,B|272:200,1,90,8|0
64,72,61071,6,0,B|106:36|168:47,1,90,4|0
128,136,61416,2,0,B|170:171|232:160,1,90,8|0
280,104,61760,1,0
360,152,61933,1,0
360,240,62105,1,8
280,280,62278,1,0
280,192,62450,6,0,B|168:192,2,90,0|0|8
280,192,62967,1,0
336,120,63140,2,0,B|360:72|416:64,1,90
336,264,63484,2,0,B|360:312|416:320,1,90,8|0
248,272,63829,6,0,B|194:268|159:313,2,90,4|0|8
280,192,64347,2,0,B|224:112|128:104,2,180,8|8|8
336,264,65209,1,0
392,192,65381,1,0
336,120,65553,1,0
392,192,65726,1,0
336,264,65898,1,0
160,280,66243,5,0
136,240,66329,1,0
128,192,66416,1,0
136,144,66502,1,0
160,104,66588,2,0,B|160:8,2,90,4|0|8
240,152,67105,2,0,B|296:72|392:64,1,180
464,112,67622,1,8
384,160,67795,1,0
296,320,67967,6,0,B|296:240|240:240|240:152,1,180,0|8
424,80,68484,2,0,B|424:176,1,90,0|0
336,128,68829,2,0,B|336:16,2,90,0|8|0
184,288,69347,6,0,B|88:288,1,90
64,208,69691,2,0,B|160:208,1,90,8|0
408,96,70209,5,0
296,56,70381,1,8
312,168,70553,1,0
312,168,70898,5,0
320,328,71071,1,8
176,248,71243,1,0
176,88,71416,5,8
176,88,71588,1,0
96,128,71760,1,8
96,128,71933,1,0
80,208,72105,5,4
112,296,72278,1,0
40,352,72450,1,8
112,296,72622,2,0,B|201:335|287:293,1,180
264,208,73140,1,8
352,232,73312,1,0
432,176,73484,5,0
400,88,73657,1,0
472,32,73829,1,8
400,88,74001,2,0,B|310:48|224:90,1,180
248,176,74519,1,8
160,152,74691,1,0
352,288,74864,6,0,B|408:288|456:328,2,90,4|0|8
288,352,75381,2,0,B|231:321|244:226|312:211,1,180,0|8
400,216,75898,2,0,B|400:167|357:135,1,90,8|0
312,72,76243,5,4
136,136,76588,1,0
200,312,76933,1,4
376,248,77278,1,0
416,72,77622,6,0,B|328:40|240:72,1,180,8|0
280,152,78140,1,0
192,144,78312,2,0,B|160:184|176:232,1,90
112,296,78657,2,0,B|152:328|200:312,1,90,8|0
264,256,79002,5,0
280,344,79174,1,0
196,313,79347,1,8
264,256,79519,1,0
264,256,79691,6,0,B|152:256|152:144,1,180,0|8
232,168,80209,1,0
232,168,80295,1,0
232,168,80381,2,0,B|440:168,1,180,4|8
488,120,80898,1,0
488,120,81071,2,0,B|446:70|388:88,1,90,8|4
152,48,81588,6,0,B|80:112|80:224,2,180,4|0|0
200,112,82450,1,0
240,120,82536,1,0
288,112,82622,1,0
328,32,82795,2,0,B|369:56|386:112,1,90,4|0
472,248,83140,6,0,B|424:328|320:336,1,180,4|8
272,264,83657,1,0
232,344,83829,2,0,B|184:320|184:256,1,90
272,264,84174,2,0,B|320:240|320:176,1,90,8|0
256,128,84519,6,0,B|287:71|382:84|397:152,1,180,0|8
319,192,85036,1,0
320,192,85209,2,0,B|289:249|194:236|179:168,1,180,0|8
136,344,85898,6,0,B|56:280|80:168,1,180,8|8
376,344,86588,2,0,B|456:280|432:168,1,180,8|8
256,192,87278,5,0
256,192,87450,2,0,B|256:96,2,90
256,192,87967,12,4,88657
256,192,99691,5,4
256,192,100036,2,0,B|256:288,2,90,8|0|0
184,136,100553,1,0
272,104,100726,1,8
160,224,100898,2,0,B|64:192|31:104,2,180,8|8|8
432,232,101933,6,0,B|424:280|384:304,2,90,0|8|0
432,144,102450,2,0,B|392:64|288:32,1,180,0|8
256,112,102967,2,0,B|144:104|64:152,1,180
48,224,103484,1,8
48,224,103657,1,0
48,224,103829,2,0,B|128:224|128:280|216:280,1,180,0|8
296,320,104347,1,0
296,232,104519,2,0,B|344:216|392:224,1,90
472,200,104864,5,0
456,155,104950,1,0
425,118,105036,1,0
383,94,105122,1,0
336,80,105209,2,0,B|296:56|240:56,1,90,4|0
176,104,105553,6,0,B|136:72|80:88,2,90,8|0|0
136,184,106071,2,0,B|176:216|232:200,1,90,0|8
288,144,106416,2,0,B|345:175|332:270|264:285,2,180,8|8|8
96,264,107450,6,0,B|80:312|104:360,2,90,0|8|0
32,200,107967,2,0,B|63:143|158:156|173:224,1,180,0|8
96,264,108484,2,0,B|110:329|205:342|236:285,1,180,0|0
320,248,109002,1,8
408,272,109174,1,0
240,200,109347,6,0,B|240:80|240:80|264:24,1,180,0|8
328,88,109864,1,0
416,96,110036,2,0,B|416:144|416:144|400:200,1,90
104,40,110381,5,0
80,80,110467,1,0
72,120,110553,1,0
80,168,110640,1,0
104,208,110726,2,0,B|168:272|288:272,1,180,4|8
192,328,111243,2,0,B|191:228|255:164,1,180
288,80,111760,1,8
352,144,111933,1,0
456,304,112105,6,0,B|368:336|280:304,1,180,0|8
240,224,112622,1,0
208,144,112795,2,0,B|152:152|112:104,1,90
272,80,113140,2,0,B|328:72|368:120,1,90
64,224,113484,6,0,B|136:193|176:257|240:225,1,180,0|8
296,152,114002,2,0,B|357:172|360:267|296:294,1,180
224,344,114519,2,0,B|248:384|304:384,1,90,8|0
440,112,114864,6,0,B|421:64|368:43,1,90
336,72,115122,1,0
312,112,115209,2,0,B|304:160|256:192,1,90,8|0
200,112,115553,5,8
312,112,115726,1,8
160,192,115898,1,8
352,192,116071,1,8
256,224,116243,6,0,B|248:248|264:272|256:312,1,90,4|0
208,320,116760,1,0
168,304,116933,2,0,B|112:296|96:248,1,90,8|0
48,184,117622,2,0,B|88:152|136:168,1,90
168,192,118140,2,0,B|208:224|256:208,1,90
296,192,118657,1,0
328,160,118829,1,0
336,112,119002,6,0,B|256:56|160:56,1,180,4|0
104,120,119519,1,4
104,264,119864,1,4
464,192,120209,6,0,B|392:161|352:225|288:193,1,180,4|8
248,112,120726,2,0,B|200:136|192:184,1,90,8|0
256,344,121071,2,0,B|259:290|221:259,1,90,8|0
48,232,121416,2,0,B|92:261|138:244,1,90,8|8
240,48,122019,5,8
240,48,122105,1,8
328,80,122278,1,8
256,128,122450,2,0,B|232:168|240:224,2,90,4|0|8
328,80,122967,5,8
328,80,123053,1,8
328,80,123140,2,0,B|376:104|392:160,1,90,4|0
424,232,123484,2,0,B|472:208|488:152,2,90,8|0|0
336,256,124002,1,0
248,232,124174,1,8
160,256,124347,1,0
72,232,124519,6,0,B|72:120,1,90
256,32,124864,2,0,B|256:120,1,90,8|0
160,168,125209,1,0
160,168,125381,2,0,B|160:80,2,90,0|8|0
120,248,125898,5,0
120,248,126071,2,0,B|88:288|32:280,2,90,0|8|0
248,112,126760,6,0,B|229:65|264:21,2,90,0|8|0
359,243,127450,6,0,B|410:250|431:303,2,90,0|8|0
200,304,127967,2,0,B|247:311|279:271,1,90,8|0
304,104,128312,2,0,B|274:141|292:189,1,90,8|0
128,192,128657,5,4
128,192,128829,2,0,B|24:192,2,90,0|8|0
192,128,129347,2,0,B|216:88|272:80,1,90
424,40,129691,2,0,B|400:80|344:88,1,90,8|0
392,264,130036,5,0
440,192,130209,1,0
392,120,130381,1,8
360,192,130553,1,0
360,192,130726,2,0,B|256:192,1,90
270,192,131071,2,0,B|160:192,1,90,8|0
112,128,131416,6,0,B|112:24,2,90,4|0|8
24,152,131933,2,0,B|22:216|111:253|158:201,1,180,0|8
216,136,132450,2,0,B|248:176|240:224,1,90,8|0
280,304,132795,5,0
373,293,132967,1,0
393,201,133140,1,0
311,154,133312,1,0
241,217,133484,1,0
128,72,133829,5,0
168,48,133916,1,0
216,40,134002,1,0
264,48,134088,1,0
304,72,134174,2,0,B|352:88|400:64,1,90,4|0
480,144,134519,2,0,B|432:128|384:152,1,90,8|0
352,232,134864,1,0
352,232,135036,2,0,B|352:320,2,90,0|8|0
120,280,135553,6,0,B|55:281|18:192|70:145,1,180,0|8
144,200,136071,2,0,B|213:160|185:111|261:67,1,180,0|0
344,40,136588,1,8
424,80,136760,1,0
464,256,136933,6,0,B|424:288|368:280,1,90
224,264,137278,2,0,B|264:232|320:240,1,90,8|0
152,320,137795,5,0
56,256,137968,1,8
160,200,138140,1,0
256,56,138484,5,0
408,32,138657,1,8
360,176,138829,1,0
432,312,139002,6,0,B|384:328|336:304,1,90,8|0
272,248,139347,2,0,B|224:232|176:256,1,90,8|0
128,184,139691,5,4
160,96,139864,1,0
72,112,140036,1,8
160,96,140209,2,0,B|192:56|248:56,1,90
296,128,140553,2,0,B|336:96|336:40,2,90,0|8|0
384,200,141071,5,0
352,288,141244,1,0
440,272,141416,1,8
352,288,141589,2,0,B|320:328|264:328,1,90
216,256,141933,2,0,B|176:288|176:344,2,90,0|8|0
256,112,142450,6,0,B|256:8,2,90,4|0|8
184,168,142967,2,0,B|204:228|300:233|326:168,2,180
104,128,143829,5,4
320,40,144174,1,0
408,256,144519,1,4
192,344,144864,1,0
256,176,145209,6,0,B|176:224|80:208,1,180,4|8
40,128,145726,1,0
128,128,145898,2,0,B|136:80|192:64,1,90
272,96,146243,2,0,B|308:64|362:88,1,90,8|0
416,152,146588,5,0
360,288,146760,1,0
328,144,146933,1,0
432,240,147105,1,0
288,224,147278,6,0,B|208:224|208:168|120:168,1,180,0|8
64,240,147795,1,0
64,240,147967,2,0,B|3:219|-2:123|63:97,1,180,4|8
152,88,148484,1,0
232,56,148657,2,0,B|280:88|272:152,1,90,8|8
296,288,149174,6,0,B|376:288|376:344|464:344,2,180
216,336,150036,1,0
176,352,150122,1,0
136,336,150209,1,0
56,272,150381,2,0,B|56:176,1,90,8|0
184,40,150726,6,0,B|280:40|344:120,1,180,4|8
264,168,151243,1,0
344,200,151416,2,0,B|320:248|272:256,1,90
264,168,151760,2,0,B|220:175|196:223,1,90,8|0
176,312,152105,6,0,B|111:313|74:224|126:177,1,180,0|8
72,104,152622,1,0
160,96,152795,2,0,B|192:64|248:64,1,90
312,120,153140,2,0,B|280:152|224:152,1,90,8|0
160,96,153484,6,0,B|88:168|80:280,1,180,8|8
352,288,154174,2,0,B|424:216|432:104,1,180,8|8
256,192,154864,5,0
256,192,155036,2,0,B|256:288,2,90,0|0|0
256,192,155553,12,4,156243
256,192,166243,6,0,B|225:120|289:80|257:16,2,180,8|0|8
168,352,167278,6,0,B|112:272|160:168,1,180,4|8
200,264,167795,2,0,B|102:255|53:151,1,180
72,72,168312,1,8
152,120,168484,1,0
360,48,168657,6,0,B|432:80|488:192,1,180,0|8
400,224,169174,2,0,B|312:224|320:264|216:264,1,180
144,224,169691,1,8
64,264,169864,1,0
328,304,170036,6,0,B|367:354|459:325|462:255,1,180,0|8
376,240,170553,2,0,B|336:189|244:218|241:288,1,180,0|0
160,320,171071,1,8
80,280,171243,2,0,B|80:176|80:176|112:80,1,180
96,16,171760,2,0,B|147:14|178:51,1,90
264,64,172105,5,0
440,112,172450,1,4
320,248,172795,2,0,B|240:248|240:304|152:304,1,180,4|8
104,384,173312,2,0,B|40:374|19:280|78:243,1,180,0|8
80,152,173829,1,8
160,112,174002,5,0
160,112,174088,1,0
160,112,174174,2,0,B|240:112|240:112|368:80,1,180,0|8
384,16,174691,2,0,B|446:25|467:119|407:156,1,180,0|0
352,224,175209,1,8
264,248,175381,1,0
184,296,175553,6,0,B|112:232|152:128,1,180
184,48,176071,1,0
248,112,176243,2,0,B|296:128|336:112,1,90
384,32,176588,2,0,B|427:58|440:99,1,90
472,184,176933,2,0,B|456:288|368:336,1,180,0|8
288,320,177450,1,0
200,344,177622,2,0,B|104:296,1,90,0|8
48,192,177967,2,0,B|144:240,1,90,8|0
208,192,178312,6,0,B|400:192,1,180,4|8
440,264,178829,2,0,B|499:242|500:145|434:121,1,180,0|0
400,40,179347,2,0,B|352:56|344:112,1,90,8|0
240,264,179691,6,0,B|160:240|112:136,1,180,0|8
40,88,180209,2,0,B|112:32|230:27,1,180
280,80,180726,1,8
368,72,180898,1,0
368,72,180984,1,0
368,72,181071,2,0,B|416:88|448:120,2,90,0|0|8
192,48,181588,5,0
412,208,181933,1,8
163,319,182278,1,0
256,192,182622,6,0,B|256:88,2,90,0|8|0
184,248,183140,2,0,B|207:306|303:306|325:240,1,180,0|8
336,152,183657,1,0
336,152,183743,1,0
336,152,183829,2,0,B|395:131|457:205|421:265,1,180,4|8
360,336,184347,1,0
280,304,184519,2,0,B|240:280|176:288,1,90
32,288,184864,2,0,B|72:312|136:304,1,90,8|0
72,128,185209,6,0,B|72:72|104:40,2,90,0|0|8
128,200,185726,2,0,B|224:160|304:192,1,180
368,120,186243,2,0,B|408:144|416:200,1,90,8|0
257,367,186588,6,0,B|289:304|225:264|256:192,1,180,8|8
64,112,187105,2,0,B|152:152,1,90,0|8
256,24,187450,2,0,B|256:120,1,90,0|8
448,112,187795,2,0,B|360:152,1,90,0|8
352,240,188140,5,0
304,312,188312,1,0
208,312,188484,1,0
160,240,188657,1,0
256,192,189347,5,4
80,112,200381,5,4
40,192,200553,1,0
80,272,200726,1,8
120,192,200898,2,0,B|192:161|232:225|296:193,1,180
304,104,201416,2,0,B|352:112|376:152,1,90,8|0
448,312,201760,6,0,B|360:352|272:312,1,180,0|8
208,160,202278,2,0,B|296:120|384:160,1,180
336,232,202795,2,0,B|240:232,1,90,8|0
160,224,203140,2,0,B|168:272|144:312,1,90
64,272,203484,2,0,B|56:224|80:184,1,90,8|0
288,80,204002,6,0,B|336:88|376:48,2,90,0|8|0
224,304,204691,6,0,B|176:296|136:336,2,90,0|8|0
264,224,205209,1,8
264,224,205381,1,0
264,136,205553,1,8
264,136,205726,1,0
464,208,205898,6,0,B|464:96,2,90,4|0|8
392,264,206416,1,0
368,176,206588,2,0,B|344:136|288:128,1,90
144,176,206933,2,0,B|168:136|224:128,1,90,8|0
256,208,207278,6,0,B|256:336,2,90,0|0|8
296,128,207795,1,0
288,40,207967,2,0,B|240:48|216:88,1,90
64,152,208312,2,0,B|112:144|136:104,1,90,8|0
328,312,208657,6,0,B|376:304|400:264,2,90,0|0|8
280,240,209174,2,0,B|176:256|128:336,2,180
352,192,210036,1,8
352,192,210209,1,0
376,104,210381,1,8
376,104,210553,1,0
296,56,210726,2,0,B|240:40|184:48,1,90,8|0
168,288,211071,5,0
208,312,211157,1,0
256,320,211243,1,0
304,312,211329,1,0
344,288,211416,2,0,B|392:272|400:216,1,90,4|0
312,208,211760,2,0,B|312:120,2,90,8|0|0
224,184,212278,1,0
144,224,212450,1,8
72,168,212622,1,0
192,72,212795,6,0,B|215:14|311:14|333:80,1,180,0|0
408,136,213312,2,0,B|385:194|289:194|267:128,1,180,0|0
192,72,213829,1,8
176,160,214002,1,0
176,248,214174,6,0,B|128:272|120:328,1,90
336,248,214519,2,0,B|384:272|392:328,1,90,8|0
256,112,215036,6,0,B|256:16,2,90,0|8|0
256,272,215726,6,0,B|256:368,2,90,0|8|0
344,256,216243,2,0,B|320:160,1,90,8|0
360,32,216588,2,0,B|384:128,1,90,8|0
80,96,216933,6,0,B|64:48|16:32,2,90,4|0|8
96,184,217450,1,0
168,128,217622,2,0,B|208:104|256:112,1,90
288,32,217967,2,0,B|328:54|345:100,1,90,8|0
432,288,218312,6,0,B|448:336|496:352,2,90,0|0|8
416,200,218829,1,0
344,256,219001,2,0,B|304:280|256:272,1,90
224,352,219346,2,0,B|183:329|166:283,1,90,8|0
128,120,219691,6,0,B|64:40,2,90,4|0|8
232,120,220209,2,0,B|200:224|72:224,2,180
296,48,221071,5,4
296,336,221416,1,0
416,96,221760,1,4
416,288,222105,1,0
264,192,222450,6,0,B|184:192|184:136|96:136,1,180,4|8
64,224,222967,1,0
128,288,223140,2,0,B|104:328|56:336,1,90
128,96,223484,2,0,B|104:56|56:48,1,90,8|0
256,192,223829,2,0,B|152:192,2,90,0|0|8
344,192,224347,1,0
400,120,224519,6,0,B|458:143|458:239|392:261,1,180,0|8
344,192,225036,1,0
344,192,225122,1,0
344,192,225209,2,0,B|264:192|264:248|176:248,1,180,0|8
176,160,225726,1,0
176,160,225898,2,0,B|80:160,2,90
256,96,226416,6,0,B|336:48|432:56,2,180
208,176,227278,1,0
192,216,227364,1,0
208,256,227450,1,0
288,216,227622,2,0,B|376:216,1,90
96,216,227967,6,0,B|112:112|208:64,1,180,4|8
264,128,228484,1,0
288,40,228657,2,0,B|336:32|376:64,1,90
352,152,229002,2,0,B|393:176|403:226,1,90,8|0
496,224,229347,6,0,B|515:283|442:344|382:308,1,180,0|8
320,248,229864,1,0
288,328,230036,2,0,B|184:328,1,90
192,240,230381,2,0,B|136:240|112:296,1,90,8|0
72,208,230726,6,0,B|96:120|192:64,1,180,8|8
440,176,231416,2,0,B|416:264|320:320,1,180,8|8
168,72,232105,5,0
256,48,232278,1,0
344,72,232450,1,0
256,48,232622,1,0
256,136,232795,5,8
256,144,232881,1,8
256,152,232967,1,8
256,160,233053,1,8
256,168,233140,1,8
256,176,233226,1,8
256,184,233312,1,8
256,192,233398,1,8
256,200,233484,6,0,B|256:312,1,90,4|0
56,240,233829,2,0,B|56:128,1,90,8|0
152,248,234174,2,0,B|152:352,2,90,0|0|8
152,160,234691,2,0,B|152:56|272:56,1,180
240,144,235209,1,8
328,128,235381,2,0,B|328:232|208:232,1,180
240,144,235898,1,8
264,56,236071,5,0
264,56,236157,1,0
264,56,236243,2,0,B|216:40|176:56,1,90
144,144,236588,2,0,B|94:154|67:188,1,90,8|0
136,240,236933,1,8
136,240,237105,1,0
408,256,237450,5,4
408,256,237795,2,0,B|408:360,2,90,0|8|0
424,168,238312,1,0
424,168,238398,1,0
424,168,238484,1,0
360,112,238657,1,8
360,112,238743,1,0
360,112,238829,1,0
352,24,239002,6,0,B|304:32|280:72,1,90,4|0
192,80,239347,2,0,B|200:128|240:152,1,90,8|0
296,224,239691,2,0,B|296:336,2,90,0|0|8
208,232,240209,1,0
136,280,240381,6,0,B|89:238|122:148|191:150,1,180,0|0
208,232,240898,2,0,B|277:233|310:143|263:102,1,180,0|8
184,56,241416,2,0,B|216:16|264:16,1,90,8|0
336,64,241760,5,12
336,320,242105,1,8
144,192,242450,6,0,B|56:192,2,90,8|0|8
144,192,242967,1,0
368,192,243312,6,0,B|456:192,2,90
256,48,244002,5,0
208,128,244174,1,0
256,120,244260,1,0
304,128,244347,1,0
256,208,244519,1,0
