osu file format v9

[General]
AudioFilename: doriko feat. Hatsune Miku - Paradise Cage.mp3
AudioLeadIn: 0
PreviewTime: 55467
Countdown: 0
SampleSet: Normal
StackLeniency: 0.7
Mode: 0
LetterboxInBreaks: 0

[Editor]
Bookmarks: 22450,55553,88657,99691,123140,156243,167278,189347,200381,233484
DistanceSpacing: 1
BeatDivisor: 2
GridSize: 8

[Metadata]
Title:Paradise Cage
Artist:doriko feat. Hatsune Miku
Creator:KanbeKotori
Version:AngelHoney
Source:Vocaloid
Tags:Romeo and Cinderella eveless impossiblexu AngelHoney aho kaouji

[Difficulty]
HPDrainRate:4
CircleSize:3
OverallDifficulty:3
ApproachRate:6
SliderMultiplier:1.4
SliderTickRate:0.5

[Events]
//Background and Video events
0,0,"IMG_0007.jpg" F,0,0,0,0
//Break Periods
2,88857,98641
2,156443,165193
2,189546,199331
//Storyboard Layer 0 (Background)
//Storyboard Layer 1 (Fail)
//Storyboard Layer 2 (Pass)
//Storyboard Layer 3 (Foreground)
//Storyboard Sound Samples
//Background Colour Transformations
3,100,163,162,255

[TimingPoints]
11416,344.827586206897,4,1,1,50,1,0
22278,-100,4,1,1,40,0,0
44347,-100,4,1,1,50,0,0
54174,-100,4,1,1,60,0,0
99347,-100,4,1,1,40,0,0
110553,-100,4,1,1,50,0,0
122795,-100,4,1,1,60,0,0
156243,-100,4,1,1,40,0,0
165898,-100,4,1,1,50,0,0
167450,-100,4,1,1,60,0,0
182967,-100,4,1,1,55,0,0
183657,-100,4,1,1,50,0,0
188657,-100,4,1,1,40,0,0
189002,-100,4,1,1,30,0,0
189347,-100,4,1,1,20,0,0
200036,-100,4,1,1,60,0,0
205726,-100,4,1,1,50,0,0
211243,-100,4,1,1,60,0,0
216760,-100,4,1,1,50,0,0
222278,-100,4,1,1,60,0,0
233484,-100,4,1,1,40,0,0

[Colours]
Combo1 : 0,0,255
Combo2 : 255,0,0
Combo3 : 0,255,0

[HitObjects]
48,96,10726,22,0,B|192:0|336:112,1,280,0|4
240,216,11760,2,0,B|304:176|384:192,1,140,8|0
416,200,12278,2,0,B|360:256|360:336,1,140,0|8
104,320,13140,1,8
136,288,13312,2,0,B|168:152|40:88,1,210,0|8
48,224,14174,6,0,B|120:248|200:216,1,140,0|8
272,128,14864,2,0,B|320:192,1,70,0|8
416,240,15381,2,0,B|480:144|416:32,1,210,4|8
384,32,16071,2,0,B|352:160|192:176,1,210,0|8
144,48,16933,6,0,B|80:104|88:200,1,140,0|8
136,160,17450,2,0,B|168:288|64:336,1,210,0|8
216,320,18312,2,0,B|280:360|384:352,1,140,0|8
384,336,18829,2,0,B|336:224|472:112,1,210,0|8
312,72,19691,6,0,B|248:40|144:56,3,140,0|8|0|8
256,192,20898,12,0,22105
64,280,22450,6,0,B|144:248|224:288,1,140,4|0
192,144,23140,2,0,B|280:144|352:80,1,140,0|8
368,88,23657,2,0,B|312:160|352:240,2,140,8|8|8
168,96,24691,1,0
200,72,24864,2,0,B|264:136|208:248,1,140,12|0
368,160,25553,2,0,B|352:256|416:320,1,140,8|0
248,264,26243,1,8
152,168,26588,2,0,B|280:200|384:136,1,210
384,120,27278,2,0,B|312:104|256:24,2,140,0|8|4
480,224,28312,6,0,B|392:224|352:320,1,140,8|0
264,232,29002,2,0,B|168:200,1,70,8|8
88,144,29519,2,0,B|168:144|232:72,1,140,8|8
344,56,30209,1,0
368,88,30381,2,0,B|288:120|264:192,2,140,8|0|8
400,112,31243,2,0,B|496:176|504:304,1,210,0|8
384,336,32105,2,0,B|288:288|160:320,1,210,4|0
144,328,32795,2,0,B|240:192|184:40,1,280,4|0
56,56,33829,5,8
24,176,34174,1,0
96,280,34519,1,8
136,272,34691,2,0,B|192:192|144:96,2,140,8|8|8
240,336,35726,1,0
264,360,35898,2,0,B|424:352,1,140,8|0
480,240,36588,2,0,B|328:248,1,140,8|0
216,224,37278,1,8
120,144,37622,2,0,B|264:56|400:144,2,280,0|0|4
24,208,39347,5,8
128,280,39691,2,0,B|160:200|104:104,1,140,0|8
112,104,40209,2,0,B|168:168|272:144,2,140,8|8|8
232,48,41243,2,0,B|320:40,1,70,0|8
416,96,41760,2,0,B|384:192|312:208,1,140,4|8
240,296,42450,2,0,B|320:328|392:280,1,140,0|8
488,328,43140,2,0,B|432:216|472:96,1,210,4|0
472,80,43829,2,0,B|312:128,1,140,0|8
376,232,44519,6,0,B|216:280,1,140,4|8
264,312,45036,2,0,B|136:304|80:168,1,210,0|8
24,96,45898,2,0,B|112:112|176:72,1,140,0|8
224,192,46588,2,0,B|288:152|384:168,1,140,0|8
448,80,47278,2,0,B|296:56,1,140,0|8
320,96,47795,2,0,B|256:200|88:176,1,210,0|8
56,264,48657,2,0,B|144:256|232:312,1,140,0|8
312,240,49347,2,0,B|392:272|464:232,2,140,8|8|12
208,176,50381,6,0,B|248:104|216:24,2,140,0|0|8
80,168,51416,2,0,B|136:232|120:312,1,140,0|8
112,344,51933,2,0,B|344:296,1,210,0|8
432,280,52795,1,0
352,192,53140,1,0
320,168,53312,2,0,B|344:96|448:48,2,140,8|8|8
208,104,54347,2,0,B|112:96,2,70,8|8|8
272,312,55553,5,4
376,256,55898,1,8
400,224,56071,2,8,B|392:136|272:88,1,140,0|8
208,160,56760,1,8
232,192,56933,2,0,B|304:144|312:48,1,140,0|8
296,40,57450,2,0,B|184:88|56:24,1,210,0|8
152,160,58312,2,0,B|64:152|-8:216,1,140,0|8
40,232,58829,2,0,B|160:240|216:312,1,140,0|8
288,336,59519,2,0,B|328:216|216:96,1,210,0|8
176,48,60381,1,8
120,152,60726,1,8
40,248,61071,5,4
128,336,61416,2,0,B|208:312,1,70,8|0
296,264,61933,1,0
328,280,62105,2,0,B|416:304|496:232,1,140,8|0
496,144,62795,2,0,B|456:88,1,70,8|0
352,144,63312,1,0
312,152,63484,2,0,B|256:112|160:112,1,140,8|0
88,200,64174,5,0
120,224,64347,2,0,B|296:200,1,140,8|0
280,232,64864,2,0,B|432:264,1,140,8|0
456,240,65381,1,8
480,200,65553,1,8
496,160,65726,1,8
488,120,65898,2,0,B|472:56|376:16,1,140,0|8
368,128,66588,6,0,B|240:48|72:80,1,280,4|0
24,168,67622,1,8
48,192,67795,1,0
72,224,67967,2,0,B|200:160|360:192,1,280,4|0
432,264,69002,1,8
448,152,69347,2,0,B|496:88|472:-16,2,140,0|8|0
336,112,70381,1,8
296,128,70553,2,0,B|240:80|144:72,1,140,0|0
192,120,71071,2,0,B|112:96|24:152,1,140,8|8
16,240,71760,1,8
112,328,72105,6,0,B|152:256|128:192,2,140,4|8|0
232,288,73140,1,8
344,328,73484,2,0,B|304:256|368:160,2,140,0|8|0
448,256,74519,1,8
440,128,74864,2,0,B|352:168|280:136,1,140,0|8
320,184,75381,2,0,B|240:264|96:216,1,210,0|8
24,160,76243,1,0
128,104,76588,1,8
248,128,76933,1,8
344,72,77278,1,8
448,128,77622,6,0,B|416:208|456:272,1,140,4|8
464,304,78140,2,0,B|368:256|256:296,1,210,0|8
224,312,78829,2,0,B|168:272|88:280,1,140
48,288,79347,2,0,B|120:256|160:152,2,140,8|0|8
16,168,80381,1,4
112,96,80726,1,8
152,112,80898,1,0
192,104,81071,2,0,B|312:64|408:128,2,210,0|0|8
232,208,82450,1,0
232,208,82622,1,0
232,208,82795,1,8
176,312,83140,6,0,B|272:336|352:248,1,140,4|8
280,256,83657,2,0,B|416:280|480:152,1,210,0|8
392,80,84519,2,8,B|304:48|240:120,1,140
280,136,85036,2,0,B|152:136|96:256,1,210,0|8
256,192,85898,12,0,86933
256,192,87278,12,4,88657
112,192,99691,5,4
160,312,100036,1,8
200,320,100209,1,0
240,336,100381,2,0,B|304:280|384:296,1,140,0|8
408,312,100898,2,0,B|480:280|496:200,2,140,8|8|8
360,192,101933,5,0
352,152,102105,1,8
344,112,102278,1,0
328,72,102450,2,0,B|280:8|184:32,1,140,4|8
232,64,102967,2,0,B|104:72|40:168,1,210,0|8
24,272,103829,2,0,B|144:224|240:296,1,210
216,320,104519,2,0,B|360:296,1,140,0|8
296,192,105209,6,0,B|464:208,1,140,4|8
400,88,105898,2,0,B|328:48|224:64,1,140,0|8
232,80,106416,2,0,B|160:104|80:72,1,140,8|8
24,200,107105,2,0,B|88:160|184:176,1,140,8|0
192,192,107622,2,0,B|264:224|352:176,1,140,0|4
432,128,108312,1,8
456,160,108484,1,0
472,280,108829,1,0
432,296,109002,1,8
392,304,109174,1,0
352,312,109347,2,0,B|264:248|144:288,1,210,4|0
112,304,110036,2,0,B|32:280|8:176,1,140
144,192,110726,6,0,B|232:152|312:208,1,140,4|8
320,208,111243,2,0,B|448:200|504:80,1,210,0|8
384,32,112105,2,0,B|256:40|200:160,1,210
224,176,112795,2,0,B|168:232|64:232,1,140,0|8
136,344,113484,2,0,B|216:304|296:328,1,140,0|8
312,336,114002,2,0,B|336:232|456:168,1,210,0|8
392,72,114864,2,0,B|280:112|144:48,1,210
147,49,115553,2,0,B|91:217,1,140,8|8
64,288,116243,5,4
176,344,116588,2,0,B|256:312|352:344,2,140,0|8|8
168,232,117622,1,0
198,110,117967,1,8
232,136,118140,2,0,B|304:192|424:160,1,140
408,160,118657,2,0,B|328:120|296:40,1,140,0|0
176,32,119347,1,0
192,72,119519,2,0,B|112:88|64:144,1,140,8|0
256,192,120209,12,0,121588
64,272,123140,6,0,B|136:224|216:240,1,140,4|8
216,272,123657,2,0,B|328:320|432:256,1,210,0|8
472,160,124519,2,0,B|408:128|328:144,1,140,0|8
304,168,125036,2,0,B|192:216|83:168,1,210,0|8
35,80,125898,5,0
152,72,126243,1,8
192,64,126416,2,0,B|264:88|336:40,2,140,8|8|8
216,176,127450,1,0
240,200,127622,2,0,B|320:184|384:232,1,140,8|8
456,304,128312,1,8
336,328,128657,6,0,B|248:304|176:360,1,140,4|8
208,224,129347,2,0,B|128:256|56:232,1,140,0|8
32,128,130036,2,0,B|112:136|176:88,1,140,0|8
280,128,130726,2,0,B|344:104|440:152,1,140,0|8
496,224,131416,5,8
400,272,131760,1,8
296,224,132105,1,8
192,264,132450,1,8
88,224,132795,2,0,B|72:104|176:16,1,210,12|0
184,64,133484,2,0,B|344:48,1,140,8|8
440,96,134174,5,4
376,192,134519,1,8
344,208,134691,2,0,B|280:176|184:184,1,140
176,208,135209,2,0,B|152:272|64:312,1,140,8|0
16,208,135898,1,8
48,184,136071,2,0,B|-16:120|8:24,1,140
40,72,136588,2,0,B|216:88,1,140,8|0
216,192,137278,5,8
248,176,137450,2,0,B|400:128,2,140
304,288,138484,1,0
272,296,138657,1,8
232,304,138829,1,0
192,312,139002,2,0,B|112:328|48:288,1,140,8|8
104,192,139691,5,4
40,104,140036,2,0,B|200:80,1,140,8|0
152,192,140726,2,0,B|312:208,1,140,8|0
264,96,141416,2,0,B|432:56,1,140,8|0
360,176,142105,2,0,B|496:200,1,140,8|4
432,304,142795,1,8
392,320,142967,2,0,B|336:280|216:280,1,140
232,312,143484,2,0,B|160:344|72:320,1,140,8|8
24,248,144174,1,8
96,168,144519,1,8
48,72,144864,1,8
160,72,145209,6,0,B|240:80|328:32,1,140,4|8
336,32,145726,2,0,B|288:136|320:240,1,210,0|8
400,152,146588,2,0,B|240:128,1,140,0|8
152,104,147278,1,0
40,152,147622,1,8
104,256,147967,2,0,B|176:232|256:264,1,140,0|8
280,280,148484,1,8
320,304,148657,1,8
360,328,148829,2,0,B|440:344|504:296,1,140,8|0
400,104,149691,5,8
256,128,150036,1,0
224,152,150209,1,8
192,176,150381,1,8
112,264,150726,2,0,B|184:288|280:256,1,140,4|8
272,296,151243,2,0,B|384:240|512:320,1,210,0|8
472,176,152105,2,0,B|400:192|312:136,1,140,0|8
304,176,152622,2,0,B|224:104|80:128,1,210,0|8
256,192,153484,12,0,154519
256,192,154691,12,4,156243
32,128,166243,5,8
72,264,166588,1,0
160,152,166933,1,0
272,216,167278,2,0,B|352:176|448:192,1,140,4|8
448,200,167795,2,0,B|368:256|376:336,1,140,0|0
264,352,168484,1,0
248,312,168657,2,0,B|224:224|144:184,1,140,0|8
192,160,169174,2,0,B|104:192|32:160,1,140
16,64,169864,1,0
56,48,170036,2,0,B|128:8|232:32,1,140,0|8
232,40,170553,2,0,B|304:64|376:32,1,140
440,144,171243,2,0,B|312:112|192:200,1,210,0|8
144,256,172105,5,0
144,256,172450,1,8
144,256,172795,2,0,B|232:240|328:280,1,140,0|8
256,304,173312,2,0,B|336:256|432:272,1,140
480,184,174002,1,0
440,160,174174,2,0,B|376:120|280:136,1,140,0|8
264,144,174691,2,0,B|192:152|112:104,1,140
48,216,175381,1,0
88,208,175553,2,0,B|192:216|232:280,1,140,0|8
248,288,176071,1,0
296,280,176243,2,0,B|352:320|440:312,1,140,0|8
472,328,176760,2,0,B|504:208|432:120,1,210,0|8
344,64,177622,5,0
344,64,177967,1,8
264,160,178312,2,0,B|184:152|128:104,1,140,4|8
144,152,178829,2,0,B|72:136|-16:176,1,140
88,272,179519,1,0
128,256,179691,2,0,B|184:208|192:120,1,140,0|8
232,144,180209,2,0,B|248:72|336:16,1,140
400,128,180898,1,0
368,160,181071,2,0,B|304:224|336:328,1,140,0|8
296,320,181588,2,0,B|216:296|120:336,1,140
40,256,182278,2,0,B|144:200|168:72,1,210,0|8
272,48,183140,6,0,B|352:96|440:80,1,140,0|8
352,192,183829,2,0,B|264:200|200:160,1,140,4|8
176,144,184347,1,0
128,144,184519,2,0,B|64:192|40:296,1,140,0|8
168,304,185209,2,0,B|224:272|312:280,1,140,0|8
344,288,185726,1,0
384,304,185898,2,0,B|432:240|424:144,1,140,0|8
464,64,186588,6,0,B|368:72|272:32,1,140,0|8
248,152,187278,2,0,B|152:136|88:184,1,140,0|8
40,288,187967,2,0,B|128:264,1,70
136,304,188312,2,0,B|224:304,1,70,8|0
232,336,188657,2,0,B|400:328|448:152,1,280
72,144,200381,6,0,B|152:152|232:104,1,140,4|8
240,144,200898,2,0,B|336:104|432:144,1,140
480,200,201588,1,0
448,240,201760,2,0,B|376:272|280:240,1,140,0|8
272,280,202278,2,0,B|192:256|96:280,1,140
88,288,202795,1,8
32,152,203140,6,0,B|120:176|216:136,1,140,0|8
160,104,203657,2,0,B|256:96|336:136,1,140
416,64,204347,2,0,B|464:176|392:272,1,210,0|8
288,200,205209,2,0,B|208:176|88:208,1,140,0|8
56,112,205898,5,4
176,88,206243,2,0,B|280:64,1,70,8|0
264,184,206760,2,0,B|376:176,1,70,0|8
440,240,207278,1,0
336,288,207622,2,0,B|248:272,1,70,8|0
168,352,208140,2,0,B|80:304,1,70,0|8
32,216,208657,6,0,B|120:184|216:232,2,140,0|8|0
64,104,209691,1,8
184,112,210036,2,0,B|280:128|352:64,1,140,0|8
432,160,210726,2,0,B|344:176|304:256,1,140,0|8
248,336,211416,6,0,B|176:312|88:336,1,140,4|8
64,344,211933,2,0,B|40:269|56:176,1,140
64,160,212450,1,8
88,120,212622,1,0
120,88,212795,2,0,B|200:64|272:72,1,140,0|8
304,72,213312,2,0,B|296:168|328:240,1,140
336,248,213829,1,8
424,328,214174,6,0,B|480:272,2,70,4|0|8
384,360,214691,2,0,B|308:335|200:344,1,140
272,232,215381,2,0,B|192:200|112:208,1,140,4|0
88,208,215898,2,0,B|152:152|160:56,1,140,8|8
264,32,216588,1,8
376,80,216933,5,4
448,168,217278,2,0,B|472:248,1,70,8|0
352,248,217795,2,0,B|336:328,2,70,0|8|0
328,208,218312,2,0,B|272:176|176:176,1,140,0|8
152,184,218829,1,0
72,272,219174,2,0,B|-32:240,2,70,0|8|0
112,288,219691,6,0,B|192:296|256:240,1,140,0|8
344,336,220381,2,0,B|416:288|488:296,1,140,0|8
432,176,221071,1,0
392,160,221243,1,0
352,144,221416,2,0,B|288:120|208:120,1,140,8|0
112,184,222105,1,8
40,288,222450,6,0,B|128:272|208:288,1,140,4|8
216,312,222967,2,0,B|304:304|400:320,1,140
400,344,223484,1,8
448,368,223657,2,0,B|488:264|448:120,1,210,0|8
352,112,224519,2,0,B|320:208|352:280,1,140,0|8
256,336,225209,5,0
144,288,225553,1,8
160,248,225726,1,0
176,208,225898,1,8
192,168,226071,2,0,B|215:82|176:16,1,140,8|0
336,192,226933,2,0,B|400:168|480:184|480:184,2,140,0|8|8
408,288,227967,5,4
296,336,228312,1,8
256,320,228484,2,0,B|136:304|48:352,1,210,0|8
8,240,229347,2,0,B|104:240|176:200,1,140,0|8
176,184,229864,2,0,B|280:168|408:192,1,210,0|8
424,200,230553,1,0
472,208,230726,6,0,B|486:141|464:56,1,140,0|8
336,144,231416,2,0,B|328:64|360:-8,1,140,0|8
256,192,232105,12,4,233484
