osu file format v9

[General]
AudioFilename: 1.mp3
AudioLeadIn: 3000
PreviewTime: 79454
Countdown: 0
SampleSet: Soft
StackLeniency: 0.7
Mode: 0
LetterboxInBreaks: 0

[Editor]
Bookmarks: 33592,79454,130833
DistanceSpacing: 1.3
BeatDivisor: 4
GridSize: 4

[Metadata]
Title:Yuuhi Zaka
Artist:doriko
Creator:Athena Tennos
Version:Normal
Source:
Tags:lucyfly ts8zs Vocaloid Vocaloid2 Hatsune Miku

[Difficulty]
HPDrainRate:3
CircleSize:3
OverallDifficulty:3
ApproachRate:5
SliderMultiplier:1.20000000596046
SliderTickRate:2

[Events]
//Background and Video events
0,0,"BG.jpg"
//Break Periods
2,77597,78596
//Storyboard Layer 0 (Background)
Sprite,Background,TopLeft,"BG.jpg",0,0
//Storyboard Layer 1 (Fail)
//Storyboard Layer 2 (Pass)
//Storyboard Layer 3 (Foreground)
Sprite,Foreground,Centre,"SB\bg01.jpg",320,240 M,0,16695,33259,320,240
Sprite,Foreground,Centre,"SB\bg02.jpg",320,240 M,0,11178,,320,240 F,0,16695,17385,1,0 S,0,16695,17385,1,1.05 S,0,17385,17557,1.05,1
Sprite,Foreground,TopLeft,"SB\c1.png",320,240 M,0,11178,22212,0,388,-634,388
Sprite,Foreground,Centre,"SB\c1.png",320,240 F,0,11178,11868,0,1 M,0,11178,32557,941,435,-329,435
Sprite,Foreground,Centre,"SB\c1.png",320,240 M,0,21523,33592,920,435,207,435
Sprite,Foreground,Centre,"SB\c1.png",320,240 M,0,30833,33592,951,435,818,435
Sprite,Foreground,Centre,"SB\white.png",320,240 F,0,-890,316,0,1 C,0,-890,11868,220,220,220 F,0,316,11178,1 F,0,11178,11868,1,0
Sprite,Foreground,Centre,"SB\s.png",320,240 S,0,144,,1.5 M,0,144,4281,136,-88,136,572
Sprite,Foreground,Centre,"SB\s.png",320,240 S,0,5661,,1.5 M,0,5661,9799,26,-94,26,573
Sprite,Foreground,Centre,"SB\s.png",320,240 M,0,833,6350,299,-67,299,542
Sprite,Foreground,Centre,"SB\s.png",320,240 M,0,9109,11178,108,-67,108,162
Sprite,Foreground,Centre,"SB\s.png",320,240 M,0,6350,11178,344,-68,344,469
Sprite,Foreground,Centre,"SB\s.png",320,240 M,0,2212,7730,484,-68,484,545
Sprite,Foreground,Centre,"SB\s.png",320,240 M,0,4971,10488,620,-68,620,542
Sprite,Foreground,Centre,"SB\s.png",320,240 S,0,1523,,0.5 M,0,1523,9799,355,-36,355,517
Sprite,Foreground,Centre,"SB\s.png",320,240 S,0,4281,,0.5 M,0,4281,11178,155,-31,155,420
Sprite,Foreground,Centre,"SB\s.png",320,240 S,0,7040,,0.5 M,0,7040,11178,444,-31,444,239
Sprite,Foreground,Centre,"SB\s.png",320,240 S,0,9799,,0.5 M,0,9799,11178,585,-30,585,59
Sprite,Foreground,Centre,"SB\s.png",320,240 S,0,2902,,1.5 M,0,2902,7040,564,-104,564,572
Sprite,Foreground,Centre,"SB\s.png",320,240 M,0,3592,9109,181,-68,181,544
Sprite,Foreground,Centre,"SB\s.png",320,240 M,0,7730,11178,503,-67,503,311
Sprite,Foreground,Centre,"SB\s.png",320,240 S,0,8419,,1.5 M,0,8419,11178,351,-86,351,353
Sprite,Foreground,Centre,"SB\c2.png",320,240 V,0,-1235,,1,1.464 M,0,-1235,144,320,148 M,0,144,1006,320,148,320,-110 F,0,144,1006,1,0
Sprite,Foreground,Centre,"SB\c2.png",320,240 V,0,-1235,,1.064,1.264 M,0,-1235,144,320,352 P,0,-1235,1006,V M,0,144,1006,320,352,320,570 F,0,144,1006,1,0
Sprite,Foreground,Centre,"SB\5.jpg",320,240 S,0,33259,39109,1.32,1.13 M,0,33259,44281,291,-61,300,87 S,0,39109,44281,1.130061,0.95
Sprite,Foreground,Centre,"SB\bg01.jpg",320,240 M,0,27730,,320,240 F,0,27730,28420,1,0 S,0,27730,28420,1,1.05 S,0,28420,28592,1.05,1
Sprite,Foreground,Centre,"SB\snow.png",320,240 M,0,11868,22902,440,-136,440,629
Sprite,Foreground,Centre,"SB\snow.png",320,240 M,0,14626,22902,368,-142,368,632
Sprite,Foreground,Centre,"SB\snow.png",320,240 M,0,17385,28419,471,-199,471,631
Sprite,Foreground,Centre,"SB\snow.png",320,240 M,0,20143,28419,339,-199,339,632
Sprite,Foreground,Centre,"SB\snow.png",320,240 M,0,22902,33247,423,-148,423,579
Sprite,Foreground,Centre,"SB\snow.png",320,240 M,0,25661,33247,472,-199,472,564
Sprite,Foreground,Centre,"SB\snow.png",320,240 M,0,28419,33247,322,-200,322,163
Sprite,Foreground,Centre,"SB\snow.png",320,240 M,0,31178,33247,472,-203,472,5
Sprite,Foreground,Centre,"SB\bf.png",320,240 M,0,34626,44454,630,-353,358,318
Sprite,Foreground,Centre,"SB\f.png",320,240 S,0,34626,,0.55 M,0,34626,42902,513,-24,94,511 R,0,34626,42902,-6.208,-0.6586096
Sprite,Foreground,Centre,"SB\f.png",320,240 S,0,38075,,0.22 M,0,38075,43247,346,-11,-9,88 R,0,38075,43247,-0.05119964,-3.547983
Sprite,Foreground,Centre,"SB\f.png",320,240 S,0,39109,,0.44 M,0,39109,44281,618,-20,453,335 R,0,39109,44281,0,3.76
Sprite,Foreground,Centre,"SB\white.png",320,240 F,0,32902,33259,0,1 F,0,33259,34626,1,0
Sprite,Foreground,Centre,"SB\5.jpg",320,240 M,0,44293,55328,315,492,303,389 S,0,44293,55328,1.2,0.95
Sprite,Foreground,Centre,"SB\f.png",320,240 S,0,44971,,0.3 M,0,44971,52212,657,149,508,489 R,0,44971,52212,-0.07680023,6.003199
Sprite,Foreground,Centre,"SB\f.png",320,240 S,0,44971,,0.76 M,0,44971,53247,665,66,154,546 R,0,44971,53247,0.4640001,1.904001
Sprite,Foreground,Centre,"SB\f.png",320,240 S,0,49799,,0.53 M,0,49799,54626,659,105,328,516 R,0,49799,54626,2.144,5.600001
Sprite,Foreground,Centre,"SB\f.png",320,240 S,0,47040,,0.35 M,0,47040,54971,663,156,201,316 R,0,47040,54971,0,3.327999
Sprite,Foreground,Centre,"SB\f.png",320,240 S,0,51178,,0.63 M,0,51178,54971,667,106,467,255 R,0,51178,54971,0,1.04
Sprite,Foreground,Centre,"SB\white.png",320,240 F,0,43937,44281,0,1 F,0,44281,45097,1,0.2253056 F,0,45097,45316,0.2253056,0.01739132
Sprite,Foreground,Centre,"SB\3.jpg",320,240 M,0,55316,66178,415,240,318,240
Sprite,Foreground,Centre,"SB\b1.png",320,240 F,0,57385,58419,0,0.75 M,0,57385,66177,195,240,389,240
Sprite,Foreground,Centre,"SB\fo1.png",320,240 S,0,55316,,1.6 M,0,55316,55661,222,430,144,430 R,0,55316,55661,0,-0.4 F,0,55316,56006,0,1 M,0,55661,58075,144,430,68,430 R,0,55661,66177,-0.4159997,-4.292001
Sprite,Foreground,Centre,"SB\fo1.png",320,240 F,0,56695,57385,0,1 M,0,56695,58075,239,450,159,450 R,0,56695,66177,0,-7.968002
Sprite,Foreground,Centre,"SB\fo1.png",320,240 S,0,58075,,0.56 F,0,58075,58764,0,1 M,0,58075,59454,293,476,232,476 R,0,58075,66178,0,-8.623999
Sprite,Foreground,Centre,"SB\white.png",320,240 F,0,54626,55316,0,1 F,0,55316,56006,1,0.002898574
Sprite,Foreground,Centre,"SB\white.png",320,240 M,0,66178,71868,320,240
Sprite,Foreground,Centre,"SB\b2.png",320,240 M,0,66350,71868,425,240,246,240 F,0,67040,67730,0,1
Sprite,Foreground,Centre,"SB\2.png",320,240 M,0,66350,71868,356,240,388,240
Sprite,Foreground,Centre,"SB\fo2.png",320,240 S,0,66350,,1.4 F,0,66350,67040,0,1 M,0,66350,69109,448,434,591,434 R,0,66350,71868,0,3.552
Sprite,Foreground,Centre,"SB\fo2.png",320,240 S,0,67730,,0.784 F,0,67730,68419,0,1 M,0,67730,69109,404,456,471,456 R,0,67730,71868,0,4.176001
Sprite,Foreground,Centre,"SB\white.png",320,240 F,0,65661,66178,0,1 F,0,66178,66350,1 F,0,66350,67040,1,0
Sprite,Foreground,Centre,"SB\4.jpg",320,240 M,0,72040,77385,320,234,320,293 S,0,72040,77385,1.198704,1.1 R,0,76006,,0 M,0,77385,79108,320,293,320,307 S,0,77385,79108,1.1,1.08
Sprite,Foreground,Centre,"SB\y.png",320,240 F,0,73247,74626,0,1 M,0,73247,77730,320,384,320,263 V,0,73247,77730,1,1,1,1.176 M,0,77730,79454,320,263
Sprite,Foreground,Centre,"SB\fe.png",320,240 M,0,73247,77730,179,513,103,347 S,0,73247,77730,0.8,0.46 R,0,73247,77730,1.376,-2.192 P,0,73247,77730,H F,0,77385,77730,1,0
Sprite,Foreground,Centre,"SB\fe.png",320,240 M,0,72557,76695,364,498,189,212 R,0,72557,76695,0,-5.088 S,0,72557,77730,0.6,0.45 P,0,72557,77730,H M,0,76695,77730,189,212,145,139 R,0,76695,77730,-5.088,-6.56 F,0,77385,77730,1,0
Sprite,Foreground,Centre,"SB\fe.png",320,240 M,0,72557,77730,198,490,151,230 S,0,72557,77730,0.6,0.5 R,0,72557,77730,-4.336,-9.360001 F,0,77385,77730,1,0
Sprite,Foreground,Centre,"SB\fe.png",320,240 M,0,73937,77730,308,496,239,251 S,0,73937,77730,0.66,0.5 R,0,73937,77730,-3.952,-8.112 P,0,73937,77730,H F,0,77385,77730,1,0
Sprite,Foreground,Centre,"SB\fe.png",320,240 M,0,74281,77730,235,491,76,266 S,0,74281,77730,0.58,0.25 R,0,74281,77730,0,-5.936 P,0,74281,77730,H F,0,77385,77730,1,0
Sprite,Foreground,Centre,"SB\fe.png",320,240 M,0,75316,77730,140,502,-17,265 S,0,75316,77730,1,0.74 R,0,75316,77730,-1.616,-6.496 P,0,75316,77730,H F,0,77385,77730,1,0
Sprite,Foreground,Centre,"SB\fe.png",320,240 M,0,75316,77730,272,490,166,280 S,0,75316,77730,0.4,0.18 R,0,75316,77730,4.896,-2.656 P,0,75316,77730,H F,0,77385,77730,1,0
Sprite,Foreground,Centre,"SB\fe.png",320,240 M,0,76006,77730,174,502,85,418 S,0,76006,77730,0.72,0.39 R,0,76006,77730,2.304,-1.632 P,0,76006,77730,H F,0,77385,77730,1,0
Sprite,Foreground,Centre,"SB\fe.png",320,240 M,0,76695,77730,216,492,183,423 S,0,76695,77730,0.5,0.43 R,0,76695,77730,-0.9759998,-2.512 P,0,76695,77730,H F,0,77385,77730,1,0
Sprite,Foreground,Centre,"SB\fe.png",320,240 M,0,76006,77730,277,526,229,322 S,0,76006,77730,1,0.7 R,0,76006,77730,1.696,-4.272 P,0,76006,77730,H F,0,77385,77730,1,0
Sprite,Foreground,Centre,"SB\fe.png",320,240 M,0,76350,77730,110,489,9,335 S,0,76350,77730,0.416,0.29 R,0,76350,77730,-1.328,-5.007999 P,0,76350,77730,H F,0,77385,77730,1,0
Sprite,Foreground,Centre,"SB\fe.png",320,240 M,0,76695,77730,313,496,288,396 S,0,76695,77730,0.63,0.38 R,0,76695,77730,2.528,1.008001 P,0,76695,77730,H F,0,77385,77730,1,0
Sprite,Foreground,Centre,"SB\fe.png",320,240 M,0,73247,77730,482,519,486,316 S,0,73247,77730,0.8,0.5 R,0,73247,77730,0,4.928 F,0,77385,77730,1,0
Sprite,Foreground,Centre,"SB\fe.png",320,240 M,0,72557,76695,460,486,550,232 R,0,72557,76695,1.712,6.784 S,0,72557,77730,0.49,0.26 M,0,76695,77730,550,232,589,177 R,0,76695,77730,6.784,9.008 F,0,77385,77730,1,0
Sprite,Foreground,Centre,"SB\fe.png",320,240 M,0,72902,77730,338,486,459,168 S,0,72902,77730,0.37,0.19 R,0,72902,77730,0,10.304 F,0,77385,77730,1,0
Sprite,Foreground,Centre,"SB\fe.png",320,240 M,0,73937,77730,373,508,568,152 S,0,73937,77730,1,0.74 R,0,73937,77730,3.631999,10.912 F,0,77385,77730,1,0
Sprite,Foreground,Centre,"SB\fe.png",320,240 M,0,74971,77730,344,496,418,227 S,0,74971,77730,0.56,0.33 R,0,74971,77730,-1.776,6.240001 F,0,77385,77730,1,0
Sprite,Foreground,Centre,"SB\fe.png",320,240 M,0,75316,77730,400,508,461,192 S,0,75316,77730,0.72,0.46 R,0,75316,77730,-2.24,3.632001 F,0,77385,77730,1,0
Sprite,Foreground,Centre,"SB\fe.png",320,240 M,0,75661,77730,520,498,577,295 S,0,75661,77730,0.57,0.32 R,0,75661,77730,0,4.8 F,0,77385,77730,1,0
Sprite,Foreground,Centre,"SB\fe.png",320,240 M,0,76006,77730,336,499,384,271 S,0,76006,77730,0.55,0.38 R,0,76006,77730,1.984,7.248 F,0,77385,77730,1,0
Sprite,Foreground,Centre,"SB\fe.png",320,240 M,0,75661,77730,461,504,457,358 S,0,75661,77730,0.54,0.43 R,0,75661,77730,0,4.928 F,0,77385,77730,1,0
Sprite,Foreground,Centre,"SB\fe.png",320,240 M,0,76695,77730,380,505,508,429 S,0,76695,77730,0.58,0.43 R,0,76695,77730,1.248,6.48 F,0,77385,77730,1,0
Sprite,Foreground,Centre,"SB\fe.png",320,240 M,0,77040,77730,542,515,634,342 S,0,77040,77730,1,0.78 R,0,77040,77730,0,4.224 F,0,77385,77730,1,0
Sprite,Foreground,Centre,"SB\fe.png",320,240 M,0,76350,77730,382,501,379,390 S,0,76350,77730,0.67,0.42 R,0,76350,77730,0,3.008 F,0,77385,77730,1,0
Sprite,Foreground,Centre,"SB\white.png",320,240 F,0,71523,71868,0,1 F,0,71868,72040,1 F,0,72040,72730,1,0
Sprite,Foreground,Centre,"SB\1.jpg",320,240 M,0,79281,102212,320,238,320,166 S,0,79281,102212,0.6526405,1 M,0,102212,,320,166 M,0,102212,113592,320,166,320,203 S,0,102212,113592,1,0.8195206
Sprite,Foreground,Centre,"SB\rippling.png",320,240 M,0,85661,87040,319,358,319,364 V,0,85661,87040,0.16,0.1,3.5,1 F,0,86350,87040,1,0
Sprite,Foreground,Centre,"SB\d1.png",320,240 F,0,112212,113592,0,1 M,0,112212,124281,319,76,319,144 S,0,112212,124281,0.8401599,0.6480002
Sprite,Foreground,Centre,"SB\d2.png",320,240 F,0,106695,108075,0,1 M,0,106695,124281,319,373 S,0,106695,124281,0.9279997,0.6479998
Sprite,Foreground,Centre,"SB\c-3.png",320,240 F,0,80833,81523,0,1 M,0,80833,102212,624,192,434,96 S,0,80833,102212,1.021886,1.7 F,0,81523,106695,1 M,0,102212,,434,112,434,59 M,0,102212,124281,434,96,182,220 S,0,102212,124281,1.7,1 F,0,106695,108075,1,0.596
Sprite,Foreground,Centre,"SB\wing.png",320,240 M,0,101523,101695,320,200,362,207 S,0,101523,101695,0.2240001,0.5120001 R,0,101523,101695,2.096,1.728 M,0,101695,101868,362,207,384,193 S,0,101695,102212,0.5120001,0.9626047 R,0,101695,102212,1.728,0.3039999 M,0,101868,102040,384,193,401,161 M,0,102040,102212,401,161,403,120 M,0,102212,102385,403,120,415,199 R,0,102212,102385,0.3039999,1.248 S,0,102212,103592,0.9626047 M,0,102385,102902,415,199,414,176 R,0,102385,103592,1.248,0.5759997 M,0,102902,103592,414,176,405,150 M,0,103592,124281,405,150,359,263 S,0,103592,124281,0.9626047,0.4426045
Sprite,Foreground,Centre,"SB\wing.png",320,240 M,0,101523,101695,317,200,274,207 S,0,101523,101695,0.2240001,0.5120001 R,0,101523,101695,4.192,4.56 P,0,101523,124281,H M,0,101695,101868,274,207,254,193 S,0,101695,102212,0.5120001,0.9626047 R,0,101695,102212,4.56,5.984 M,0,101868,102040,254,193,236,161 M,0,102040,102212,236,161,234,120 M,0,102212,102385,234,120,223,199 R,0,102212,102385,5.984,5.04 S,0,102212,103592,0.9626047 M,0,102385,102902,223,199,223,176 R,0,102385,103592,5.04,5.711999 M,0,102902,103592,223,176,232,150 M,0,103592,124281,232,150,279,263 S,0,103592,124281,0.9626047,0.4426045
Sprite,Foreground,Centre,"SB\fe.png",320,240 M,0,102299,102385,415,191,457,248 S,0,102385,,0.2559999 M,0,102385,103247,457,248,486,286 R,0,102385,103247,-6.8,-9.92 F,0,102902,103247,1,0
Sprite,Foreground,Centre,"SB\fe.png",320,240 M,0,102299,102385,439,177,504,208 S,0,102385,,0.2559999 M,0,102385,103247,504,208,590,156 R,0,102385,103247,-1.952001,-4.256 F,0,102902,103247,1,0
Sprite,Foreground,Centre,"SB\fe.png",320,240 M,0,102299,102385,433,180,484,235 S,0,102385,,0.2559999 M,0,102385,103247,484,235,549,262 R,0,102385,103247,-8.624001,-11.792 F,0,102902,103247,1,0
Sprite,Foreground,Centre,"SB\fe.png",320,240 M,0,102299,102385,395,189,404,257 S,0,102385,,0.2559999 M,0,102385,103247,404,257,416,306 R,0,102385,103247,-0.3199996,3.024 F,0,102902,103247,1,0
Sprite,Foreground,Centre,"SB\fe.png",320,240 M,0,102299,102385,386,175,434,208 S,0,102385,,0.2559999 M,0,102385,103247,434,208,525,201 R,0,102385,103247,-7.904,-11.824 F,0,102902,103247,1,0
Sprite,Foreground,Centre,"SB\fe.png",320,240 M,0,102299,102385,373,173,372,223 S,0,102385,,0.2559999 M,0,102385,103247,372,223,354,269 R,0,102385,103247,-6.335999,-4.640001 F,0,102902,103247,1,0
Sprite,Foreground,Centre,"SB\fe.png",320,240 S,0,102299,,0.312 M,0,102299,102385,224,177,181,250 P,0,102299,103247,H M,0,102385,103247,181,250,126,296 R,0,102385,103247,1.493198,4.432001 F,0,102902,103247,1,0
Sprite,Foreground,Centre,"SB\fe.png",320,240 S,0,102299,,0.312 M,0,102299,102385,240,187,220,259 P,0,102299,103247,H M,0,102385,103247,220,259,198,320 R,0,102385,103247,4.741198,8.176003 F,0,102902,103247,1,0
Sprite,Foreground,Centre,"SB\fe.png",320,240 S,0,102299,,0.312 M,0,102299,102385,206,161,132,197 P,0,102299,103247,H M,0,102385,103247,132,197,27,164 R,0,102385,103247,1.557198,6.128001 F,0,102902,103247,1,0
Sprite,Foreground,Centre,"SB\fe.png",320,240 S,0,102299,,0.312 M,0,102299,102385,224,177,164,218 P,0,102299,103247,H M,0,102385,103247,164,218,69,222 R,0,102385,103247,2.469198,5.232001 F,0,102902,103247,1,0
Sprite,Foreground,Centre,"SB\fe.png",320,240 S,0,102299,,0.312 M,0,102299,102385,224,177,196,217 P,0,102299,103247,H M,0,102385,103247,196,217,140,243 R,0,102385,103247,1.493198,5.808001 F,0,102902,103247,1,0
Sprite,Foreground,Centre,"SB\fe.png",320,240 S,0,102299,,0.312 M,0,102299,102385,246,185,246,225 P,0,102299,103247,H M,0,102385,103247,246,225,230,281 R,0,102385,103247,1.493198,4.432001 F,0,102902,103247,1,0
Sprite,Foreground,Centre,"SB\s.png",320,240 F,0,107730,109109,0,1 M,0,107730,124281,290,269,290,187 S,0,107730,124281,0.2,0.1
Sprite,Foreground,Centre,"SB\s.png",320,240 F,0,107730,109109,0,1 F,0,107730,109109,0,1 M,0,107730,124281,398,317,398,231 S,0,107730,124281,0.2,0.1
Sprite,Foreground,Centre,"SB\snow.png",320,240 F,0,113592,114971,0,1 M,0,113592,124281,200,332,187,240 S,0,124281,,0.928
Sprite,Foreground,Centre,"SB\snow.png",320,240 F,0,118764,120143,0,1 M,0,118764,124281,149,485,149,396 P,0,118764,124281,H
Sprite,Foreground,Centre,"SB\sg-l.png",320,240 F,0,80143,80488,1 M,0,80143,80833,291,274,269,261 R,0,80143,80833,0,0.64 S,0,80143,85661,0.5120004,0.5920005 M,0,80833,85661,269,261,274,285 R,0,80833,85661,0.64,0.3 M,0,85661,87040,274,285,283,288 R,0,85661,87040,0.3,0 S,0,85661,102212,0.5920005,0.9839198 M,0,87040,89799,283,288,276,276 R,0,87040,89799,0,0.08 M,0,89799,92557,276,276,275,274 R,0,89799,92557,0.08,0 M,0,92557,95316,275,274,269,262 R,0,92557,95316,0,0.08 M,0,95316,98075,269,262,269,258 R,0,95316,98075,0.08,0 M,0,98075,100833,269,258,260,250 R,0,98075,100833,0,0.08 M,0,100833,102212,260,250,260,247 R,0,100833,103592,0.08,0 M,0,102212,103592,260,247,264,253 S,0,102212,124281,0.9839198,0.5198122 M,0,103592,106350,264,253,263,258 R,0,103592,106350,0,0.08 M,0,106350,109109,263,258,272,269 R,0,106350,109109,0.08,0 M,0,109109,111868,272,269,271,274 R,0,109109,111868,0,0.08 M,0,111868,114626,271,274,279,286 R,0,111868,114626,0.08,0 M,0,114626,117385,279,286,278,291 R,0,114626,117385,0,0.08 M,0,117385,120143,278,291,286,301 R,0,117385,120143,0.08,0 M,0,120143,122902,286,301,287,305 R,0,120143,122902,0,0.08 M,0,122902,124281,287,305,289,313 R,0,122902,124281,0.08,0.0400145
Sprite,Foreground,Centre,"SB\sg-r.png",320,240 F,0,80143,80488,1 M,0,80143,80833,350,272,363,257 R,0,80143,80833,0,-0.4 S,0,80143,85661,0.4959996,0.6399999 M,0,80833,85661,363,257,363,283 R,0,80833,85661,-0.4,-0.15 M,0,85661,87040,363,283,359,287 R,0,85661,87040,-0.15,0 S,0,85661,102212,0.6399999,0.9840001 M,0,87040,89454,359,287,352,283 R,0,87040,89454,0,0.18 M,0,89454,91868,352,283,366,273 R,0,89454,91868,0.18,0 M,0,91868,94281,366,273,359,268 R,0,91868,94281,0,0.18 M,0,94281,96695,359,268,373,255 R,0,94281,96695,0.18,0 M,0,96695,98764,373,255,361,255 R,0,96695,98764,0,0.18 M,0,98764,101178,361,255,381,244 R,0,98764,101178,0.18,0 M,0,101178,102212,381,244,377,246 R,0,101178,103592,0,0.18 M,0,102212,103592,377,246,366,250 S,0,102212,124281,0.9840001,0.5199999 M,0,103592,106006,366,250,375,250 R,0,103592,106006,0.18,0 M,0,106006,108419,375,250,362,266 R,0,106006,108419,0,0.18 M,0,108419,110833,362,266,370,269 R,0,108419,110833,0.18,0 M,0,110833,113247,370,269,358,281 R,0,110833,113247,0,0.18 M,0,113247,115661,358,281,362,284 R,0,113247,115661,0.18,0 M,0,115661,118075,362,284,351,295 R,0,115661,118075,0,0.18 M,0,118075,120488,351,295,354,296 R,0,118075,120488,0.18,0 M,0,120488,122902,354,296,345,307 R,0,120488,122902,0,0.18 M,0,122902,124281,345,307,347,311 R,0,122902,124281,0.18,0.07717482
Sprite,Foreground,Centre,"SB\sg.png",320,240 F,0,80143,80488,1 M,0,80143,85661,307,271,304,291 S,0,80143,102212,0.5,1 M,0,85661,102212,304,291,296,245 M,0,102212,124281,296,245,308,312 S,0,102212,124281,1,0.5
Sprite,Foreground,Centre,"SB\sgw.png",320,240 M,0,79799,,323,273 F,0,79799,80143,0,1 F,0,80143,80488,1,0 S,0,80143,80488,0.2000002,0.2439999
Sprite,Foreground,Centre,"SB\fe.png",320,240 M,0,80143,80833,320,261,337,315 F,0,80143,80833,1,0 S,0,80143,80833,0.15,0.3 R,0,80143,80833,0,2.773333
Sprite,Foreground,Centre,"SB\fe.png",320,240 M,0,80143,80833,325,252,362,288 F,0,80143,80833,1,0 S,0,80143,80833,0.15,0.3 R,0,80143,80833,-1.632,-4.085333
Sprite,Foreground,Centre,"SB\fe.png",320,240 M,0,80143,80833,320,253,357,213 F,0,80143,80833,1,0 S,0,80143,80833,0.15,0.3 R,0,80143,80833,2.8,4.837334 P,0,80143,80833,V
Sprite,Foreground,Centre,"SB\fe.png",320,240 M,0,80143,80833,320,240,362,248 F,0,80143,80833,1,0 S,0,80143,80833,0.15,0.3 R,0,80143,80833,0,2.837333
Sprite,Foreground,Centre,"SB\fe.png",320,240 M,0,80143,80833,320,265,330,255 F,0,80143,80833,1,0 S,0,80143,80833,0.15,0.3 R,0,80143,80833,-3.408,-0.7626663
Sprite,Foreground,Centre,"SB\fe.png",320,240 M,0,80143,80833,318,273,267,299 F,0,80143,80833,1,0 S,0,80143,80833,0.15,0.3 R,0,80143,80833,0,-3.114667 P,0,80143,80833,H
Sprite,Foreground,Centre,"SB\fe.png",320,240 M,0,80143,80833,319,263,303,325 F,0,80143,80833,1,0 S,0,80143,80833,0.15,0.3 R,0,80143,80833,-0.96,-3.157334 P,0,80143,80833,H
Sprite,Foreground,Centre,"SB\fe.png",320,240 M,0,80143,80833,320,240,262,272 F,0,80143,80833,1,0 S,0,80143,80833,0.15,0.3 R,0,80143,80833,-2.928,-5.498667 P,0,80143,80833,H
Sprite,Foreground,Centre,"SB\fe.png",320,240 M,0,80143,80833,320,240,274,240 F,0,80143,80833,1,0 S,0,80143,80833,0.15,0.3 R,0,80143,80833,0,2.901334 P,0,80143,80833,V
Sprite,Foreground,Centre,"SB\fe.png",320,240 M,0,80143,80833,320,242,300,206 F,0,80143,80833,1,0 S,0,80143,80833,0.15,0.3 R,0,80143,80833,0.9280002,-2.165333 P,0,80143,80833,V
Sprite,Foreground,Centre,"SB\g.png",320,240 M,0,80143,,320,269 F,0,80143,80316,0,1 S,1,80143,81006,0.1,2.804 F,0,80316,80833,1 F,0,80833,81006,1,0
Sprite,Foreground,Centre,"SB\l.png",320,240 M,0,79281,80316,320,271 S,0,79281,80316,1.008,0.1
Sprite,Foreground,Centre,"SB\white.png",320,240 F,0,77385,79109,0,1 F,0,79109,79281,1 F,0,79281,80833,1,0
Sprite,Foreground,Centre,"SB\g.png",320,240 M,0,102212,,320,189 F,0,102212,103075,1,0 S,1,102212,103075,0.1,2.019999
Sprite,Foreground,Centre,"SB\s.png",320,240 F,0,107730,109109,0,1 M,0,107730,124281,481,387,483,256 S,0,107730,124281,0.3,0.15
Sprite,Foreground,Centre,"SB\s.png",320,240 F,0,107730,109109,0,1 M,0,107730,124281,129,328,129,221 S,0,107730,124281,0.3,0.15
Sprite,Foreground,Centre,"SB\s.png",320,240 F,0,107730,109109,0,1 M,0,107730,124281,429,425,429,198 S,0,107730,124281,0.4,0.2
Sprite,Foreground,Centre,"SB\s.png",320,240 F,0,107730,109109,0,1 M,0,107730,124281,80,452,80,252 S,0,107730,124281,0.4,0.2
Sprite,Foreground,Centre,"SB\s.png",320,240 F,0,107730,109109,0,1 M,0,107730,124281,582,448,582,291 S,0,107730,124281,0.4,0.2
Sprite,Foreground,Centre,"SB\s.png",320,240 F,0,107730,109109,0,1 M,0,107730,124281,509,305,509,219 S,0,107730,124281,0.2,0.1
Sprite,Foreground,Centre,"SB\s.png",320,240 F,0,107730,109109,0,1 M,0,107730,124281,201,374,201,268 S,0,107730,124281,0.3,0.15
Sprite,Foreground,Centre,"SB\s.png",320,240 F,0,107730,109109,0,1 M,0,107730,124281,325,474,325,219 S,0,107730,124281,0.4,0.2
Sprite,Foreground,Centre,"SB\s.png",320,240 F,0,107730,109109,0,1 M,0,107730,124281,188,290,221,235 S,0,107730,124281,0.2,0.1
Sprite,Foreground,Centre,"SB\snow.png",320,240 F,0,113592,114971,0,1 M,0,113592,124281,440,328,440,285
Sprite,Foreground,Centre,"SB\snow.png",320,240 F,0,118075,119454,0,1 M,0,118075,124281,404,516,404,375 P,0,118075,124281,H P,0,118075,124281,V
Sprite,Foreground,Centre,"SB\light.png",320,240 M,0,117730,119454,317,-54,317,218 F,0,117730,119454,0,1 V,0,117730,119454,1,1,1.752,1 M,0,119454,124281,317,218,317,238
Sprite,Foreground,Centre,"SB\bg01.jpg",320,240 M,0,129799,146442,320,240
Sprite,Foreground,Centre,"SB\bg02.jpg",320,240 M,0,124281,,320,240 F,0,129799,130488,1,0 S,0,129799,130488,1,1.05
Sprite,Foreground,Centre,"SB\white.png",320,240 F,0,123937,124281,0,1 F,0,124281,124971,1,0
//Storyboard Sound Samples
//Background Colour Transformations
3,100,163,162,255

[TimingPoints]
156,689.655172413793,4,2,1,50,1,0
80155,-100,4,2,1,50,0,1
102052,-100,4,2,1,70,0,0
102224,-100,4,2,1,70,0,1
124293,-100,4,2,1,50,0,0

[Colours]
Combo1 : 0,242,103
Combo2 : 3,214,231
Combo3 : 252,124,134
Combo4 : 253,141,94
SliderBorder : 70,70,70

[HitObjects]
160,64,156,1,2
256,28,845,2,0,B|328:24|352:88,1,120.000000596046,2|0
364,132,1880,1,0
360,180,2224,1,2
276,136,2914,5,2
208,204,3604,2,0,B|172:260|212:316,1,120.000000596046,2|0
240,352,4638,1,0
288,364,4983,1,2
292,260,5673,5,0
232,184,6362,2,0,B|248:160|284:160|284:160|304:132|284:104,1,120.000000596046,2|0
248,72,7397,1,0
200,68,7742,1,2
104,88,8431,6,0,B|84:116|128:176|112:204,1,120.000000596046,0|2
72,272,9466,1,0
256,192,9811,12,4,11190
392,220,11880,6,0,B|424:220|444:248,1,60.000000298023,8|0
384,300,12569,2,0,B|400:332|376:356,2,60.000000298023,0|0|8
256,208,13949,6,0,B|228:192|200:208,1,60.000000298023,0|0
228,280,14638,2,0,B|256:296|288:280,1,60.000000298023,8|0
316,208,15328,2,0,B|288:192|256:208,2,60.000000298023,0|0|8
176,140,16707,6,0,B|160:112|176:80,1,60.000000298023,4|0
100,48,17397,2,0,B|88:80|52:80,1,60.000000298023,8|0
60,160,18087,2,0,B|92:160|108:188,2,60.000000298023,0|0|8
44,236,19121,1,0
60,312,19466,6,0,B|92:312|108:284,1,60.000000298023
188,284,20155,2,0,B|204:313|236:313,1,60.000000298023,8|0
248,236,20845,1,0
256,192,21018,12,4,22224
316,72,22914,6,0,B|300:104|324:128,1,60.000000298023,8|0
340,204,23604,2,0,B|376:196|388:168,1,60.000000298023,0|0
392,92,24293,1,8
496,208,24983,6,0,B|504:240|484:264,2,60.000000298023,0|0|8
460,136,26018,1,0
392,92,26362,2,0,B|360:80|332:88,2,60.000000298023,0|0|8
344,228,27742,6,0,B|344:268|308:276,1,60.000000298023,4|0
260,340,28431,2,0,B|231:326|230:290,1,60.000000298023,8|0
256,212,29121,2,0,B|228:196|200:212,2,60.000000298023,0|0|8
132,292,30500,6,0,B|108:316|76:308,1,60.000000298023
84,232,31190,2,0,B|104:204|144:216,1,60.000000298023,8|0
204,260,31880,1,0
256,192,32052,12,0,33259
256,84,33604,6,0,B|292:80|308:108,1,60.000000298023,2|0
340,180,34293,2,0,B|312:196|280:180,1,60.000000298023
208,152,34983,2,0,B|176:152|148:224|116:224,1,120.000000596046
48,264,36018,1,2
116,304,36362,2,0,B|156:304|164:332|164:332|192:320|224:320,1,120.000000596046
260,312,37224,2,0,B|292:296|284:264|284:264|316:256|352:264|372:280,1,150.000000745058
440,312,38431,1,0
504,264,38776,6,0,B|516:232|500:200,1,60.000000298023,2|0
464,136,39466,2,0,B|432:148|428:180,1,60.000000298023
384,244,40156,1,2
312,212,40500,1,0
316,136,40845,1,0
388,108,41190,1,0
444,52,41535,6,0,B|424:20|368:0|312:8|280:44,1,180.000000894069,2|0
256,192,42914,12,2,44293
204,92,44983,6,0,B|224:120|204:148,1,60.000000298023,0|0
188,224,45673,2,0,B|156:224|128:192|124:160|124:160|92:160,1,120.000000596046,2|0
72,84,46707,2,0,B|36:84|24:120,1,60.000000298023,0|2
20,192,47397,2,0,B|40:220|24:252,1,60.000000298023,0|0
4,324,48087,2,0,B|24:344|104:308|120:328,1,120.000000596046
196,304,49121,1,2
244,240,49466,1,0
324,240,49811,6,0,B|356:248|384:236,1,60.000000298023,2|0
444,188,50500,2,0,B|428:164|392:160,1,60.000000298023
320,132,51190,2,0,B|284:128|272:96,1,60.000000298023,0|0
228,36,51880,2,0,B|196:32|172:56,1,60.000000298023
168,132,52569,6,0,B|140:152|112:132|112:132|88:152|56:132,1,120.000000596046,2|0
16,64,53604,1,0
256,192,53776,12,0,54983
224,280,55328,6,0,B|260:280|276:252,1,60.000000298023,6|0
332,200,56018,2,0,B|312:176|268:176,1,60.000000298023,2|0
228,116,56707,2,0,B|200:124|180:148,2,60.000000298023,0|0|2
300,84,57742,1,0
376,64,58087,6,0,B|412:60|424:28,1,60.000000298023,0|0
484,80,58776,2,0,B|480:116|504:132,1,60.000000298023,2|0
452,192,59466,2,0,B|480:212|476:244,2,60.000000298023,0|0|2
392,144,60500,1,0
316,164,60845,6,0,B|284:168|264:192,1,60.000000298023,0|0
324,240,61535,2,0,B|352:260|344:296,1,60.000000298023,2|0
268,296,62224,2,0,B|240:276|180:312|148:296,1,120.000000596046,0|2
76,280,63259,1,0
28,220,63604,6,0,B|20:188|108:164|100:128,1,120.000000596046,2|2
92,52,64638,1,0
168,68,64983,2,0,B|200:80|224:60,1,60.000000298023
304,60,65673,2,0,B|328:80|360:68,1,60.000000298023,2|0
436,80,66362,6,0,B|472:92|468:128,2,60.000000298023,0|0|2
388,140,67397,1,0
364,216,67742,2,0,B|348:248|376:272,2,60.000000298023,0|0|2
440,228,68776,1,0
484,292,69121,6,0,B|484:328|448:340,1,60.000000298023,0|0
376,340,69811,2,0,B|356:312|320:320,1,60.000000298023,2|0
248,340,70500,2,0,B|216:336|196:308|192:272|212:248,1,120.000000596046,0|2
256,180,71535,1,0
316,128,71880,6,0,B|356:104|404:112,2,90.0000004470345,2|0|0
256,76,73259,2,0,B|216:52|172:60|172:60|164:92,1,120.000000596046
212,156,74293,1,0
136,164,74638,6,0,B|88:168|52:136,2,90.0000004470345,2|0|0
176,232,76018,2,0,B|200:272|200:272|236:260|272:272,1,120.000000596046
340,236,77052,1,0
364,160,77397,1,2
256,192,77569,12,0,78776
316,216,79466,6,0,B|292:192|308:160,1,60.000000298023
320,84,80156,6,0,B|356:84|388:144|424:144,1,120.000000596046,6|10
436,68,81190,1,0
496,120,81535,2,0,B|516:148|492:176,1,60.000000298023,0|0
496,252,82224,2,0,B|460:276|404:240|380:260,1,120.000000596046,8|2
308,232,83259,5,0
308,232,83431,2,0,B|288:204|252:208,1,60.000000298023,2|0
252,284,84121,2,0,B|232:312|164:268|136:288,1,120.000000596046,2|0
104,308,84983,2,0,B|76:332|48:312,1,60.000000298023,8|0
72,236,85673,5,6
108,168,86018,1,0
172,124,86362,1,8
244,96,86707,1,0
320,84,87052,2,0,B|352:84|376:64|376:64|396:88|428:92,1,120.000000596046,2|8
492,136,88087,1,0
464,208,88431,6,0,B|432:192|420:164,2,60.000000298023,2|0|10
476,284,89466,1,0
404,316,89811,2,0,B|412:344|448:356,2,60.000000298023,2|0|8
372,244,90845,1,0
332,176,91190,6,0,B|308:152|240:172|216:148,1,120.000000596046,6|8
164,92,92224,1,0
88,112,92569,2,0,B|64:136|104:204|84:228,1,120.000000596046,2|8
68,264,93431,2,0,B|68:300|104:316,1,60.000000298023
136,308,93949,6,0,B|152:279|187:284,1,60.000000298023,2|0
224,276,94466,2,0,B|256:260|253:226,1,60.000000298023
180,208,95156,2,0,B|164:176,1,30.0000001490115,0|10
212,116,95673,1,0
288,96,96018,1,8
348,148,96362,6,0,B|380:140|384:104,2,60.000000298023,0|4|0
316,220,97397,1,8
304,296,97742,2,0,B|300:332|328:352,2,60.000000298023,0|2|0
384,296,98776,1,8
432,236,99121,2,0,B|456:212|448:180,1,60.000000298023,0|0
256,192,99638,12,8,101535
408,200,101880,5,0
388,276,102224,2,0,B|384:308|336:348|300:348,1,120.000000596046,4|8
224,352,103259,1,0
156,316,103604,2,0,B|136:296|144:228|120:200,1,120.000000596046,2|8
60,152,104638,1,0
88,80,104983,6,0,B|120:88|144:60,1,60.000000298023,2|0
216,36,105673,2,0,B|224:68|260:76,1,60.000000298023,10|0
316,128,106362,2,0,B|288:144|288:180,1,60.000000298023,2|0
296,256,107052,1,8
344,320,107397,1,0
420,328,107742,6,0,B|444:304|392:236|420:212,1,120.000000596046,4|8
468,156,108776,1,0
488,80,109121,2,0,B|464:56|396:100|368:72,1,120.000000596046,2|8
300,44,110156,1,0
220,44,110500,6,0,B|184:36|164:40|136:60,2,90.0000004470345,2|0|2
264,108,111880,2,0,B|252:140|264:168|288:188,2,90.0000004470345,2|0|2
340,128,113259,6,0,B|364:140|380:180|368:220|352:236,1,120.000000596046,4|8
292,284,114293,1,0
216,276,114638,2,0,B|192:280|192:280|208:336|148:352,1,120.000000596046,2|8
72,340,115673,1,0
28,276,116018,6,0,B|16:244|36:216,1,60.000000298023,2|0
104,256,116707,2,0,B|124:228|108:192,1,60.000000298023,10|0
68,132,117397,2,0,B|88:104|156:128|180:100,1,120.000000596046,2|8
248,52,118431,1,0
272,136,118776,38,0,B|316:104|360:136|356:200|324:252|256:272|256:272|188:252|156:208|152:136|196:104|244:136,1,480.000002384184,4|2
256,192,121707,12,4,124293
