osu file format v11

[General]
AudioFilename: 05. Winter Alice.mp3
AudioLeadIn: 0
PreviewTime: 135440
Countdown: 1
SampleSet: Soft
StackLeniency: 0.7
Mode: 0
LetterboxInBreaks: 1

[Editor]
DistanceSpacing: 1.3
BeatDivisor: 4
GridSize: 8

[Metadata]
Title:Winter Alice
TitleUnicode:Winter Alice
Artist:doriko
ArtistUnicode:doriko
Creator:xxhckxyz
Version:Insane
Source:Vocaloid
Tags:hatsune miku
BeatmapID:210848
BeatmapSetID:74166

[Difficulty]
HPDrainRate:6
CircleSize:5
OverallDifficulty:6
ApproachRate:7
SliderMultiplier:1.4
SliderTickRate:1

[Events]
//Background and Video events
0,0,"miku.jpg"
//Break Periods
2,105811,119256
2,165811,192893
//Storyboard Layer 0 (Background)
//Storyboard Layer 1 (Fail)
//Storyboard Layer 2 (Pass)
//Storyboard Layer 3 (Foreground)
//Storyboard Sound Samples
//Background Colour Transformations
3,100,163,162,255

[TimingPoints]
1066,454.545454545455,4,2,0,60,1,0
59180,-66.6666666666667,4,2,0,60,0,0
76520,-100,4,2,0,70,0,1
105555,-100,4,2,0,60,0,0
136464,-100,4,2,0,70,0,1
165555,-100,4,2,0,60,0,0
209191,-100,4,2,0,70,0,1
223737,-100,4,2,0,60,0,0

[Colours]
Combo1 : 255,150,0
Combo2 : 5,240,5
Combo3 : 5,5,240
Combo4 : 240,5,5

[HitObjects]
100,85,1066,2,0,P|175:85,1,70
217,91,1406,1,0,0:0:0
264,104,1520,1,0,0:0:0
189,158,1747,2,0,P|128:240,1,70
189,158,2202,1,0,0:0:0
264,104,2429,2,0,P|328:48|328:64|336:80,1,70
320,64,2884,2,0,P|280:120|352:120|424:152|424:168,1,140
416,240,3566,1,0,0:0:0
329,214,3793,2,0,P|344:143,1,70
398,71,4247,1,0,0:0:0
305,65,4475,1,0,0:0:0
214,59,4702,1,0,0:0:0
221,152,4929,2,0,P|221:192|253:208|253:208|293:224|237:288|237:288,1,140
250,270,5611,6,0,P|322:294,1,70
317,292,6066,2,0,P|397:260,2,70
381,268,6747,1,0,0:0:0
381,268,6975,2,0,P|365:196,1,70
367,200,7429,6,0,P|336:136|296:256|288:208|280:160|280:160|280:160|272:160,1,140
277,160,8111,1,0,0:0:0
189,182,8338,1,0,0:0:0
306,325,8793,1,8,0:0:0
425,187,9247,6,0,P|345:187,1,70
356,187,9588,1,0,0:0:0
352,96,9702,1,8,0:0:0
341,268,9929,1,0,0:0:0
341,268,10156,2,0,P|261:308|232:264,1,140,0|8,0:0|0:0,0:0:0
152,247,10838,1,0,0:0:0
240,223,11066,6,0,P|80:264,1,140,0|8,0:0|0:0,0:0:0
216,120,11975,1,0,0:0:0
400,128,12429,1,8,0:0:0
403,313,12884,1,0,0:0:0
378,224,13111,2,0,P|330:224,2,35,0|0|8,0:0|0:0|0:0,0:0:0
343,311,13566,1,0,0:0:0
266,261,13793,2,0,P|192:224,1,70
203,229,14134,1,0,0:0:0
203,229,14247,1,8,0:0:0
124,185,14475,1,0,0:0:0
256,192,14702,12,8,16066,0:0:0
104,88,16520,6,0,P|144:56|176:64,1,70
246,94,16975,1,0,0:0:0
344,304,17316,1,0,0:0:0
344,304,17543,1,0,0:0:0
344,304,17656,2,0,P|400:304|424:280,1,70
454,216,18111,1,0,0:0:0
368,175,18338,5,0,0:0:0
305,110,18566,1,0,0:0:0
235,170,18793,1,0,0:0:0
281,249,19020,1,0,0:0:0
352,312,19247,2,0,P|424:296|416:232,1,140
363,169,19929,1,0,0:0:0
274,140,20156,2,0,P|186:156|162:212,1,140
189,286,20838,1,0,0:0:0
272,232,21066,2,0,P|360:240|354:180,1,140
390,120,21747,1,0,0:0:0
306,81,21975,2,0,P|205:65|173:113,1,140
185,84,22656,5,4,0:0:0
148,113,22770,1,0,0:0:0
117,147,22884,2,0,P|133:195|213:187,1,140
256,200,23452,1,0,0:0:0
300,212,23566,1,0,0:0:0
346,218,23679,1,0,0:0:0
347,218,23793,2,0,P|443:194|435:170,1,140
427,102,24475,1,0,0:0:0
346,53,24702,6,0,P|250:45|202:77,1,140
128,96,25384,1,0,0:0:0
175,176,25611,2,0,P|111:224|55:176,1,140
41,112,26293,1,0,0:0:0
116,58,26520,6,0,P|188:50,1,70
256,111,26975,1,0,0:0:0
347,90,27202,1,0,0:0:0
353,183,27429,2,0,P|353:255|281:287,1,140
132,160,28111,1,0,0:0:0
40,168,28338,6,0,P|8:232|64:264,1,140
143,289,29020,1,0,0:0:0
236,281,29247,2,0,P|308:241,1,70
372,192,29702,1,0,0:0:0
371,100,29929,2,0,P|339:36|267:44,1,140
248,72,30497,1,0,0:0:0
214,105,30611,1,0,0:0:0
185,142,30725,1,0,0:0:0
172,187,30838,1,0,0:0:0
181,317,31066,1,4,0:0:0
181,317,31520,5,0,0:0:0
90,317,31747,2,0,P|114:269|152:256,1,70
127,262,32202,2,0,P|105:267|103:142,1,210
90,145,33111,1,0,0:0:0
90,145,33225,1,0,0:0:0
90,145,33338,1,0,0:0:0
264,72,33793,5,0,0:0:0
360,72,34020,1,0,0:0:0
445,109,34247,1,0,0:0:0
390,288,34702,6,0,P|318:288,2,70
320,288,35384,2,0,P|232:288,2,70
248,288,35952,1,0,0:0:0
248,288,36065,2,0,P|102:288,2,140
285,203,37202,2,0,P|205:171,3,70
192,88,38111,6,0,P|272:56,1,70
256,62,38565,1,0,0:0:0
256,64,38793,2,0,P|336:104,1,70
256,64,39247,2,0,P|304:144,1,70
379,154,39702,2,0,P|327:215,3,70
333,208,40611,2,0,P|391:272|359:280|343:328|247:344|200:240,1,280
199,239,41634,1,0,0:0:0
199,239,41747,1,0,0:0:0
128,72,41975,2,0,P|40:48,1,70
76,145,42429,6,0,P|172:145,1,70
144,237,42884,1,0,0:0:0
216,181,43111,2,0,P|296:181,1,70
370,144,43565,2,0,P|362:104,6,35
256,192,44475,12,8,45611,0:0:0
256,192,46065,5,0,0:0:0
256,192,46293,2,0,P|256:120,2,70
317,122,46975,1,0,0:0:0
384,60,47202,2,0,P|184:-36|304:52|336:116,1,210
230,104,48111,6,0,P|318:128,1,70
217,168,48565,1,0,0:0:0
125,167,48793,1,0,0:0:0
184,96,49020,2,0,P|192:8,2,70
264,144,49702,6,0,P|168:136,2,70
173,173,50384,1,0,0:0:0
115,244,50611,2,0,P|179:276,1,70,0|0,0:0|0:0,0:0:0
177,275,50952,5,0,0:0:0
179,276,51065,1,0,0:0:0
272,264,51293,2,0,P|272:168,2,70
88,56,51975,1,0,0:0:0
88,56,52088,1,0,0:0:0
88,56,52202,2,0,P|104:104|200:112,1,140
219,35,52884,5,0,0:0:0
400,64,53338,6,0,P|464:168|456:176,1,140
474,152,54020,2,0,P|382:101|398:61,1,140
291,88,54702,1,0,0:0:0
384,90,54929,1,0,0:0:0
384,90,55156,2,0,P|176:210,1,210
234,283,56065,5,0,0:0:0
328,272,56293,1,0,0:0:0
421,284,56520,2,0,P|421:212,1,70
422,215,56975,1,0,0:0:0
422,214,57202,2,0,P|422:134,1,70
421,144,57656,2,0,P|349:120,1,70
354,121,58111,2,0,P|277:120,1,70
284,121,58452,1,0,0:0:0
284,121,58565,1,0,0:0:0
285,119,58793,2,0,P|312:48,1,70
216,152,59247,6,0,P|96:80|200:72,1,315.000012016297
164,53,60156,5,0,0:0:0
164,54,60270,1,0,0:0:0
164,55,60384,1,0,0:0:0
254,36,60611,2,0,P|212:97,1,70,8|0,0:0|0:0,0:0:0
304,112,61065,1,0,0:0:0
304,112,61293,1,0,0:0:0
304,112,61520,2,0,P|400:128,1,70,8|0,0:0|0:0,0:0:0
373,123,61975,6,0,P|464:144,1,70
441,138,62429,2,0,P|520:152,1,70,8|0,0:0|0:0,0:0:0
510,150,62884,2,0,P|504:232,2,70,0|0|8,0:0|0:0|0:0,0:0:0
512,152,63452,5,0,0:0:0
512,152,63565,1,0,0:0:0
456,228,63793,2,0,P|456:276|456:276|432:276|432:276|432:316|432:316|392:316|392:316,1,140,0|8,0:0|0:0,0:0:0
392,224,64475,1,0,0:0:0
392,224,64702,2,0,P|296:232,1,70
180,318,65156,1,8,0:0:0
40,248,65384,2,0,P|-24:192|80:176|-16:112|56:56,1,210,0|8,0:0|0:0,0:0:0
56,55,66293,6,0,P|144:64,3,70,0|0|0|8,0:0|0:0|0:0|0:0,0:0:0
202,115,67202,1,0,0:0:0
288,80,67429,6,0,P|368:88,1,70
357,86,67884,1,8,0:0:0
357,86,67997,1,0,0:0:0
357,86,68111,2,0,P|440:184|432:104|432:56,1,140
432,75,68793,1,8,0:0:0
432,75,69020,1,0,0:0:0
432,80,69247,2,0,P|360:232,1,140,0|8,0:0|0:0,0:0:0
372,206,69929,5,0,0:0:0
372,206,70156,1,0,0:0:0
104,192,70384,2,0,P|48:264,2,70,0|8|0,0:0|0:0|0:0,0:0:0
104,192,70952,5,0,0:0:0
104,192,71065,1,0,0:0:0
202,59,71520,2,0,P|282:35,1,70,8|0,0:0|0:0,0:0:0
338,87,71975,1,0,0:0:0
356,168,72202,2,0,P|204:168,1,140,4|0,0:0|0:0,0:0:0
223,251,72884,1,0,0:0:0
141,251,73111,1,0,0:0:0
141,251,73338,2,0,P|149:155,1,70,8|0,0:0|0:0,0:0:0
146,181,73679,1,0,0:0:0
146,181,73793,1,4,0:0:0
256,192,74020,12,8,75384,0:0:0
256,192,75611,12,8,76520,0:0:0
50,88,77429,6,0,P|146:88,1,70
120,296,77884,1,8,0:0:0
208,296,78111,5,0,0:0:0
208,88,78338,2,0,P|288:88,1,70
278,88,78679,1,0,0:0:0
278,87,78793,1,8,0:0:0
376,296,79020,2,0,P|352:144,1,140
265,142,79702,6,0,P|185:126,1,70,8|0,0:0|0:0,0:0:0
104,136,80156,2,0,P|104:280,1,140,0|8,0:0|0:0,0:0:0
288,272,81065,2,0,P|432:248,1,140,0|8,0:0|0:0,0:0:0
336,88,81975,2,0,P|264:88,3,70,0|0|8|0,0:0|0:0|0:0|0:0,0:0:0
184,128,82884,1,0,0:0:0
272,160,83111,2,0,P|352:160,2,70,0|8|0,0:0|0:0|0:0,0:0:0
208,224,83793,2,0,P|216:296,2,70,0|0|8,0:0|0:0|0:0,0:0:0
280,280,84475,5,0,0:0:0
280,280,84702,2,0,P|360:280,1,70
352,280,85156,2,0,P|432:280,1,70,8|0,0:0|0:0,0:0:0
422,280,85611,2,0,P|504:272|432:240|512:224|496:232,1,70
474,243,86066,2,0,P|403:221|483:189|450:171,1,70,8|0,0:0|0:0,0:0:0
448,160,86520,1,0,0:0:0
440,136,86747,2,0,P|376:192|456:80|440:24|384:96,1,140,4|0,0:0|0:0,0:0:0
400,80,87429,2,0,P|312:88,3,70,0|0|8|0,0:0|0:0|0:0|0:0,0:0:0
330,86,88338,2,0,P|240:88,1,70
260,87,88793,5,8,0:0:0
200,160,89020,2,0,P|248:240,1,70
256,192,89929,12,8,91066,0:0:0
32,88,91520,6,0,P|112:88,1,70
104,296,91975,6,0,P|176:296,1,70
174,297,92430,1,8,0:0:0
174,296,92657,5,0,0:0:0
208,88,92884,1,0,0:0:0
288,88,93111,5,0,0:0:0
288,296,93339,1,8,0:0:0
376,296,93566,2,0,P|352:144,1,140
265,142,94247,6,0,P|185:126,1,70,8|0,0:0|0:0,0:0:0
104,136,94702,2,0,P|104:280,1,140,0|8,0:0|0:0,0:0:0
288,272,95611,2,0,P|432:248,1,140,0|8,0:0|0:0,0:0:0
392,136,96293,1,0,0:0:0
304,168,96520,2,0,P|208:168,1,70
141,164,96975,2,0,P|141:244,1,70,8|0,0:0|0:0,0:0:0
228,204,97429,1,4,0:0:0
239,135,97656,1,0,0:0:0
239,135,97884,2,0,P|239:183|215:215,1,70,0|0,0:0|0:0,0:0:0
104,280,98338,1,0,0:0:0
200,183,98679,5,0,0:0:0
200,319,99020,1,0,0:0:0
264,254,99247,1,0,0:0:0
329,319,99475,1,0,0:0:0
350,278,99588,1,0,0:0:0
365,234,99702,2,0,P|445:234,1,70,8|0,0:0|0:0,0:0:0
369,168,100156,2,0,P|451:160|379:128|459:112|443:120,1,70
329,131,100611,2,0,P|258:109|338:77|305:59,1,70,8|0,0:0|0:0,0:0:0
217,80,101066,2,0,P|153:136|233:24|217:-32|161:40,1,140,4|8,0:0|0:0,0:0:0
111,87,101747,1,0,0:0:0
111,179,101975,2,0,P|199:179,3,70,8|0|8|0,0:0|0:0|0:0|0:0,0:0:0
181,179,102884,2,0,P|261:195,1,70,0|0,0:0|0:0,0:0:0
249,238,103225,5,0,0:0:0
249,283,103338,1,8,0:0:0
294,283,103452,1,0,0:0:0
339,283,103566,1,0,0:0:0
339,192,103793,1,0,0:0:0
274,127,104020,1,0,0:0:0
338,62,104247,1,8,0:0:0
273,0,104475,1,0,0:0:0
208,62,104702,1,0,0:0:0
274,127,104929,1,0,0:0:0
338,62,105156,1,8,0:0:0
273,0,105384,1,0,0:0:0
80,128,105611,1,4,0:0:0
164,331,120156,5,0,0:0:0
164,330,120270,1,0,0:0:0
164,329,120384,1,0,0:0:0
254,348,120611,2,0,P|212:287,1,70,8|0,0:0|0:0,0:0:0
304,272,121065,1,0,0:0:0
304,272,121293,1,0,0:0:0
304,272,121520,2,0,P|400:256,1,70,8|0,0:0|0:0,0:0:0
373,261,121975,6,0,P|464:240,1,70
441,246,122429,2,0,P|520:232,1,70,8|0,0:0|0:0,0:0:0
510,234,122884,2,0,P|504:152,2,70,0|0|8,0:0|0:0|0:0,0:0:0
512,232,123452,5,0,0:0:0
512,232,123565,1,0,0:0:0
456,156,123793,2,0,P|456:108|456:108|432:108|432:108|432:68|432:68|392:68|392:68,1,140,0|8,0:0|0:0,0:0:0
392,160,124475,1,0,0:0:0
392,160,124702,2,0,P|296:152,1,70
180,66,125156,1,8,0:0:0
40,136,125384,2,0,P|-24:192|80:208|-16:272|56:328,1,210,0|8,0:0|0:0,0:0:0
56,329,126293,6,0,P|144:320,3,70,0|0|0|8,0:0|0:0|0:0|0:0,0:0:0
202,269,127202,1,0,0:0:0
288,304,127429,6,0,P|368:296,1,70
357,298,127884,1,8,0:0:0
357,298,127997,1,0,0:0:0
357,298,128111,2,0,P|440:200|432:280|432:328,1,140
432,309,128793,1,8,0:0:0
432,309,129020,1,0,0:0:0
432,304,129247,2,0,P|360:152,1,140,0|8,0:0|0:0,0:0:0
372,178,129929,5,0,0:0:0
372,178,130156,1,0,0:0:0
104,192,130384,2,0,P|48:120,2,70,0|8|0,0:0|0:0|0:0,0:0:0
104,192,130952,5,0,0:0:0
104,192,131065,1,0,0:0:0
202,325,131520,2,0,P|282:349,1,70,8|0,0:0|0:0,0:0:0
338,297,131975,1,0,0:0:0
356,216,132202,2,0,P|204:216,1,140,4|0,0:0|0:0,0:0:0
223,133,132884,1,0,0:0:0
141,133,133111,1,0,0:0:0
141,133,133338,2,0,P|149:229,1,70,8|0,0:0|0:0,0:0:0
146,203,133679,1,0,0:0:0
146,203,133793,1,4,0:0:0
256,192,134020,12,8,135384,0:0:0
256,192,135611,12,8,136520,0:0:0
50,296,137429,6,0,P|146:296,1,70
120,88,137884,1,8,0:0:0
208,88,138111,5,0,0:0:0
208,296,138338,2,0,P|288:296,1,70
278,296,138679,1,0,0:0:0
278,297,138793,1,8,0:0:0
376,88,139020,2,0,P|352:240,1,140
265,242,139702,6,0,P|185:258,1,70,8|0,0:0|0:0,0:0:0
104,248,140156,2,0,P|104:104,1,140,0|8,0:0|0:0,0:0:0
288,112,141065,2,0,P|432:136,1,140,0|8,0:0|0:0,0:0:0
336,296,141975,2,0,P|264:296,3,70,0|0|8|0,0:0|0:0|0:0|0:0,0:0:0
184,256,142884,1,0,0:0:0
272,224,143111,2,0,P|352:224,2,70,0|8|0,0:0|0:0|0:0,0:0:0
208,160,143793,2,0,P|216:88,2,70,0|0|8,0:0|0:0|0:0,0:0:0
280,104,144475,5,0,0:0:0
280,104,144702,2,0,P|360:104,1,70
352,104,145156,2,0,P|432:104,1,70,8|0,0:0|0:0,0:0:0
422,104,145611,2,0,P|504:112|432:144|512:160|496:152,1,70
474,141,146066,2,0,P|403:163|483:195|450:213,1,70,8|0,0:0|0:0,0:0:0
448,224,146520,1,0,0:0:0
440,248,146747,2,0,P|376:192|456:304|440:360|384:288,1,140,4|0,0:0|0:0,0:0:0
400,304,147429,2,0,P|312:296,3,70,0|0|8|0,0:0|0:0|0:0|0:0,0:0:0
330,298,148338,2,0,P|240:296,1,70
260,297,148793,5,8,0:0:0
200,224,149020,2,0,P|248:144,1,70
256,192,149929,12,8,151066,0:0:0
32,296,151520,6,0,P|112:296,1,70
104,88,151975,6,0,P|176:88,1,70
174,87,152430,1,8,0:0:0
174,88,152657,5,0,0:0:0
208,296,152884,1,0,0:0:0
288,296,153111,5,0,0:0:0
288,88,153339,1,8,0:0:0
376,88,153566,2,0,P|352:240,1,140
265,242,154247,6,0,P|185:258,1,70,8|0,0:0|0:0,0:0:0
104,248,154702,2,0,P|104:104,1,140,0|8,0:0|0:0,0:0:0
288,112,155611,2,0,P|432:136,1,140,0|8,0:0|0:0,0:0:0
392,248,156293,1,0,0:0:0
304,216,156520,2,0,P|208:216,1,70
141,220,156975,2,0,P|141:140,1,70,8|0,0:0|0:0,0:0:0
228,180,157429,1,4,0:0:0
239,249,157656,1,0,0:0:0
239,249,157884,2,0,P|239:201|215:169,1,70,0|0,0:0|0:0,0:0:0
104,104,158338,1,0,0:0:0
200,201,158679,5,0,0:0:0
200,65,159020,1,0,0:0:0
264,130,159247,1,0,0:0:0
329,65,159475,1,0,0:0:0
350,106,159588,1,0,0:0:0
365,150,159702,2,0,P|445:150,1,70,8|0,0:0|0:0,0:0:0
369,216,160156,2,0,P|451:224|379:256|459:272|443:264,1,70
329,253,160611,2,0,P|258:275|338:307|305:325,1,70,8|0,0:0|0:0,0:0:0
217,304,161066,2,0,P|153:248|233:360|217:416|161:344,1,140,4|8,0:0|0:0,0:0:0
111,297,161747,1,0,0:0:0
111,205,161975,2,0,P|199:205,3,70,8|0|8|0,0:0|0:0|0:0|0:0,0:0:0
181,205,162884,2,0,P|261:189,1,70,0|0,0:0|0:0,0:0:0
249,146,163225,5,0,0:0:0
249,101,163338,1,8,0:0:0
294,101,163452,1,0,0:0:0
339,101,163566,1,0,0:0:0
339,192,163793,1,0,0:0:0
274,257,164020,1,0,0:0:0
338,322,164247,1,8,0:0:0
273,386,164475,1,0,0:0:0
208,322,164702,1,0,0:0:0
274,257,164929,1,0,0:0:0
338,322,165156,1,8,0:0:0
273,386,165384,1,0,0:0:0
80,256,165611,1,4,0:0:0
256,192,193793,12,8,194702,0:0:0
462,296,195611,6,0,P|366:296,1,70
392,88,196066,1,8,0:0:0
304,88,196293,5,0,0:0:0
304,296,196520,2,0,P|224:296,1,70
234,296,196861,1,0,0:0:0
234,297,196975,1,8,0:0:0
136,88,197202,2,0,P|160:240,1,140
247,242,197884,6,0,P|327:258,1,70,8|0,0:0|0:0,0:0:0
408,248,198338,2,0,P|408:104,1,140,0|8,0:0|0:0,0:0:0
224,112,199247,2,0,P|80:136,1,140,0|8,0:0|0:0,0:0:0
176,296,200157,2,0,P|248:296,3,70,0|0|8|0,0:0|0:0|0:0|0:0,0:0:0
328,256,201066,1,0,0:0:0
240,224,201293,2,0,P|160:224,2,70,0|8|0,0:0|0:0|0:0,0:0:0
304,160,201975,2,0,P|296:88,2,70,0|0|8,0:0|0:0|0:0,0:0:0
232,104,202657,5,0,0:0:0
232,104,202884,2,0,P|152:104,1,70
160,104,203338,2,0,P|80:104,1,70,8|0,0:0|0:0,0:0:0
90,104,203793,2,0,P|8:112|80:144|0:160|16:152,1,70
38,141,204248,2,0,P|109:163|29:195|62:213,1,70,8|0,0:0|0:0,0:0:0
64,224,204702,1,0,0:0:0
72,248,204929,2,0,P|136:192|56:304|72:360|128:288,1,140,4|0,0:0|0:0,0:0:0
112,304,205611,2,0,P|200:296,3,70,0|0|8|0,0:0|0:0|0:0|0:0,0:0:0
182,298,206520,2,0,P|272:296,1,70
252,297,206975,5,8,0:0:0
312,224,207202,2,0,P|264:144,1,70
256,192,208111,12,8,209248,0:0:0
480,296,209702,6,0,P|400:296,1,70
408,88,210157,6,0,P|336:88,1,70
338,87,210612,1,8,0:0:0
338,88,210839,5,0,0:0:0
304,296,211066,1,0,0:0:0
224,296,211293,5,0,0:0:0
224,88,211521,1,8,0:0:0
136,88,211748,2,0,P|160:240,1,140
247,242,212429,6,0,P|327:258,1,70,8|0,0:0|0:0,0:0:0
408,248,212884,2,0,P|408:104,1,140,0|8,0:0|0:0,0:0:0
224,112,213793,2,0,P|80:136,1,140,0|8,0:0|0:0,0:0:0
120,248,214475,1,0,0:0:0
208,216,214702,2,0,P|304:216,1,70
371,220,215157,2,0,P|371:140,1,70,8|0,0:0|0:0,0:0:0
284,180,215611,1,4,0:0:0
273,249,215838,1,0,0:0:0
273,249,216066,2,0,P|273:201|297:169,1,70,0|0,0:0|0:0,0:0:0
408,104,216520,1,0,0:0:0
312,201,216861,5,0,0:0:0
312,65,217202,1,0,0:0:0
248,130,217429,1,0,0:0:0
183,65,217657,1,0,0:0:0
162,106,217770,1,0,0:0:0
147,150,217884,2,0,P|67:150,1,70,8|0,0:0|0:0,0:0:0
143,216,218338,2,0,P|61:224|133:256|53:272|69:264,1,70
183,253,218793,2,0,P|254:275|174:307|207:325,1,70,8|0,0:0|0:0,0:0:0
295,304,219248,2,0,P|359:248|279:360|295:416|351:344,1,140,4|8,0:0|0:0,0:0:0
401,297,219929,1,0,0:0:0
401,205,220157,2,0,P|313:205,3,70,8|0|8|0,0:0|0:0|0:0|0:0,0:0:0
331,205,221066,2,0,P|251:189,1,70,0|0,0:0|0:0,0:0:0
263,146,221407,5,0,0:0:0
263,101,221520,1,8,0:0:0
218,101,221634,1,0,0:0:0
173,101,221748,1,0,0:0:0
173,192,221975,1,0,0:0:0
238,257,222202,1,0,0:0:0
174,322,222429,1,8,0:0:0
239,386,222657,1,0,0:0:0
304,322,222884,1,0,0:0:0
238,257,223111,1,0,0:0:0
174,322,223338,1,8,0:0:0
239,386,223566,1,0,0:0:0
432,256,223793,1,4,0:0:0
