osu file format v14

[General]
AudioFilename: bouquet.mp3
AudioLeadIn: 0
PreviewTime: 76415
Countdown: 0
SampleSet: Soft
StackLeniency: 0.7
Mode: 0
LetterboxInBreaks: 1
WidescreenStoryboard: 0

[Editor]
Bookmarks: 16784,31974,76595,104886,117038,149506,180835,205139,226405,256784,287164
DistanceSpacing: 1.2
BeatDivisor: 8
GridSize: 32
TimelineZoom: 1

[Metadata]
Title:Bouquet
TitleUnicode:Bouquet
Artist:doriko
ArtistUnicode:きりたんP
Creator:Awaken
Version:Bouquet
Source:
Tags:warm vocoloid 初音ミクHatsune Miku
BeatmapID:258932
BeatmapSetID:96640

[Difficulty]
HPDrainRate:6
CircleSize:4
OverallDifficulty:7
ApproachRate:8.5
SliderMultiplier:3.2
SliderTickRate:2

[Events]
//Background and Video events
0,0,"Hatsune.Miku.jpg",0,0
//Break Periods
2,84199,114464
2,146858,256109
//Storyboard Layer 0 (Background)
//Storyboard Layer 1 (Fail)
//Storyboard Layer 2 (Pass)
//Storyboard Layer 3 (Foreground)
//Storyboard Sound Samples

[TimingPoints]
1595,759.493670886076,4,2,0,10,1,0
2734,-200,4,2,0,10,0,0
16784,-100,4,2,0,10,0,0
31974,-200,4,2,0,10,0,0
43746,-133.333333333333,4,2,0,10,0,0
44126,-100,4,2,0,10,0,0
54759,-200,4,2,0,10,0,0
65392,-100,4,2,0,10,0,0
76595,-100,4,1,0,40,0,0
77544,-100,4,1,0,37,0,1
104886,-100,4,1,0,37,0,0
115518,-200,4,2,0,40,0,0
116277,-100,4,2,0,40,0,0
129189,-200,4,2,0,40,0,0
139442,-100,4,2,0,40,0,0
145708,-200,4,2,0,40,0,0
150455,-100,4,1,0,10,0,1
180835,-100,4,1,0,10,0,0
232481,-100,4,1,0,10,0,1
256784,-100,4,2,0,40,0,0
256784,-100,4,1,0,10,0,0
279378,-200,4,2,0,40,0,0
280328,-100,4,2,0,40,0,0

[Colours]
Combo1 : 255,147,147
Combo2 : 128,128,192
Combo3 : 255,255,0

[HitObjects]
114,92,1595,5,0,0:0:0:0:
114,92,2734,2,0,L|116:138,1,40
84,205,3113,5,0,0:0:0:0:
350,349,4253,2,0,L|395:348,1,40
460,310,4632,5,0,0:0:0:0:
256,192,5392,1,0,0:0:0:0:
100,339,6151,2,0,P|32:316|6:228,1,160
121,72,7670,5,0,0:0:0:0:
121,72,8430,2,0,L|211:64,1,80
268,106,9189,2,0,B|285:144|285:144|268:173|276:208|276:208|298:226|306:255,1,160
144,336,10708,5,0,0:0:0:0:
144,336,11468,2,0,P|81:344|25:258,1,160
256,192,12987,1,0,0:0:0:0:
256,192,13746,12,0,15835,0:0:0:0:
116,56,16784,6,0,P|116:143|170:183,1,160
128,364,17354,2,0,P|128:277|74:237,1,160
6,194,17924,1,0,0:0:0:0:
6,193,18303,6,0,P|77:162|149:192,1,160
360,234,18873,2,0,P|288:265|217:236,1,160
149,193,19443,1,0,0:0:0:0:
149,193,19822,6,0,B|172:133|172:133|143:86|173:34,1,160
238,85,20392,1,0,0:0:0:0:
217,232,20582,2,0,B|206:168|206:168|158:142|158:82,1,160
238,96,21151,1,0,0:0:0:0:
301,237,21341,2,0,L|287:159,1,80
394,275,21721,2,0,L|379:196,1,80
480,292,22101,2,0,L|465:213,1,80
452,133,22481,1,0,0:0:0:0:
452,133,22860,6,0,B|414:91|414:91|369:120|303:86,1,160
121,106,23430,2,0,B|159:148|159:148|204:119|258:148,1,160
329,183,24000,1,0,0:0:0:0:
329,183,24379,6,0,B|371:221|371:221|342:266|376:332,1,160
276,244,24949,2,0,B|234:206|234:206|263:161|234:107,1,160
199,35,25519,1,0,0:0:0:0:
199,35,25898,6,0,B|152:77|152:77|160:128|118:166,1,160
54,210,26468,2,0,B|97:255|158:231|158:231|135:285,1,160
95,340,27038,1,0,0:0:0:0:
95,340,27417,6,0,B|165:378|183:309|263:355,1,160
310,294,27987,1,0,0:0:0:0:
240,238,28177,2,0,P|236:196|244:151,2,80,0|0|0,0:0|0:0|0:0,0:0:0:0:
310,294,28746,1,0,0:0:0:0:
256,192,28936,12,0,30455,0:0:0:0:
102,129,31974,6,0,L|108:218,1,80
216,127,32544,2,0,L|217:78,1,40
204,232,33493,6,0,L|210:321,1,80
318,230,34063,2,0,L|319:181,1,40
115,267,34822,1,0,0:0:0:0:
93,352,35012,6,0,L|2:357,1,80
181,327,35582,1,0,0:0:0:0:
382,374,35962,1,0,0:0:0:0:
412,130,36341,1,0,0:0:0:0:
354,186,36531,2,0,L|264:183,1,80
11,227,37101,1,0,0:0:0:0:
72,278,37291,2,0,L|157:264,1,80
391,302,37860,1,0,0:0:0:0:
468,283,38050,6,0,L|476:333,1,40
306,287,38430,1,0,0:0:0:0:
244,338,38620,2,0,P|193:324|149:263,1,120
177,150,39379,1,0,0:0:0:0:
267,129,39569,2,0,L|278:80,1,40
292,11,39949,1,0,0:0:0:0:
325,200,40139,1,0,0:0:0:0:
325,200,40329,2,0,P|385:209|455:193,1,120
471,328,41088,6,0,L|386:320,1,80
37,351,41658,1,0,0:0:0:0:
123,370,41848,2,0,L|162:365,1,40
136,186,42227,1,0,0:0:0:0:
114,279,42417,1,0,0:0:0:0:
114,279,42512,1,0,0:0:0:0:
114,279,42607,6,0,L|24:268,1,80
211,243,43177,1,0,0:0:0:0:
221,147,43367,2,0,L|219:94,1,40
326,195,43746,2,0,L|317:130,1,60.0000022888184
441,248,44126,6,0,L|414:156,1,80
298,33,44506,1,0,0:0:0:0:
221,147,44696,1,0,0:0:0:0:
221,147,44791,1,0,0:0:0:0:
221,147,44886,1,0,0:0:0:0:
364,99,45076,1,0,0:0:0:0:
202,44,45265,5,0,0:0:0:0:
202,44,45645,2,0,L|113:41,1,80
142,229,46025,1,0,0:0:0:0:
221,147,46215,1,0,0:0:0:0:
221,147,46310,1,0,0:0:0:0:
221,147,46405,1,0,0:0:0:0:
64,147,46595,1,0,0:0:0:0:
240,244,46784,5,0,0:0:0:0:
240,244,47164,6,0,P|166:253|121:323,1,160
350,262,47734,1,0,0:0:0:0:
361,357,47924,2,0,B|308:364|274:325|274:325|210:327,1,160
91,233,48493,1,0,0:0:0:0:
12,288,48683,2,0,P|-1:253|2:197,1,80
181,273,49063,1,0,0:0:0:0:
142,362,49253,1,0,0:0:0:0:
350,262,49443,1,0,0:0:0:0:
263,338,49632,1,0,0:0:0:0:
210,175,49822,5,0,0:0:0:0:
210,175,49917,1,0,0:0:0:0:
210,175,50012,1,0,0:0:0:0:
372,360,50202,6,0,P|432:328|438:222,1,160
289,164,50772,2,0,L|210:175,1,80
350,262,51151,1,0,0:0:0:0:
398,73,51341,5,0,0:0:0:0:
398,73,51721,2,0,B|360:63|360:63|331:74|331:74|286:58|228:83,1,160
397,177,52291,2,0,L|476:173,1,80
289,164,52670,1,0,0:0:0:0:
257,338,52860,1,0,0:0:0:0:
172,282,53050,1,0,0:0:0:0:
96,344,53240,6,0,L|10:352,1,80
194,189,53620,1,0,0:0:0:0:
257,338,53810,1,0,0:0:0:0:
102,223,54000,2,0,P|99:167|107:135,1,80
264,254,54379,1,0,0:0:0:0:
372,73,54569,1,0,0:0:0:0:
372,73,54664,1,0,0:0:0:0:
372,73,54759,6,0,B|311:80|311:80|255:66|255:66|249:95|221:115|221:115|261:131|272:176|272:176|304:180|330:209,1,320
459,258,57417,6,0,L|456:324,1,60
391,366,57797,5,0,0:0:0:0:
157,313,59316,2,0,B|110:283|61:302|61:302|67:261|40:235,1,160
110,113,60835,2,0,B|155:95|155:95|195:112|195:112|229:101|272:114,2,160
321,199,63493,2,0,L|393:192,1,60
446,138,63873,5,0,0:0:0:0:
98,338,65392,2,0,B|118:268|118:268|99:164,1,160
292,165,65962,1,0,0:0:0:0:
213,113,66151,2,0,P|197:148|207:209,1,80
397,260,66531,2,0,L|386:162,1,80
447,119,66816,1,0,0:0:0:0:
447,119,66911,2,0,L|446:27,1,80
297,14,67291,1,0,0:0:0:0:
297,14,67481,1,0,0:0:0:0:
301,107,67670,6,0,P|349:97|377:64,1,80
396,259,68050,2,0,P|337:244|306:252,1,80
241,265,68335,1,0,0:0:0:0:
241,265,68430,2,0,L|74:254,1,160
11,143,69000,2,0,L|178:132,1,160
307,222,69569,2,0,P|322:253|308:317,1,80
439,189,69949,6,0,L|443:108,1,80
347,145,70329,1,0,0:0:0:0:
401,273,70519,1,0,0:0:0:0:
347,145,70708,5,0,0:0:0:0:
291,308,70898,1,8,0:0:0:0:
291,308,70993,1,8,0:0:0:0:
291,308,71088,1,8,0:0:0:0:
439,350,71278,1,0,0:0:0:0:
225,369,71468,6,0,P|199:308|261:230,1,160
148,183,72038,2,0,P|162:131|139:23,2,160
256,192,72892,12,0,76025,0:0:0:0:
153,118,76595,5,0,0:0:0:0:
122,259,76784,2,0,L|216:254,1,80
317,177,77164,2,0,L|229:172,1,80
68,115,77544,2,0,P|135:108|198:39,1,160
333,39,78113,1,0,0:0:0:0:
409,146,78303,6,0,L|396:327,1,160
242,286,78873,1,0,0:0:0:0:
242,286,78968,1,0,0:0:0:0:
242,286,79063,2,0,L|237:207,1,80
124,106,79443,2,0,L|121:191,1,80
181,362,79822,6,0,P|243:376|321:319,1,160
227,118,80392,1,0,0:0:0:0:
227,118,80487,1,0,0:0:0:0:
227,118,80582,2,0,L|220:198,1,80
388,302,80962,2,0,L|381:214,1,80
143,238,81341,5,0,0:0:0:0:
315,166,81531,1,0,0:0:0:0:
315,166,81626,1,0,0:0:0:0:
315,166,81721,1,0,0:0:0:0:
261,326,81911,1,0,0:0:0:0:
71,284,82101,6,0,P|58:239|75:193,1,80
266,246,82481,2,0,L|261:326,1,80
202,144,82860,1,0,0:0:0:0:
356,247,83050,1,0,0:0:0:0:
172,324,83240,1,0,0:0:0:0:
315,166,83430,5,0,0:0:0:0:
315,166,83525,1,0,0:0:0:0:
315,166,83620,2,0,L|326:338,1,160
76,192,115139,5,0,0:0:0:0:
76,192,115519,2,0,P|144:152|224:172,1,160
160,244,116468,1,0,0:0:0:0:
160,244,116563,1,0,0:0:0:0:
160,244,116658,1,0,0:0:0:0:
312,160,116848,1,0,0:0:0:0:
264,236,117038,2,0,P|340:264|416:232,1,160
424,160,117607,1,0,0:0:0:0:
424,160,117797,2,0,L|408:248,1,80
312,160,118177,2,0,L|328:72,1,80
240,208,118557,6,0,P|180:252|92:256,1,160
56,196,119126,1,0,0:0:0:0:
56,196,119316,2,0,P|88:228|96:276,1,80
56,196,119696,2,0,P|64:160|96:116,1,80
188,208,120076,2,0,P|172:280|100:328,1,160
88,248,120645,2,0,L|248:304,1,160
388,244,121215,1,0,0:0:0:0:
288,368,121405,1,0,0:0:0:0:
368,352,121595,6,0,P|320:292|236:300,1,160
88,352,122164,1,0,0:0:0:0:
152,304,122354,2,0,P|176:272|184:224,1,80
144,100,122734,2,0,P|120:132|112:180,1,80
332,224,123113,2,0,P|280:168|196:168,1,160
288,300,123683,2,0,L|384:296,1,80
456,164,124063,1,0,0:0:0:0:
456,164,124253,2,0,L|428:256,1,80
392,312,124632,6,0,P|340:256|260:248,1,160
116,72,125392,2,0,P|168:128|248:136,1,160
320,100,125962,1,0,0:0:0:0:
247,229,126151,2,0,P|309:171|320:100,1,160
321,248,126911,2,0,P|346:167|320:100,1,160
395,227,127670,2,0,P|376:144|320:100,1,160
448,173,128430,2,0,P|390:110|320:100,1,160
244,240,129189,6,0,B|296:224|296:224|316:264|352:284|392:272,1,160
372,196,130329,1,0,0:0:0:0:
268,316,130708,2,0,B|217:331|217:331|197:291|161:271|132:281,1,160
140,360,131848,1,0,0:0:0:0:
92,164,132227,2,0,P|120:192|164:196,1,80
228,52,132987,2,0,P|200:88|192:144,1,80
296,272,133746,2,0,P|304:220|268:164,1,120
228,168,134506,2,0,L|312:128,1,80
336,116,135076,1,0,0:0:0:0:
372,96,135265,6,0,P|288:88|240:32,1,160
156,172,136405,1,0,0:0:0:0:
52,292,136784,2,0,P|136:276|208:320,1,160
224,340,137734,1,0,0:0:0:0:
260,352,137924,1,0,0:0:0:0:
300,352,138113,1,0,0:0:0:0:
340,344,138303,2,0,L|420:316,1,80
400,156,138873,2,0,L|312:188,1,80
252,216,139443,6,0,P|276:252|324:264,1,80
200,148,139822,2,0,P|172:228|212:304,1,160
60,216,140392,1,0,0:0:0:0:
60,216,140582,2,0,L|134:186,1,80
224,52,140962,2,0,L|149:81,1,80
300,132,141341,2,0,P|356:196|348:276,1,160
192,244,141911,1,0,0:0:0:0:
192,244,142291,2,0,B|256:240|280:180|280:180|336:200,1,160
196,160,142860,6,0,P|128:184|112:264,1,160
312,288,143430,1,0,0:0:0:0:
312,288,143620,2,0,P|280:264|236:260,1,80
64,344,144000,2,0,P|104:320|120:280,1,80
120,200,144379,6,0,B|148:260|216:248|216:248|228:300,1,160
248,116,144949,2,0,L|196:176,1,80
324,144,145329,2,0,L|272:204,1,80
288,284,145708,6,0,P|372:288|440:248,1,160
448,236,146563,1,0,0:0:0:0:
460,220,146658,1,0,0:0:0:0:
120,188,256784,6,0,L|192:144,1,80
32,188,257164,1,0,0:0:0:0:
156,292,257354,1,0,0:0:0:0:
292,212,257544,2,0,L|223:253,1,80
336,140,257924,1,0,0:0:0:0:
411,281,258113,1,0,0:0:0:0:
411,281,258208,1,0,0:0:0:0:
411,281,258303,1,0,0:0:0:0:
373,210,258493,1,0,0:0:0:0:
160,296,258873,5,0,0:0:0:0:
237,258,259063,2,0,P|245:306|236:336,1,80
168,208,259443,1,0,0:0:0:0:
236,336,259632,2,0,B|284:336|336:288|308:220|308:220|284:176|248:164|232:108|272:68,1,320
404,68,260582,2,0,P|372:104|332:116,1,80
332,36,260962,1,0,0:0:0:0:
360,192,261151,2,0,P|396:176|444:164,1,80
360,192,261531,2,0,P|388:216|416:252,1,80
360,192,261911,2,0,P|332:272|264:308,1,160
124,240,262481,5,0,0:0:0:0:
204,240,262670,1,0,0:0:0:0:
164,308,262860,2,0,P|84:308|44:240,1,160
168,168,263430,2,0,P|244:168|284:236,2,160
204,240,264379,2,0,P|260:312|332:292,1,160
348,136,264949,5,0,0:0:0:0:
284,232,265139,1,0,0:0:0:0:
384,252,265329,1,0,0:0:0:0:
456,168,265519,1,0,0:0:0:0:
420,52,265708,2,0,B|372:16|324:16|280:36|248:84|248:84|220:128|184:144|144:136,1,320
56,60,266658,2,0,P|76:100|68:144,2,80
28,220,267227,6,0,L|112:232,1,80
252,164,267607,2,0,L|187:211,1,80
96,344,267987,2,0,P|168:304|248:320,1,160
316,348,268557,2,0,P|364:360|400:348,1,80
356,196,268936,2,0,L|356:280,1,80
432,244,269316,2,0,L|432:164,1,80
424,84,269696,2,0,P|340:116|260:108,1,160
128,40,270265,1,0,0:0:0:0:
176,104,270455,6,0,P|196:132|204:176,1,80
72,268,270835,2,0,P|104:240|144:236,1,80
292,292,271215,2,0,P|256:288|224:260,2,80
368,268,271784,2,0,P|412:200|384:116,2,160
320,188,272734,2,0,P|296:116|344:48,1,160
224,80,273303,6,0,L|136:108,1,80
115,196,273683,2,0,L|192:172,1,80
40,220,274063,2,0,P|116:256|148:340,2,160
196,248,275012,2,0,P|276:264|352:240,1,160
480,148,275582,2,0,L|452:228,1,80
480,148,275962,2,0,L|396:168,1,80
480,148,276341,2,0,P|412:104|376:32,1,160
245,110,276911,2,0,P|284:96|324:96,1,80
302,172,277291,6,0,L|276:248,2,80
226,317,278050,2,0,P|148:317|84:272,1,160
164,168,278620,2,0,L|176:248,1,80
76,176,279000,2,0,P|84:136|116:100,1,80
184,88,279379,6,0,P|272:132|392:108,1,200
256,192,281088,1,0,0:0:0:0:
256,192,281278,12,0,283367,0:0:0:0:
256,88,284126,5,0,0:0:0:0:
199,273,284506,1,0,0:0:0:0:
354,156,284886,1,0,0:0:0:0:
160,160,285265,1,0,0:0:0:0:
319,271,285645,1,0,0:0:0:0:
256,192,285835,12,0,287164,0:0:0:0:
