osu file format v6

[General]
AudioFilename: pepper tuna.mp3
AudioLeadIn: 0
PreviewTime: -1
Countdown: 0
SampleSet: Normal
StackLeniency: 0.7
Mode: 0
LetterboxInBreaks: 1

[Editor]
DistanceSpacing: 0.800000011920929
BeatDivisor: 4
GridSize: 8

[Metadata]
Title:pepper tuna
Artist:dolkas
Creator:askerlate47
Version:Easy
Source:
Tags:

[Difficulty]
HPDrainRate:5
CircleSize:5
OverallDifficulty:5
SliderMultiplier:1.4
SliderTickRate:1

[Events]
//Background and Video events
0,0,"pepper tuna - screen.jpg"
//Break Periods
2,24014,36250
//Storyboard Layer 0 (Background)
//Storyboard Layer 1 (Fail)
//Storyboard Layer 2 (Pass)
//Storyboard Layer 3 (Foreground)
//Storyboard Sound Samples
//Background Colour Transformations
3,100,163,162,255

[TimingPoints]
12613,389.61038961039,4,1,1,100,1,0
12613,-100,4,1,1,100,0,1
24106,-100,4,1,1,100,0,0
50029,-100,4,1,1,100,0,1
62349,-100,4,1,1,100,0,0
74798,-100,4,1,1,100,0,1
86549,-100,4,1,1,100,0,0
93503,-100,4,1,1,100,0,1

[Colours]
Combo1 : 255,128,64
Combo2 : 255,0,0

[HitObjects]
256,192,3164,1,4
256,192,6184,5,4
256,192,9398,5,4
256,192,10957,5,4
136,192,12515,5,0
256,192,14074,1,4
256,80,15535,5,2
256,192,16411,1,2
248,296,17190,1,2
248,296,17580,1,2
88,192,18651,5,8
256,184,19528,1,8
256,64,20307,1,8
256,64,20697,1,8
112,288,21768,5,0
144,136,22548,1,0
208,296,23424,1,0
208,296,23814,1,4
104,184,37450,5,0
200,184,38229,1,0
288,192,39009,1,0
288,192,39301,1,0
320,320,40470,5,8
248,320,41249,1,8
152,320,42028,1,8
88,320,42418,1,8
16,312,42807,1,8
88,152,43587,5,4
160,176,44366,1,0
144,304,45145,1,0
224,256,45535,1,0
288,192,45924,1,2
144,104,46703,5,0
232,104,47483,1,0
336,104,48262,1,8
320,192,48651,1,8
320,192,49041,1,8
136,272,49820,5,0
256,272,50600,1,0
384,280,51379,1,0
384,280,51768,1,2
136,192,52937,5,0
256,192,53814,1,0
400,192,54496,1,0
400,192,54885,1,2
176,288,56054,5,0
264,224,56833,1,0
360,184,57612,1,8
360,184,58002,1,8
144,192,59171,5,8
256,192,60048,1,8
360,192,60729,1,8
360,192,61119,1,8
144,280,62288,5,0
240,280,63067,1,0
336,280,63846,1,0
432,280,64625,1,0
440,168,65405,5,0
336,168,66184,1,0
256,168,66963,1,0
160,160,67742,1,0
96,296,68522,5,8
176,240,69301,1,8
248,192,70080,1,8
320,136,70859,1,8
104,88,71638,5,2
208,88,72418,1,2
304,96,73197,1,0
392,88,73587,1,0
496,80,73976,1,0
88,272,74755,5,0
168,272,75535,1,0
248,264,76314,1,0
312,264,76703,1,0
352,160,77775,1,2
256,160,78651,1,2
160,160,79431,1,2
64,160,80210,1,2
408,80,80989,5,0
312,80,81768,1,2
224,72,82450,1,2
144,64,82937,1,2
80,72,83327,1,2
144,192,84106,5,0
256,192,84885,1,0
376,200,85664,1,0
248,296,86541,1,2
144,200,87223,5,0
240,208,88002,1,0
240,208,88197,1,0
392,240,88781,5,0
304,296,89561,1,0
304,296,89755,1,0
128,264,90340,5,0
224,232,91119,1,0
304,192,91898,1,0
376,128,92677,1,0
56,56,93457,5,0
256,48,94236,1,0
248,192,95015,1,0
424,184,95794,1,0
392,304,96574,5,0
248,312,97353,1,0
264,184,98132,1,0
264,184,98327,1,0
264,184,98522,1,0
264,184,98716,1,0
