osu file format v14

[General]
AudioFilename: original.mp3
AudioLeadIn: 0
PreviewTime: 55526
Countdown: 0
SampleSet: None
StackLeniency: 0.7
Mode: 0
LetterboxInBreaks: 1
WidescreenStoryboard: 0

[Editor]
DistanceSpacing: 1
BeatDivisor: 4
GridSize: 4
TimelineZoom: 2.2

[Metadata]
Title:Oriental Creation
TitleUnicode:Oriental Creation
Artist:dksslqj
ArtistUnicode:dksslqj
Creator:Nakagawa-Kanon
Version:Insane
Source:
Tags:
BeatmapID:3429157
BeatmapSetID:1678494

[Difficulty]
HPDrainRate:8
CircleSize:4
OverallDifficulty:7
ApproachRate:9
SliderMultiplier:1.9
SliderTickRate:1

[Events]
//Background and Video events
0,0,"oriental-wallpaper-6964-7361-hd-wallpapers.jpg",0,0
//Break Periods
//Storyboard Layer 0 (Background)
//Storyboard Layer 1 (Fail)
//Storyboard Layer 2 (Pass)
//Storyboard Layer 3 (Foreground)
//Storyboard Layer 4 (Overlay)
//Storyboard Sound Samples

[TimingPoints]
35,346.820809248555,4,2,0,80,1,0
35,-133.333333333333,4,2,0,80,0,0
11133,-100,4,1,0,80,0,0
11219,-100,4,2,0,80,0,0
16682,-100,4,1,0,80,0,0
16769,-100,4,2,0,80,0,0
18069,-100,4,1,0,80,0,0
18156,-100,4,2,0,80,0,0
19456,-100,4,1,0,80,0,0
19543,-100,4,2,0,80,0,0
20150,-100,4,1,0,80,0,0
20237,-100,4,2,0,80,0,0
21191,-100,4,1,0,80,0,0
21277,-100,4,2,0,80,0,0
21537,-100,4,1,0,80,0,0
21624,-100,4,2,0,80,0,0
21884,-100,4,1,0,80,0,0
21971,-100,4,2,0,80,0,0
22231,-100,4,1,0,80,0,0
33329,-133.333333333333,4,2,0,80,0,0
55526,-100,4,1,0,80,0,0
66624,-100,4,1,1,80,0,0
87520,-100,4,2,0,80,0,0
88821,-100,4,1,0,80,0,0
109630,-100,4,1,1,80,0,0
111017,-66.6666666666667,4,1,1,80,0,1
122115,-55.5555555555556,4,1,1,80,0,1
123156,-166.666666666667,4,1,1,80,0,1
123503,-55.5555555555556,4,1,1,80,0,1
124543,-166.666666666667,4,1,1,80,0,1
124890,-55.5555555555556,4,1,1,80,0,1
125930,-166.666666666667,4,1,1,80,0,1
126277,-55.5555555555556,4,1,1,80,0,1
127665,-50,4,1,1,80,0,1
128705,-200,4,1,1,80,0,1
129052,-50,4,1,1,80,0,1
130092,-200,4,1,1,80,0,1
130439,-50,4,1,1,80,0,1
131480,-200,4,1,1,80,0,1
131826,-50,4,1,1,80,0,1
133214,-100,4,1,0,80,0,0

[Colours]
Combo1 : 92,203,189
Combo2 : 255,128,192
Combo3 : 92,189,72
Combo4 : 173,145,92

[HitObjects]
88,92,35,6,0,P|92:160|100:236,1,142.500005435944,2|0,0:0|0:0,0:0:0:0:
412,233,728,2,0,P|419:163|424:92,1,142.500005435944,2|0,0:0|0:0,0:0:0:0:
208,120,1422,2,0,P|256:100|304:120,1,106.875004076958,2|0,0:0|0:0,0:0:0:0:
256,172,1769,2,0,L|256:252,1,71.2500027179719
256,256,2029,1,0,0:0:0:0:
256,272,2115,1,2,0:0:0:0:
184,344,2289,2,0,P|144:296|200:232,1,142.500005435944,0|0,0:0|0:0,0:0:0:0:
332,236,2809,5,2,0:0:0:0:
420,88,3156,2,0,P|424:144|428:184,2,71.2500027179719,0|0|2,0:0|0:0|0:0,0:0:0:0:
72,136,3850,1,0,0:0:0:0:
44,68,4023,1,0,0:0:0:0:
116,72,4196,1,0,0:0:0:0:
144,140,4370,1,0,0:0:0:0:
108,204,4543,1,0,0:0:0:0:
36,200,4717,1,0,0:0:0:0:
68,264,4890,1,2,0:0:0:0:
180,208,5063,5,0,0:0:0:0:
32,332,5410,1,0,0:0:0:0:
32,332,5497,1,0,0:0:0:0:
32,332,5583,2,0,B|104:356|104:304|176:328,2,142.500005435944,2|0|2,0:0|0:0|0:0,0:0:0:0:
248,344,6624,1,0,0:0:0:0:
320,192,6971,2,0,P|316:248|336:312,1,106.875004076958,2|0,0:0|0:0,0:0:0:0:
336,308,7318,2,0,P|372:308|412:312,1,71.2500027179719
368,132,7665,2,0,P|324:116|244:180,1,142.500005435944,2|0,0:0|0:0,0:0:0:0:
392,232,8185,5,0,0:0:0:0:
392,232,8271,1,0,0:0:0:0:
392,232,8358,1,2,0:0:0:0:
48,124,8705,2,0,L|124:136,2,71.2500027179719,0|0|2,0:0|0:0|0:0,0:0:0:0:
68,204,9225,1,0,0:0:0:0:
96,56,9399,1,0,0:0:0:0:
148,216,9572,1,0,0:0:0:0:
176,72,9745,6,0,P|192:104|200:152,1,71.2500027179719
336,248,10092,2,0,P|320:280|312:328,1,71.2500027179719
256,192,10439,1,2,0:0:0:0:
452,52,11133,6,0,L|456:120,3,47.5,0|0|0|0,0:0|0:0|0:0|0:0,0:0:0:0:
376,88,11480,2,0,L|380:156,3,47.5,0|0|0|0,0:0|0:0|0:0|0:0,0:0:0:0:
300,56,11826,1,0,0:0:0:0:
280,60,11913,1,0,0:0:0:0:
260,64,12000,1,0,0:0:0:0:
240,68,12087,1,0,0:0:0:0:
220,72,12173,2,0,L|224:136,1,47.5
188,188,12347,2,0,L|192:252,1,47.5
264,256,12520,6,0,L|260:324,3,47.5,0|0|0|0,0:0|0:0|0:0|0:0,0:0:0:0:
180,312,12867,2,0,L|176:380,3,47.5,0|0|0|0,0:0|0:0|0:0|0:0,0:0:0:0:
120,256,13213,1,0,0:0:0:0:
100,252,13300,1,0,0:0:0:0:
80,248,13387,1,0,0:0:0:0:
60,244,13474,1,0,0:0:0:0:
40,240,13560,2,0,L|44:176,1,47.5
8,124,13734,2,0,L|12:60,1,47.5
80,48,13907,5,0,0:0:0:0:
100,44,13994,1,0,0:0:0:0:
120,40,14081,1,0,0:0:0:0:
140,36,14167,1,0,0:0:0:0:
160,32,14254,2,0,L|156:88,1,47.5
228,120,14428,2,0,L|232:64,1,47.5
308,60,14601,1,0,0:0:0:0:
328,56,14688,1,0,0:0:0:0:
348,52,14774,1,0,0:0:0:0:
368,48,14861,1,0,0:0:0:0:
428,92,14948,1,0,0:0:0:0:
448,88,15035,1,0,0:0:0:0:
468,84,15121,1,0,0:0:0:0:
488,80,15208,1,0,0:0:0:0:
508,152,15295,6,0,L|504:224,1,47.5
400,228,15468,2,0,L|404:156,1,47.5
496,160,15641,6,0,L|492:232,1,47.5
388,236,15814,2,0,L|392:164,1,47.5
316,268,15988,5,0,0:0:0:0:
288,248,16075,1,0,0:0:0:0:
256,244,16162,1,0,0:0:0:0:
224,252,16248,1,0,0:0:0:0:
200,272,16335,1,0,0:0:0:0:
168,284,16422,1,0,0:0:0:0:
136,284,16508,1,0,0:0:0:0:
104,272,16595,1,0,0:0:0:0:
84,244,16682,6,0,L|80:184,3,47.5,0|0|0|0,0:0|0:0|0:0|0:0,0:0:0:0:
32,136,17029,2,0,L|35:88,3,47.5,0|0|0|0,0:0|0:0|0:0|0:0,0:0:0:0:
92,40,17376,5,0,0:0:0:0:
112,44,17462,1,0,0:0:0:0:
132,48,17549,1,0,0:0:0:0:
152,52,17636,1,0,0:0:0:0:
184,44,17722,5,0,0:0:0:0:
204,48,17809,1,0,0:0:0:0:
224,52,17896,1,0,0:0:0:0:
244,56,17982,1,0,0:0:0:0:
276,48,18069,6,0,L|280:112,1,47.5
352,64,18243,2,0,L|356:128,1,47.5,0|0,0:0|0:0,0:0:0:0:
428,48,18416,2,0,L|432:112,1,47.5
504,64,18590,2,0,L|508:128,1,47.5,0|0,0:0|0:0,0:0:0:0:
452,168,18763,5,0,0:0:0:0:
428,192,18850,1,0,0:0:0:0:
424,224,18936,1,0,0:0:0:0:
432,256,19023,1,0,0:0:0:0:
452,284,19110,2,0,L|456:340,1,47.5
376,308,19283,2,0,L|380:364,1,47.5
304,280,19456,5,0,0:0:0:0:
272,272,19543,1,0,0:0:0:0:
240,280,19630,1,0,0:0:0:0:
216,304,19716,1,0,0:0:0:0:
196,328,19803,1,0,0:0:0:0:
164,336,19890,1,0,0:0:0:0:
132,332,19976,1,0,0:0:0:0:
104,312,20063,1,0,0:0:0:0:
92,280,20150,1,0,0:0:0:0:
96,248,20237,1,0,0:0:0:0:
112,220,20323,1,0,0:0:0:0:
140,204,20410,1,0,0:0:0:0:
172,204,20497,1,0,0:0:0:0:
204,208,20583,1,0,0:0:0:0:
236,196,20670,1,0,0:0:0:0:
260,172,20757,1,0,0:0:0:0:
272,140,20844,6,0,L|268:96,3,23.75,0|0|0|0,0:0|0:0|0:0|0:0,0:0:0:0:
292,136,21017,2,0,L|296:92,3,23.75,0|0|0|0,0:0|0:0|0:0|0:0,0:0:0:0:
312,144,21191,5,0,0:0:0:0:
344,132,21277,1,0,0:0:0:0:
376,136,21364,1,0,0:0:0:0:
400,156,21451,1,0,0:0:0:0:
408,188,21537,6,0,B|404:212|404:212|408:240,1,47.5
488,264,21711,2,0,B|492:240|492:240|488:212,1,47.5
416,316,21884,6,0,L|420:368,1,47.5
332,276,22058,2,0,L|336:328,1,47.5
268,356,22231,6,0,B|196:360|196:360|152:336|152:336|72:344,1,190,0|8,0:0|0:0,0:0:0:0:
24,284,22751,1,0,0:0:0:0:
96,84,22925,2,0,B|132:168|132:168|104:268,1,190,0|8,0:0|0:0,0:0:0:0:
24,48,23445,1,0,0:0:0:0:
24,48,23532,1,0,0:0:0:0:
24,48,23618,2,0,L|172:40,1,142.5
240,36,23965,2,0,P|292:40|332:76,1,95,8|0,0:0|0:0,0:0:0:0:
280,200,24312,2,0,P|257:152|268:100,1,95,0|0,0:0|0:0,0:0:0:0:
404,84,24659,6,0,P|374:127|323:143,1,95,8|0,0:0|0:0,0:0:0:0:
320,140,24919,1,0,0:0:0:0:
304,136,25006,2,0,L|148:132,1,142.5
92,164,25352,2,0,B|84:212|84:212|104:260,1,95,8|0,0:0|0:0,0:0:0:0:
152,312,25613,1,0,0:0:0:0:
164,320,25699,2,0,L|268:316,1,95
448,340,26046,2,0,L|344:344,1,95,8|0,0:0|0:0,0:0:0:0:
324,252,26393,5,0,0:0:0:0:
396,192,26566,1,0,0:0:0:0:
472,248,26740,1,8,0:0:0:0:
396,192,26913,1,0,0:0:0:0:
264,128,27087,2,0,B|324:132|324:132|384:108|384:108|460:116,1,190,0|8,0:0|0:0,0:0:0:0:
208,60,27607,5,0,0:0:0:0:
196,72,27693,1,0,0:0:0:0:
184,84,27780,2,0,P|136:80|80:124,1,95
128,244,28127,2,0,P|155:204|145:133,1,95,8|0,0:0|0:0,0:0:0:0:
20,112,28474,2,0,P|40:155|106:182,1,95
240,188,28821,2,0,L|364:176,1,95,8|0,0:0|0:0,0:0:0:0:
488,204,29167,6,0,P|428:208|388:276,1,142.5
452,364,29514,2,0,P|468:344|456:268,1,95,8|0,0:0|0:0,0:0:0:0:
180,348,29861,2,0,B|252:356|252:356|304:344|304:344|380:352,1,190,0|8,0:0|0:0,0:0:0:0:
260,252,30381,1,0,0:0:0:0:
252,264,30468,1,0,0:0:0:0:
244,276,30555,6,0,B|172:268|172:268|120:280|120:280|44:272,1,190,0|8,0:0|0:0,0:0:0:0:
72,104,31075,1,0,0:0:0:0:
20,184,31248,2,0,L|132:196,1,95
264,128,31595,2,0,L|152:116,1,95,8|0,0:0|0:0,0:0:0:0:
352,140,31942,5,0,0:0:0:0:
356,212,32115,1,0,0:0:0:0:
492,224,32289,5,8,0:0:0:0:
496,152,32462,1,0,0:0:0:0:
280,244,32636,5,0,0:0:0:0:
284,316,32809,1,0,0:0:0:0:
420,328,32983,5,8,0:0:0:0:
424,256,33156,1,0,0:0:0:0:
348,356,33329,6,0,L|196:352,1,142.500005435944,0|2,0:0|0:0,0:0:0:0:
160,148,34023,2,0,L|8:152,1,142.500005435944,0|2,0:0|0:0,0:0:0:0:
36,344,34717,2,0,P|32:304|20:236,1,106.875004076958
32,228,35063,1,2,0:0:0:0:
120,284,35237,1,0,0:0:0:0:
196,212,35410,2,0,B|268:224|264:200|340:212,1,142.500005435944,0|2,0:0|0:0,0:0:0:0:
428,268,35930,5,0,0:0:0:0:
428,268,36017,1,0,0:0:0:0:
428,268,36104,2,0,P|444:216|484:128,1,142.500005435944,0|2,0:0|0:0,0:0:0:0:
420,64,36624,1,0,0:0:0:0:
344,116,36798,2,0,P|276:140|200:96,1,142.500005435944,0|2,0:0|0:0,0:0:0:0:
280,48,37318,1,0,0:0:0:0:
136,160,37491,6,0,P|132:112|128:80,1,71.2500027179719
148,244,37838,2,0,P|152:292|156:324,1,71.2500027179719,2|0,0:0|0:0,0:0:0:0:
56,208,38185,2,0,P|63:282|72:356,1,142.500005435944,0|2,0:0|0:0,0:0:0:0:
240,344,38705,5,0,0:0:0:0:
237,322,38792,1,0,0:0:0:0:
234,301,38878,2,0,P|298:277|370:297,1,142.500005435944,0|2,0:0|0:0,0:0:0:0:
504,80,39572,2,0,P|440:104|368:84,1,142.500005435944,0|2,0:0|0:0,0:0:0:0:
48,64,40266,6,0,L|176:60,1,106.875004076958
168,76,40613,2,0,P|168:108|160:156,1,71.2500027179719,2|0,0:0|0:0,0:0:0:0:
248,300,40959,2,0,B|232:224|272:148|272:148,1,142.500005435944,0|2,0:0|0:0,0:0:0:0:
276,72,41480,2,0,L|272:32,2,35.625001358986,0|0|0,0:0|0:0|0:0,0:0:0:0:
52,332,42000,5,2,0:0:0:0:
124,196,42173,1,0,0:0:0:0:
128,328,42347,1,0,0:0:0:0:
48,200,42520,1,0,0:0:0:0:
164,260,42693,1,2,0:0:0:0:
12,268,42867,1,0,0:0:0:0:
84,128,43040,6,0,P|80:88|80:44,1,71.2500027179719
204,116,43387,2,0,P|208:156|208:200,1,71.2500027179719,2|0,0:0|0:0,0:0:0:0:
320,104,43734,2,0,P|316:64|316:20,1,71.2500027179719
436,100,44081,2,0,P|440:140|440:184,1,71.2500027179719,2|0,0:0|0:0,0:0:0:0:
360,324,44428,6,0,P|356:288|356:240,2,71.2500027179719,0|2|0,0:0|0:0|0:0,0:0:0:0:
288,208,44948,1,2,0:0:0:0:
292,188,45035,1,0,0:0:0:0:
204,204,45208,1,0,0:0:0:0:
200,184,45295,1,2,0:0:0:0:
136,252,45468,2,0,P|96:248|52:240,1,71.2500027179719,0|2,0:0|0:0,0:0:0:0:
64,72,45815,6,0,P|120:68|160:64,1,71.2500027179719,0|2,0:0|0:0,0:0:0:0:
156,64,46075,1,0,0:0:0:0:
176,64,46162,1,0,0:0:0:0:
196,60,46248,1,2,0:0:0:0:
292,96,46422,2,0,P|336:96|372:100,2,71.2500027179719,0|2|0,0:0|0:0|0:0,0:0:0:0:
440,52,46942,1,0,0:0:0:0:
460,48,47029,1,2,0:0:0:0:
512,124,47202,6,0,P|516:168|504:200,1,71.2500027179719,0|2,0:0|0:0,0:0:0:0:
372,200,47549,2,0,P|368:244|380:276,1,71.2500027179719,0|2,0:0|0:0,0:0:0:0:
392,276,47809,1,0,0:0:0:0:
512,312,47982,1,0,0:0:0:0:
496,316,48069,1,2,0:0:0:0:
380,356,48243,2,0,P|340:352|296:348,1,71.2500027179719,0|2,0:0|0:0,0:0:0:0:
228,236,48589,6,0,P|224:280|240:328,2,71.2500027179719,0|2|0,0:0|0:0|0:0,0:0:0:0:
264,112,49110,2,0,P|268:132|268:156,1,35.625001358986,2|0,0:0|0:0,0:0:0:0:
144,232,49370,2,0,P|140:212|140:188,1,35.625001358986,0|2,0:0|0:0,0:0:0:0:
172,44,49630,2,0,P|176:84|168:128,1,71.2500027179719,0|2,0:0|0:0,0:0:0:0:
360,60,49977,6,0,P|356:96|356:144,2,71.2500027179719,0|2|0,0:0|0:0|0:0,0:0:0:0:
288,176,50497,1,2,0:0:0:0:
292,196,50584,1,0,0:0:0:0:
204,180,50757,1,0,0:0:0:0:
200,200,50844,1,2,0:0:0:0:
136,132,51017,2,0,P|96:136|52:144,1,71.2500027179719,0|2,0:0|0:0,0:0:0:0:
64,312,51364,6,0,P|120:316|160:320,1,71.2500027179719,0|2,0:0|0:0,0:0:0:0:
156,320,51624,1,0,0:0:0:0:
176,320,51711,1,0,0:0:0:0:
196,324,51797,1,2,0:0:0:0:
292,288,51971,2,0,P|336:288|372:284,2,71.2500027179719,0|2|0,0:0|0:0|0:0,0:0:0:0:
440,332,52491,1,0,0:0:0:0:
460,336,52578,1,2,0:0:0:0:
512,260,52751,6,0,P|516:216|504:184,1,71.2500027179719,0|2,0:0|0:0,0:0:0:0:
372,184,53098,2,0,P|368:140|380:108,2,71.2500027179719,0|2|0,0:0|0:0|0:0,0:0:0:0:
464,48,53618,1,2,0:0:0:0:
468,68,53705,1,0,0:0:0:0:
280,108,53878,1,0,0:0:0:0:
276,88,53965,1,2,0:0:0:0:
108,56,54139,6,0,B|104:92|104:92|112:128,1,71.2500027179719,0|2,0:0|0:0,0:0:0:0:
0,168,54399,2,0,B|33:182|33:182|69:186,1,71.2500027179719,0|2,0:0|0:0,0:0:0:0:
72,312,54659,2,0,B|96:285|96:285|111:251,1,71.2500027179719,0|2,0:0|0:0,0:0:0:0:
228,284,54919,2,0,B|210:252|210:252|182:228,1,71.2500027179719,0|2,0:0|0:0,0:0:0:0:
244,128,55179,2,0,B|208:135|208:135|176:154,1,71.2500027179719,0|2,0:0|0:0,0:0:0:0:
292,336,55526,6,0,L|396:344,1,95
496,244,55873,2,0,L|392:252,1,95,8|0,0:0|0:0,0:0:0:0:
336,144,56219,2,0,L|344:224,1,47.5
334,126,56393,1,0,0:0:0:0:
424,152,56566,1,8,0:0:0:0:
240,112,56740,2,0,L|232:32,1,47.5,0|8,0:0|0:0,0:0:0:0:
242,130,56914,1,0,0:0:0:0:
144,52,57087,5,0,0:0:0:0:
112,44,57173,1,0,0:0:0:0:
80,48,57260,1,8,0:0:0:0:
52,68,57347,1,0,0:0:0:0:
36,96,57433,1,0,0:0:0:0:
32,128,57520,1,0,0:0:0:0:
64,216,57693,1,0,0:0:0:0:
72,248,57780,1,0,0:0:0:0:
64,280,57867,1,0,0:0:0:0:
48,308,57954,2,8,L|-12:316,2,47.5,8|8|0,0:0|0:0|0:0,0:0:0:0:
132,352,58300,5,0,0:0:0:0:
172,264,58474,2,0,L|168:208,1,47.5
164,144,58647,1,8,0:0:0:0:
280,240,58821,2,0,L|276:304,1,47.5
384,264,59081,2,0,L|380:200,1,47.5
380,184,59254,1,0,0:0:0:0:
392,152,59341,1,8,0:0:0:0:
416,128,59428,1,0,0:0:0:0:
448,120,59514,1,0,0:0:0:0:
476,224,59688,6,0,P|476:288|472:344,1,95,4|0,0:2|0:0,0:0:0:0:
452,336,59948,1,0,0:0:0:0:
428,348,60035,1,8,0:0:0:0:
296,152,60208,2,0,P|296:96|292:40,1,95,4|0,0:2|0:0,0:0:0:0:
224,36,60468,1,0,0:0:0:0:
160,68,60555,2,0,P|160:124|164:180,1,95,4|8,0:2|0:0,0:0:0:0:
236,304,60902,1,0,0:0:0:0:
228,320,60988,1,0,0:0:0:0:
220,336,61075,6,0,L|116:344,1,95
16,244,61422,2,0,L|120:252,1,95,8|0,0:0|0:0,0:0:0:0:
176,144,61768,2,0,L|168:224,1,47.5
178,126,61942,1,0,0:0:0:0:
88,152,62115,1,8,0:0:0:0:
272,112,62289,2,0,L|280:32,1,47.5,0|8,0:0|0:0,0:0:0:0:
270,130,62463,1,0,0:0:0:0:
368,52,62636,5,0,0:0:0:0:
400,44,62722,1,0,0:0:0:0:
432,48,62809,1,8,0:0:0:0:
460,68,62896,1,0,0:0:0:0:
476,96,62982,1,0,0:0:0:0:
480,128,63069,1,0,0:0:0:0:
448,216,63242,1,0,0:0:0:0:
440,248,63329,1,0,0:0:0:0:
448,280,63416,1,0,0:0:0:0:
464,308,63503,2,8,L|524:316,2,47.5,8|8|0,0:0|0:0|0:0,0:0:0:0:
380,352,63849,5,0,0:0:0:0:
340,264,64023,2,0,L|344:208,1,47.5
348,144,64196,1,8,0:0:0:0:
232,240,64370,2,0,L|236:304,1,47.5
128,264,64630,2,0,L|132:200,1,47.5
132,184,64803,1,0,0:0:0:0:
120,152,64890,1,8,0:0:0:0:
96,128,64977,1,0,0:0:0:0:
64,120,65063,1,0,0:0:0:0:
36,224,65237,5,4,0:2:0:0:
412,36,66624,6,0,P|440:68|436:128,1,95
428,212,66971,2,0,L|436:324,1,95,8|0,0:0|0:0,0:0:0:0:
372,340,67231,1,0,0:0:0:0:
356,184,67404,1,0,0:0:0:0:
293,217,67491,2,0,L|299:311,2,95,0|8|0,0:0|0:0|0:0,0:0:0:0:
232,348,68011,5,0,0:0:0:0:
216,184,68185,1,0,0:0:0:0:
215,151,68271,1,0,0:0:0:0:
213,117,68358,1,8,0:0:0:0:
212,83,68445,1,0,0:0:0:0:
124,44,68618,1,0,0:0:0:0:
91,37,68705,1,0,0:0:0:0:
58,42,68792,1,0,0:0:0:0:
31,61,68878,1,0,0:0:0:0:
13,89,68965,1,0,0:0:0:0:
9,122,69052,2,0,L|13:190,1,47.5,8|0,0:0|0:0,0:0:0:0:
88,184,69225,2,0,L|92:252,1,47.5,0|0,0:0|0:0,0:0:0:0:
56,296,69399,6,0,P|100:304|144:280,1,95
216,264,69659,1,0,0:0:0:0:
216,264,69745,2,0,L|332:260,1,95,8|0,0:0|0:0,0:0:0:0:
384,260,70006,2,0,P|416:268|460:320,1,95
388,336,70266,1,0,0:0:0:0:
344,196,70439,2,0,L|340:132,1,47.5,8|0,0:0|0:0,0:0:0:0:
340,76,70613,1,0,0:0:0:0:
440,48,70786,6,0,P|476:100|440:168,1,142.5
404,108,71133,1,8,0:0:0:0:
280,116,71306,1,0,0:0:0:0:
280,116,71393,2,0,L|184:120,1,95
128,164,71653,2,0,L|136:232,1,47.5
64,240,71826,2,0,L|76:364,1,95,8|0,0:0|0:0,0:0:0:0:
40,156,72173,6,0,P|44:104|88:68,2,95,0|0|8,0:0|0:0|0:0,0:0:0:0:
144,40,72693,1,0,0:0:0:0:
144,40,72780,2,0,L|268:36,1,95
312,36,73040,1,0,0:0:0:0:
488,80,73214,2,0,B|500:128|500:128|488:188,1,95,8|0,0:0|0:0,0:0:0:0:
328,232,73561,6,0,B|316:184|316:184|328:124,1,95,0|0,0:0|0:0,0:0:0:0:
344,136,73821,1,0,0:0:0:0:
364,132,73907,1,8,0:0:0:0:
384,128,73994,1,0,0:0:0:0:
276,304,74167,2,0,L|212:300,1,47.5
176,356,74341,2,0,L|112:352,1,47.5
96,352,74514,1,0,0:0:0:0:
64,348,74601,1,8,0:0:0:0:
36,332,74688,1,0,0:0:0:0:
16,304,74774,1,0,0:0:0:0:
104,180,74948,6,0,B|112:228|112:228|88:284,1,95
32,212,75208,1,0,0:0:0:0:
20,212,75295,2,0,B|12:164|12:164|36:108,1,95,8|0,0:0|0:0,0:0:0:0:
24,48,75555,2,0,L|80:44,1,47.5
216,64,75815,1,0,0:0:0:0:
188,80,75902,2,0,L|180:148,1,47.5,0|8,0:0|0:0,0:0:0:0:
256,132,76075,2,0,L|248:200,1,47.5
272,200,76248,1,0,0:0:0:0:
292,64,76335,6,0,L|408:60,1,95
460,88,76595,1,0,0:0:0:0:
460,88,76682,2,0,P|472:140|448:192,1,95,8|0,0:0|0:0,0:0:0:0:
408,236,76942,2,0,L|348:228,2,47.5,0|0|0,0:0|0:0|0:0,0:0:0:0:
488,252,77202,1,0,0:0:0:0:
492,276,77289,1,0,0:0:0:0:
496,300,77376,2,0,P|448:316|416:348,1,95,8|0,0:0|0:0,0:0:0:0:
248,312,77722,6,0,L|352:308,2,95,0|0|8,0:0|0:0|0:0,0:0:0:0:
132,340,78243,1,0,0:0:0:0:
148,344,78329,2,0,B|160:300|160:300|140:240,1,95
76,288,78589,2,0,B|64:244|64:244|84:184,2,95,0|8|0,0:0|0:0|0:0,0:0:0:0:
156,172,79110,6,0,L|144:68,1,95
224,84,79370,2,0,L|220:24,1,47.5,0|8,0:0|0:0,0:0:0:0:
300,112,79543,2,0,L|308:56,1,47.5
380,100,79717,1,0,0:0:0:0:
404,80,79803,1,0,0:0:0:0:
436,76,79890,1,0,0:0:0:0:
468,88,79977,1,0,0:0:0:0:
488,112,80063,1,0,0:0:0:0:
492,144,80150,2,0,L|488:220,1,47.5,8|0,0:0|0:0,0:0:0:0:
480,264,80324,1,0,0:0:0:0:
360,348,80497,6,0,P|372:300|400:256,1,95
248,176,80844,2,0,L|252:284,1,95,8|0,0:0|0:0,0:0:0:0:
268,288,81104,1,0,0:0:0:0:
332,188,81277,1,0,0:0:0:0:
332,188,81364,1,0,0:0:0:0:
172,252,81537,2,0,L|88:248,1,47.5,8|0,0:0|0:0,0:0:0:0:
52,248,81711,1,0,0:0:0:0:
32,96,81884,6,0,B|36:148|36:148|24:184|24:184|32:248,1,142.5
52,248,82231,1,8,0:0:0:0:
116,60,82404,1,0,0:0:0:0:
116,60,82491,1,0,0:0:0:0:
208,88,82665,1,0,0:0:0:0:
240,96,82751,1,0,0:0:0:0:
272,92,82838,1,0,0:0:0:0:
300,76,82925,2,0,L|416:72,1,95,8|0,0:0|0:0,0:0:0:0:
480,216,83271,6,0,B|488:168|488:168|464:108,1,95
408,248,83618,2,0,B|400:296|400:296|424:356,1,95,8|0,0:0|0:0,0:0:0:0:
444,340,83878,1,0,0:0:0:0:
408,172,84052,1,0,0:0:0:0:
408,172,84139,1,0,0:0:0:0:
288,280,84312,2,0,L|156:272,1,95,8|0,0:0|0:0,0:0:0:0:
128,240,84572,1,0,0:0:0:0:
128,240,84659,6,0,P|80:232|36:268,1,95
92,352,84919,2,0,P|100:328|92:288,1,47.5,0|8,0:0|0:0,0:0:0:0:
20,328,85092,1,0,0:0:0:0:
204,204,85266,1,0,0:0:0:0:
236,204,85352,1,0,0:0:0:0:
268,188,85439,1,0,0:0:0:0:
284,160,85526,2,0,L|288:92,1,47.5
212,120,85699,2,0,L|216:52,1,47.5,8|0,0:0|0:0,0:0:0:0:
288,36,85873,1,0,0:0:0:0:
356,208,86046,6,0,P|348:256|376:304,1,95
424,244,86306,2,0,L|484:236,2,47.5,0|8|0,0:0|0:0|0:0,0:0:0:0:
440,320,86566,1,0,0:0:0:0:
312,352,86740,6,0,L|224:344,1,47.5
244,344,86913,1,0,0:0:0:0:
188,288,87000,2,0,L|100:296,1,47.5,0|8,0:0|0:0,0:0:0:0:
120,296,87173,1,0,0:0:0:0:
68,352,87260,2,0,L|-20:344,1,47.5
0,336,87433,5,0,0:0:0:0:
40,268,87607,1,0,0:0:0:0:
40,268,87693,1,2,0:0:0:0:
32,120,87867,1,0,0:0:0:0:
32,120,87954,1,2,0:0:0:0:
112,220,88127,1,0,0:0:0:0:
112,220,88213,1,2,0:0:0:0:
104,72,88387,1,0,0:0:0:0:
136,84,88474,1,2,0:0:0:0:
168,88,88561,1,0,0:0:0:0:
200,80,88647,1,2,0:0:0:0:
228,64,88734,1,0,0:0:0:0:
244,36,88821,6,0,L|360:32,1,95,4|0,0:0|0:0,0:0:0:0:
496,116,89167,2,0,L|380:120,1,95,8|0,0:0|0:0,0:0:0:0:
376,136,89428,2,0,B|368:184|368:184|384:236,1,95
408,248,89688,1,0,0:0:0:0:
248,296,89861,2,0,L|364:300,1,95,8|0,0:0|0:0,0:0:0:0:
152,340,90208,5,0,0:0:0:0:
156,244,90381,1,0,0:0:0:0:
132,212,90468,1,0,0:0:0:0:
100,192,90555,1,8,0:0:0:0:
64,188,90641,2,0,P|44:192|8:208,1,47.5
64,312,90815,2,0,P|70:292|74:253,1,47.5
0,272,90988,1,0,0:0:0:0:
88,100,91162,1,0,0:0:0:0:
123,113,91248,1,8,0:0:0:0:
161,115,91335,1,0,0:0:0:0:
197,103,91422,2,0,P|201:65|203:38,1,47.5
246,165,91595,6,0,P|250:218|254:272,2,95,0|0|8,0:0|0:0|0:0,0:0:0:0:
280,328,92115,1,0,0:0:0:0:
280,328,92202,2,0,P|324:344|368:324,1,95
324,268,92462,2,0,P|368:252|412:272,1,95,0|8,0:0|0:0,0:0:0:0:
428,288,92722,1,0,0:0:0:0:
440,312,92809,1,0,0:0:0:0:
476,120,92982,6,0,B|484:168|484:168|476:216,1,95
328,168,93329,2,0,B|320:120|320:120|328:72,1,95,8|0,0:0|0:0,0:0:0:0:
348,56,93589,1,0,0:0:0:0:
400,144,93763,1,0,0:0:0:0:
400,144,93850,1,0,0:0:0:0:
264,208,94023,2,0,L|136:200,1,95,8|0,0:0|0:0,0:0:0:0:
72,56,94370,6,0,P|68:100|84:156,1,95
92,256,94717,2,0,P|96:300|80:356,1,95,8|0,0:0|0:0,0:0:0:0:
56,352,94977,1,0,0:0:0:0:
176,304,95150,1,0,0:0:0:0:
176,304,95237,2,0,L|292:300,2,95,0|8|0,0:0|0:0|0:0,0:0:0:0:
352,296,95757,5,0,0:0:0:0:
432,344,95930,1,0,0:0:0:0:
445,313,96017,1,0,0:0:0:0:
444,279,96104,1,8,0:0:0:0:
430,248,96191,1,0,0:0:0:0:
392,161,96364,1,0,0:0:0:0:
375,131,96451,1,0,0:0:0:0:
373,98,96537,1,0,0:0:0:0:
381,65,96624,1,0,0:0:0:0:
400,37,96711,1,0,0:0:0:0:
431,24,96798,2,0,L|486:32,1,47.5,8|0,0:0|0:0,0:0:0:0:
452,104,96971,1,0,0:0:0:0:
324,208,97144,6,0,L|208:204,1,95
180,288,97491,2,0,L|296:292,1,95,8|0,0:0|0:0,0:0:0:0:
272,120,97838,1,0,0:0:0:0:
176,116,98011,2,0,L|168:64,1,47.5
148,52,98185,1,8,0:0:0:0:
100,112,98271,2,0,L|108:164,1,47.5
8,204,98532,6,0,L|20:308,1,95
44,320,98792,1,0,0:0:0:0:
68,340,98878,2,0,L|124:332,1,47.5,8|0,0:0|0:0,0:0:0:0:
132,308,99052,2,0,P|176:296|224:312,1,95
248,328,99312,1,0,0:0:0:0:
280,340,99399,1,0,0:0:0:0:
312,332,99485,1,0,0:0:0:0:
336,308,99572,2,0,L|460:304,1,95,8|0,0:0|0:0,0:0:0:0:
476,144,99919,6,0,B|488:188|488:188|476:248,2,95,0|0|8,0:0|0:0|0:0,0:0:0:0:
356,184,100439,2,0,L|408:188,1,47.5
508,64,100699,2,0,L|456:60,1,47.5
276,232,100959,2,0,B|264:188|264:188|276:128,1,95,8|0,0:0|0:0,0:0:0:0:
156,40,101306,5,0,0:0:0:0:
140,140,101479,1,0,0:0:0:0:
112,156,101566,1,0,0:0:0:0:
80,160,101653,1,8,0:0:0:0:
48,148,101739,1,0,0:0:0:0:
32,320,101913,2,0,P|28:268|20:216,2,95,0|0|0,0:0|0:0|0:0,0:0:0:0:
64,308,102347,1,8,0:0:0:0:
96,308,102433,1,0,0:0:0:0:
128,324,102520,1,0,0:0:0:0:
228,352,102693,5,0,0:0:0:0:
328,256,102867,1,0,0:0:0:0:
228,256,103040,1,8,0:0:0:0:
328,352,103214,1,0,0:0:0:0:
328,352,103300,2,0,L|440:344,1,95
440,340,103561,2,0,B|452:292|452:292|432:236,1,95,0|8,0:0|0:0,0:0:0:0:
408,160,103907,1,0,0:0:0:0:
228,152,104081,6,0,L|336:156,1,95
476,72,104428,2,0,L|368:76,1,95,8|0,0:0|0:0,0:0:0:0:
368,84,104688,1,0,0:0:0:0:
156,208,104861,1,0,0:0:0:0:
144,192,104948,2,0,P|136:140|160:96,1,95,0|8,0:0|0:0,0:0:0:0:
240,64,105295,1,0,0:0:0:0:
120,288,105468,6,0,L|4:284,2,95,0|0|8,0:0|0:0|0:0,0:0:0:0:
192,348,105988,1,0,0:0:0:0:
220,336,106075,2,0,P|236:292|208:228,1,95
244,220,106335,2,0,L|356:212,1,95,0|8,0:0|0:0,0:0:0:0:
284,136,106682,1,0,0:0:0:0:
316,292,106855,6,0,L|428:284,1,95,0|0,0:0|0:0,0:0:0:0:
428,256,107115,1,0,0:0:0:0:
448,228,107202,1,8,0:0:0:0:
468,200,107289,1,0,0:0:0:0:
472,48,107462,2,0,L|480:116,1,47.5
400,72,107636,2,0,L|408:140,1,47.5
324,56,107809,2,0,L|332:124,1,47.5,0|8,0:0|0:0,0:0:0:0:
252,80,107982,1,0,0:0:0:0:
252,80,108069,2,0,L|260:160,1,47.5
248,148,108243,5,0,0:0:0:0:
108,160,108416,1,0,0:0:0:0:
236,232,108589,1,8,0:0:0:0:
172,104,108763,1,0,0:0:0:0:
144,240,108936,2,0,L|32:236,1,95
28,256,109196,1,0,0:0:0:0:
8,276,109283,1,8,0:0:0:0:
12,304,109370,1,0,0:0:0:0:
16,332,109457,2,0,L|95:328,1,47.5
140,344,109631,5,4,0:2:0:0:
256,328,109803,5,0,0:0:0:0:
256,328,109890,1,4,0:2:0:0:
372,344,110063,5,0,0:0:0:0:
372,344,110150,1,4,0:2:0:0:
256,240,110324,5,0,0:0:0:0:
256,240,110410,1,4,0:2:0:0:
160,92,110584,6,0,L|172:152,1,47.5,0|4,0:0|0:2,0:0:0:0:
256,96,110757,1,0,0:0:0:0:
352,92,110844,2,0,L|340:152,1,47.5,8|0,0:0|0:0,0:0:0:0:
424,136,111017,6,0,P|464:200|420:272,1,142.500005435944,4|0,0:2|0:0,0:0:0:0:
336,340,111277,2,0,P|296:276|340:204,1,142.500005435944,4|0,0:2|0:0,0:0:0:0:
420,140,111537,6,0,P|460:204|416:276,1,142.500005435944,4|0,0:2|0:0,0:0:0:0:
332,344,111797,2,0,P|292:280|336:208,1,142.500005435944,4|0,0:2|0:0,0:0:0:0:
388,208,112058,1,8,0:0:0:0:
88,136,112404,6,0,P|48:200|92:272,1,142.500005435944,4|0,0:2|0:0,0:0:0:0:
176,340,112664,2,0,P|216:276|172:204,1,142.500005435944,4|0,0:2|0:0,0:0:0:0:
92,140,112924,6,0,P|52:204|96:276,1,142.500005435944,4|0,0:2|0:0,0:0:0:0:
180,344,113184,2,0,P|220:280|176:208,1,142.500005435944,4|0,0:2|0:0,0:0:0:0:
124,208,113445,1,8,0:0:0:0:
320,56,113792,6,0,P|256:28|192:56,1,142.500005435944,4|0,0:2|0:0,0:0:0:0:
192,176,114052,2,0,P|256:204|320:176,1,142.500005435944,4|0,0:2|0:0,0:0:0:0:
320,64,114312,6,0,P|256:36|192:64,1,142.500005435944,4|0,0:2|0:0,0:0:0:0:
192,184,114572,2,0,P|256:212|320:184,1,142.500005435944,4|0,0:2|0:0,0:0:0:0:
256,120,114832,1,8,0:0:0:0:
460,352,115179,6,0,P|464:276|412:228,1,142.500005435944,4|0,0:2|0:0,0:0:0:0:
396,304,115439,1,4,0:2:0:0:
256,276,115613,1,0,0:0:0:0:
320,328,115699,2,0,P|256:356|192:328,1,142.500005435944,4|0,0:2|0:0,0:0:0:0:
180,248,115959,2,0,P|116:220|52:248,1,142.500005435944,4|0,0:2|0:0,0:0:0:0:
116,296,116219,1,8,0:0:0:0:
424,248,116566,6,0,P|464:184|420:112,1,142.500005435944,4|0,0:2|0:0,0:0:0:0:
336,44,116826,2,0,P|296:108|340:180,1,142.500005435944,4|0,0:2|0:0,0:0:0:0:
420,244,117086,6,0,P|460:180|416:108,1,142.500005435944,4|0,0:2|0:0,0:0:0:0:
332,40,117346,2,0,P|292:104|336:176,1,142.500005435944,4|0,0:2|0:0,0:0:0:0:
388,176,117607,1,8,0:0:0:0:
88,248,117953,6,0,P|48:184|92:112,1,142.500005435944,4|0,0:2|0:0,0:0:0:0:
176,44,118213,2,0,P|216:108|172:180,1,142.500005435944,4|0,0:2|0:0,0:0:0:0:
92,244,118473,6,0,P|52:180|96:108,1,142.500005435944,4|0,0:2|0:0,0:0:0:0:
180,40,118733,2,0,P|220:104|176:176,1,142.500005435944,4|0,0:2|0:0,0:0:0:0:
124,176,118994,1,8,0:0:0:0:
320,328,119341,6,0,P|256:356|192:328,1,142.500005435944,4|0,0:2|0:0,0:0:0:0:
192,208,119601,2,0,P|256:180|320:208,1,142.500005435944,4|0,0:2|0:0,0:0:0:0:
320,320,119861,6,0,P|256:348|192:320,1,142.500005435944,4|0,0:2|0:0,0:0:0:0:
192,200,120121,2,0,P|256:172|320:200,1,142.500005435944,4|0,0:2|0:0,0:0:0:0:
256,264,120381,1,8,0:0:0:0:
460,32,120728,6,0,P|464:108|412:156,1,142.500005435944,4|0,0:2|0:0,0:0:0:0:
396,80,120988,1,4,0:2:0:0:
256,108,121162,1,0,0:0:0:0:
320,56,121248,2,0,P|256:28|192:56,1,142.500005435944,4|0,0:2|0:0,0:0:0:0:
180,136,121508,2,0,P|116:164|52:136,1,142.500005435944,4|0,0:2|0:0,0:0:0:0:
116,88,121768,1,8,0:0:0:0:
116,240,121942,1,8,0:0:0:0:
256,320,122115,6,0,B|320:316|320:316|360:336|360:336|436:328,1,170.999994781494,4|0,0:2|0:0,0:0:0:0:
512,220,122376,2,0,B|448:224|448:224|408:204|408:204|332:212,1,170.999994781494,4|0,0:2|0:0,0:0:0:0:
248,304,122636,6,0,B|312:300|312:300|352:320|352:320|428:312,1,170.999994781494,4|0,0:2|0:0,0:0:0:0:
504,204,122897,2,0,B|440:208|440:208|400:188|400:188|324:196,1,170.999994781494,4|0,0:2|0:0,0:0:0:0:
264,176,123156,6,0,P|284:136|320:120,1,85.4999973907472,8|0,0:0|0:0,0:0:0:0:
256,64,123503,6,0,B|192:68|192:68|152:48|152:48|76:56,1,170.999994781494,4|0,0:2|0:0,0:0:0:0:
0,164,123764,2,0,B|64:160|64:160|104:180|104:180|180:172,1,170.999994781494,4|0,0:2|0:0,0:0:0:0:
264,80,124024,6,0,B|200:84|200:84|160:64|160:64|84:72,1,170.999994781494,4|0,0:2|0:0,0:0:0:0:
8,180,124285,2,0,B|72:176|72:176|112:196|112:196|188:188,1,170.999994781494,4|0,0:2|0:0,0:0:0:0:
248,208,124544,6,0,P|228:248|192:264,1,85.4999973907472,8|0,0:0|0:0,0:0:0:0:
120,304,124890,6,0,P|184:288|268:348,1,170.999994781494,4|0,0:2|0:0,0:0:0:0:
360,288,125150,2,0,P|424:304|508:244,1,170.999994781494,4|0,0:2|0:0,0:0:0:0:
506,135,125410,2,0,P|442:83|360:96,1,170.999994781494,4|0,0:2|0:0,0:0:0:0:
266,40,125670,2,0,P|202:92|120:80,1,170.999994781494,4|0,0:2|0:0,0:0:0:0:
28,104,125930,6,0,L|32:204,1,85.4999973907472,8|0,0:0|0:0,0:0:0:0:
36,268,126277,6,0,B|80:252|104:272|104:272|112:248|112:248|144:268|192:244,1,170.999994781494,4|0,0:2|0:0,0:0:0:0:
148,156,126537,2,0,P|140:72|212:24,1,170.999994781494,4|0,0:2|0:0,0:0:0:0:
308,24,126798,2,0,P|373:74|364:156,1,170.999994781494,4|0,0:2|0:0,0:0:0:0:
328,248,127058,2,0,B|368:268|400:248|400:248|408:272|408:272|432:252|476:268,1,170.999994781494,4|0,0:2|0:0,0:0:0:0:
452,348,127318,1,8,0:0:0:0:
24,144,127665,6,0,L|32:344,1,190,4|0,0:2|0:0,0:0:0:0:
196,260,127925,2,0,L|188:60,1,190,4|0,0:2|0:0,0:0:0:0:
32,136,128185,6,0,L|40:336,1,190,4|0,0:2|0:0,0:0:0:0:
204,252,128445,2,0,L|196:52,1,190,4|0,0:2|0:0,0:0:0:0:
296,52,128705,6,0,L|300:24,1,23.75,8|0,0:0|0:0,0:0:0:0:
404,96,128878,2,0,L|420:68,1,23.75
488,144,129052,6,0,L|480:344,1,190,4|0,0:2|0:0,0:0:0:0:
316,260,129312,2,0,L|324:60,1,190,4|0,0:2|0:0,0:0:0:0:
480,136,129572,6,0,L|472:336,1,190,4|0,0:2|0:0,0:0:0:0:
308,252,129832,2,0,L|316:52,1,190,4|0,0:2|0:0,0:0:0:0:
216,52,130092,6,0,L|212:24,1,23.75,8|0,0:0|0:0,0:0:0:0:
108,96,130265,2,0,L|92:68,1,23.75
20,176,130439,6,0,P|92:144|180:224,1,190,4|0,0:2|0:0,0:0:0:0:
156,304,130699,2,0,P|84:336|-4:256,1,190,4|0,0:2|0:0,0:0:0:0:
88,240,130959,2,0,B|152:232|152:232|200:260|200:260|304:248,1,190,4|0,0:2|0:0,0:0:0:0:
404,184,131219,2,0,B|340:192|340:192|292:164|292:164|188:176,1,190,4|0,0:2|0:0,0:0:0:0:
156,112,131480,6,0,L|144:72,1,23.75,8|0,0:0|0:0,0:0:0:0:
252,24,131653,2,0,L|248:68,1,23.75
352,104,131826,6,0,L|472:80,2,95,4|0|0,0:2|0:0|0:0,0:0:0:0:
328,236,132087,2,0,L|356:348,2,95,4|0|0,0:2|0:0|0:0,0:0:0:0:
184,236,132347,2,0,L|156:348,2,95,4|0|0,0:2|0:0|0:0,0:0:0:0:
160,104,132607,2,0,L|40:80,2,95,4|0|0,0:2|0:0|0:0,0:0:0:0:
320,56,132867,6,0,P|328:104|320:156,1,95,4|0,0:2|0:0,0:0:0:0:
190,149,133040,2,0,P|184:102|192:56,1,95,4|0,2:0|0:0,0:0:0:0:
256,104,133214,1,4,0:0:0:0:
