osu file format v5

[General]
AudioFilename: Bubble_Bobble_Hillbilly_Rodeo_OC_ReMix.mp3
AudioLeadIn: 0
PreviewTime: -1
Countdown: 1
SampleSet: Normal
StackLeniency: 0.7
Mode: 0
EditorBookmarks: 52691

[Metadata]
Title:Bubble Bobble Hillbilly Rodeo ReMix
Artist:djpretzel
Creator:buraimaster1234
Version:Normal
Source:
Tags:

[Difficulty]
HPDrainRate:3
CircleSize:3
OverallDifficulty:3
SliderMultiplier:1.6
SliderTickRate:1

[Events]
//Background and Video events
0,0,"Bubble_Bobble_Bub.jpg"
//Break Periods
2,11220,13442
2,14692,16915
2,18165,20387
2,21637,23590
2,52674,65248
2,93695,99869
//Storyboard Layer 0 (Background)
//Storyboard Layer 1 (Failing)
//Storyboard Layer 2 (Passing)
//Storyboard Layer 3 (Foreground)
//Storyboard Sound Samples
//Background Colour Transformations
3,100,163,162,255

[TimingPoints]
11020,434.082608695652,4,1,0,100

[HitObjects]
256,192,6570,12,0,11020
352,96,14492,5,0
352,288,17965,1,0
160,96,21437,1,0
160,288,24910,5,0
64,224,25344,1,0
128,128,25778,1,0
192,128,25995,2,0,B|288:128,2,80
192,192,26646,5,0
288,192,27081,1,0
384,192,27515,1,0
384,256,27732,2,0,B|320:288|288:256,2,80
384,192,28383,1,0
256,96,29251,5,0
96,224,30119,6,0,C|64:256|96:288,2,80
224,288,30987,2,0,C|256:320|288:288,2,80
192,192,31855,5,0
320,192,32290,1,0
256,96,32724,1,0
224,128,32941,2,2,B|160:192,2,80
256,96,33592,5,0
320,160,34026,1,0
224,192,34460,1,0
256,224,34677,2,2,B|320:288,2,80
224,160,35328,2,2,B|416:160,1,160
288,288,37064,2,6,B|96:288,1,160
480,208,38367,5,2
384,288,38801,1,4
320,304,39018,1,0
192,304,39452,1,0
128,304,39669,1,4
48,192,40103,5,2
128,96,40537,1,4
192,80,40754,1,0
320,80,41188,1,0
384,80,41405,1,4
464,192,41839,5,2
384,288,42273,1,4
320,304,42490,1,0
192,304,42925,1,0
128,304,43142,1,4
48,192,43576,5,2
144,112,44010,1,4
256,80,44444,1,4
368,80,44878,1,4
352,192,45312,5,4
224,192,45746,1,4
160,224,45963,1,0
240,288,46397,1,0
304,288,46614,1,4
384,208,47048,5,6
304,112,47482,1,4
256,160,47699,1,0
160,128,48134,1,0
96,160,48351,1,4
160,128,48785,5,6
224,192,49219,1,4
160,224,49436,1,0
240,288,49870,1,0
304,288,50087,1,4
384,224,50521,5,6
352,128,50955,1,4
256,160,51389,1,4
320,240,51823,1,4
240,288,52257,1,4
192,160,66148,5,6
256,224,66582,1,6
320,288,67016,2,0,B|128:288,1,160
320,160,67884,5,6
256,224,68318,1,6
192,288,68752,2,0,B|384:288,1,160
320,224,69621,5,6
256,160,70055,1,6
192,96,70489,2,0,B|384:96,1,160
320,192,71357,1,6
224,192,71791,1,6
160,96,73093,5,6
272,96,73527,1,6
384,96,73961,2,0,B|512:96|448:192,1,160
352,192,74830,5,6
240,192,75264,1,6
128,192,75698,2,0,B|0:192|64:288,1,160
160,288,76566,5,6
272,288,77000,1,6
384,288,77434,2,0,B|512:288|448:192,1,160
352,192,78302,5,6
240,192,78736,1,6
128,192,79170,2,0,B|0:192|64:96,1,160
416,128,80473,5,0
352,96,80690,1,0
320,160,80907,2,0,B|192:288,1,160
128,288,81558,1,0
64,256,81775,2,0,B|192:128,1,160
232,192,82426,1,0
296,152,82643,1,0
416,160,83077,2,0,B|256:320,1,160
240,304,83728,5,0
176,320,83945,1,0
64,320,84379,1,0
80,208,84814,1,0
144,176,85031,1,0
208,176,85248,1,0
320,192,85682,5,0
352,128,85899,1,0
416,96,86116,1,0
480,192,86550,2,0,B|480:256|448:288,1,80
408,320,86984,1,0
336,320,87201,1,0
264,296,87418,5,0
240,224,87635,1,0
320,224,87852,2,0,B|192:96,1,160
128,96,88503,1,0
64,128,88720,2,0,B|192:256,1,160
232,192,89371,1,0
296,152,89588,1,0
416,224,90023,2,0,B|256:64,1,160
240,80,90673,5,0
176,64,90890,1,0
64,64,91324,1,0
80,176,91759,1,0
144,208,91976,1,0
208,208,92193,1,0
320,192,92627,5,0
352,256,92844,1,0
416,288,93061,1,0
448,224,93278,2,0,B|384:160,1,80
96,96,101309,5,0
160,96,101526,1,0
224,96,101743,1,0
288,96,101960,1,0
392,136,102394,5,0
448,224,102828,1,0
384,256,103045,1,0
320,256,103262,1,0
256,256,103479,1,0
192,256,103696,1,0
88,216,104130,5,0
32,128,104564,1,0
96,96,104781,1,0
160,96,104998,1,0
224,96,105215,1,0
288,96,105432,1,0
352,96,105650,5,0
416,128,105867,2,0,C|384:224,1,80
320,192,106301,2,0,C|256:288,1,80
208,256,106735,2,0,C|144:320,1,80
128,248,107169,1,0
184,200,107386,5,0
248,96,107820,1,0
352,160,108254,5,4
256,256,108688,1,4
160,160,109122,1,4
96,256,109990,5,0
160,288,110207,1,0
192,224,110424,2,0,B|320:96,1,160
384,96,111075,1,0
448,128,111292,2,0,B|320:256,1,160
280,192,111944,1,0
216,232,112161,1,0
96,224,112595,2,0,B|256:64,1,160
272,80,113245,5,0
336,64,113462,1,0
448,64,113896,1,0
432,176,114331,1,0
368,208,114548,1,0
304,208,114765,1,0
192,192,115199,5,0
160,256,115416,1,0
96,288,115633,1,0
32,192,116067,2,0,B|32:128|64:96,1,80
104,64,116501,1,0
176,64,116718,1,0
248,88,116935,5,0
272,160,117152,1,0
192,160,117369,2,0,B|320:288,1,160
384,288,118020,1,0
448,256,118237,2,0,B|320:128,1,160
280,192,118889,1,0
216,152,119106,1,0
96,160,119540,2,0,B|256:320,1,160
272,304,120190,5,0
336,320,120407,1,0
448,320,120841,1,0
432,208,121276,1,0
368,176,121493,1,0
304,176,121710,1,0
192,192,122144,5,0
160,128,122361,1,0
96,96,122578,1,0
64,160,122795,2,0,B|128:224,1,80
256,256,123447,5,4
