osu file format v5

[General]
AudioFilename: Bubble_Bobble_Hillbilly_Rodeo_OC_ReMix.mp3
AudioLeadIn: 0
PreviewTime: -1
Countdown: 1
SampleSet: Normal
StackLeniency: 0.7
Mode: 0
EditorBookmarks: 52691

[Metadata]
Title:Bubble Bobble Hillbilly Rodeo ReMix
Artist:djpretzel
Creator:buraimaster1234
Version:Easy
Source:
Tags:

[Difficulty]
HPDrainRate:2
CircleSize:3
OverallDifficulty:2
SliderMultiplier:1.4
SliderTickRate:1

[Events]
//Background and Video events
0,0,"Bubble_Bobble_Bub.jpg"
//Break Periods
2,11220,13442
2,14692,16915
2,18165,20387
2,21637,23590
2,52674,65248
2,93695,99749
//Storyboard Layer 0 (Background)
//Storyboard Layer 1 (Failing)
//Storyboard Layer 2 (Passing)
//Storyboard Layer 3 (Foreground)
//Storyboard Sound Samples
//Background Colour Transformations
3,100,163,162,255

[TimingPoints]
11020,434.082608695652,4,1,0,100

[HitObjects]
256,192,6570,12,0,11020
352,96,14492,5,0
352,288,17965,1,0
160,96,21437,1,0
160,288,24910,5,0
64,224,25344,1,0
128,128,25778,2,0,B|288:128,1,140
352,128,26646,5,0
448,192,27081,1,0
384,288,27515,2,0,B|224:288,2,140
304,144,29251,5,0
192,160,30119,5,0
192,240,30553,1,0
256,288,30987,1,0
336,288,31421,1,0
416,224,31855,5,0
352,160,32290,1,0
288,224,32724,2,2,B|160:96,2,140
192,224,34026,1,0
96,224,34460,2,2,B|224:96,1,140
288,128,35328,2,2,B|480:128,1,140
288,256,37064,2,6,B|96:256,1,140
32,208,38367,5,2
128,288,38801,1,4
224,288,39235,1,0
320,288,39669,1,4
416,256,40103,5,2
480,160,40537,1,4
416,96,40971,1,0
352,160,41405,1,4
288,96,41839,5,2
224,160,42273,1,4
128,160,42708,1,0
64,224,43142,1,4
64,320,43576,5,2
128,256,44010,1,4
192,320,44444,1,4
256,256,44878,1,4
192,192,45312,5,4
288,192,45746,1,4
384,192,46180,1,0
384,288,46614,1,4
288,288,47048,5,6
192,288,47482,1,4
96,288,47917,1,0
96,192,48351,1,4
128,96,48785,5,6
192,160,49219,1,4
256,96,49653,1,0
320,160,50087,1,4
416,128,50521,5,6
448,224,50955,1,4
352,224,51389,1,4
384,320,51823,1,4
288,288,52257,1,4
192,160,66148,5,6
256,224,66582,1,6
320,160,67884,5,6
256,224,68318,1,6
192,224,69621,5,6
256,160,70055,1,6
320,224,71357,5,6
256,160,71791,1,6
160,96,73093,5,6
272,96,73527,1,6
352,192,74830,5,6
240,192,75264,1,6
160,288,76566,5,6
272,288,77000,1,6
352,192,78302,5,6
240,192,78736,1,6
416,128,80473,5,0
320,160,80907,2,0,B|192:288,1,140
64,256,81775,2,0,B|192:128,1,140
288,128,82643,1,0
416,160,83077,2,0,B|288:288,1,140
224,320,83945,5,0
128,288,84379,1,0
128,192,84814,2,0,B|224:192,1,70
256,192,85248,1,0
384,192,85682,2,0,B|352:128,1,70
416,96,86116,1,0
480,192,86550,2,0,B|480:256|448:288,1,70
416,312,86984,1,0
304,320,87418,5,0
320,224,87852,2,0,B|192:96,1,140
64,128,88720,2,0,B|192:256,1,140
288,256,89588,1,0
416,224,90023,2,0,B|288:96,1,140
224,64,90890,5,0
128,96,91324,1,0
128,192,91759,2,0,B|224:192,1,70
256,192,92193,1,0
384,192,92627,2,0,B|352:256,1,70
416,288,93061,1,0
464,192,93495,1,0
352,128,101309,6,0,B|512:128,2,140
256,160,102611,1,0
160,192,103045,2,0,B|0:192,2,140
256,224,104347,1,0
320,288,104781,2,0,B|416:288,4,70
240,288,105867,2,0,B|144:288,6,70
320,288,107386,5,0
224,208,107820,1,0
256,96,108254,5,4
320,192,108688,1,4
192,192,109122,1,4
96,256,109990,5,0
192,224,110424,2,0,B|320:96,1,140
448,128,111292,2,0,B|320:256,1,140
224,256,112160,1,0
96,224,112595,2,0,B|224:96,1,140
288,64,113462,5,0
384,96,113896,1,0
384,192,114331,2,0,B|288:192,1,70
256,192,114765,1,0
128,192,115199,2,0,B|160:256,1,70
96,288,115633,1,0
32,192,116067,2,0,B|32:128|64:96,1,70
96,72,116501,1,0
208,64,116935,5,0
192,160,117369,2,0,B|320:288,1,140
448,256,118237,2,0,B|320:128,1,140
224,128,119105,1,0
96,160,119540,2,0,B|224:288,1,140
288,320,120407,5,0
384,288,120841,1,0
384,192,121276,2,0,B|288:192,1,70
256,192,121710,1,0
128,192,122144,2,0,B|160:128,1,70
96,96,122578,1,0
48,192,123012,1,0
128,256,123447,1,4
