osu file format v14

[General]
AudioFilename: TheoryOfEverything.mp3
AudioLeadIn: 0
PreviewTime: -1
Countdown: 1
SampleSet: None
StackLeniency: 0.7
Mode: 0
LetterboxInBreaks: 1
WidescreenStoryboard: 1

[Editor]
DistanceSpacing: 1
BeatDivisor: 4
GridSize: 4
TimelineZoom: 1

[Metadata]
Title:Theory of everything
TitleUnicode:Theory of everything
Artist:dj-Nate
ArtistUnicode:dj-Nate
Creator:MastermanGD
Version:Normal
Source:
Tags:
BeatmapID:732315
BeatmapSetID:330424

[Difficulty]
HPDrainRate:5
CircleSize:5
OverallDifficulty:5
ApproachRate:5
SliderMultiplier:0.999999904632566
SliderTickRate:1

[Events]
//Background and Video events
//Break Periods
2,43912,50481
2,74498,81770
//Storyboard Layer 0 (Background)
//Storyboard Layer 1 (Fail)
//Storyboard Layer 2 (Pass)
//Storyboard Layer 3 (Foreground)
//Storyboard Sound Samples

[TimingPoints]
2,468.75,4,1,0,100,1,0

[HitObjects]
256,148,7384,5,0,0:0:0:0:
320,268,7853,2,0,L|440:276,1,99.9999904632566
332,152,8556,1,0,0:0:0:0:
316,264,8791,1,0,0:0:0:0:
224,240,9142,1,0,0:0:0:0:
148,288,9494,1,0,0:0:0:0:
264,344,9845,1,0,0:0:0:0:
320,176,10080,2,0,L|320:80,1,74.9999928474425
272,92,10783,1,0,0:0:0:0:
192,92,11134,1,0,0:0:0:0:
304,268,11603,2,0,L|304:184,1,74.9999928474425
292,136,12306,1,0,0:0:0:0:
236,56,12658,2,0,L|148:56,1,74.9999928474425
156,244,13361,1,0,0:0:0:0:
156,108,14064,6,0,L|156:196,1,74.9999928474425
248,264,14767,1,0,0:0:0:0:
348,188,15119,1,0,0:0:0:0:
464,188,15470,1,0,0:0:0:0:
348,8,15587,1,0,0:0:0:0:
256,124,15939,1,0,0:0:0:0:
140,124,16291,2,0,L|140:216,1,74.9999928474425
252,340,17111,1,0,0:0:0:0:
392,192,17462,2,0,L|392:156|392:144,1,24.9999976158142
248,244,18166,2,0,L|156:244,1,74.9999928474425
208,184,18869,1,0,0:0:0:0:
320,244,20041,1,0,0:0:0:0:
388,244,20158,1,0,0:0:0:0:
456,244,20275,1,0,0:0:0:0:
256,192,20509,12,0,21798,0:0:0:0:
308,56,22384,6,0,L|308:116,1,49.9999952316283
256,128,22853,1,0,0:0:0:0:
256,196,23087,2,0,L|256:256,1,49.9999952316283
320,308,23556,2,0,L|392:308,1,49.9999952316283
460,224,23908,1,0,0:0:0:0:
372,156,24142,2,0,L|372:112,1,24.9999976158142
260,88,24611,1,0,0:0:0:0:
372,224,24962,1,0,0:0:0:0:
264,292,25314,2,0,L|196:292,1,49.9999952316283
352,292,25900,22,0,L|320:292,1,24.9999976158142
268,152,26369,2,0,L|268:96,1,49.9999952316283
268,40,26955,1,0,0:0:0:0:
184,68,27306,1,0,0:0:0:0:
364,68,27541,1,0,0:0:0:0:
364,148,27775,2,0,L|364:264,1,99.9999904632566
184,136,28595,2,0,P|184:164|248:192,1,99.9999904632566
272,136,29533,1,0,0:0:0:0:
272,68,30002,6,0,L|192:68,1,74.9999928474425
200,136,30705,1,0,0:0:0:0:
236,264,30939,2,0,L|236:316,1,49.9999952316283
308,272,31759,2,0,L|400:272,1,74.9999928474425
304,128,32697,1,0,0:0:0:0:
308,272,32814,1,0,0:0:0:0:
236,272,33283,2,0,P|196:272|196:244,1,74.9999928474425
200,180,33869,1,0,0:0:0:0:
300,184,34220,2,0,L|324:184,1,24.9999976158142
408,116,34455,1,0,0:0:0:0:
408,188,34572,2,0,L|412:272,1,74.9999928474425
256,188,36916,1,0,0:0:0:0:
256,80,37384,1,0,0:0:0:0:
168,76,37853,5,0,0:0:0:0:
168,192,38322,1,0,0:0:0:0:
232,192,38791,2,0,L|332:192,1,99.9999904632566
232,256,39494,2,0,L|284:300,1,49.9999952316283
256,188,40548,5,0,0:0:0:0:
256,120,40900,1,0,0:0:0:0:
256,56,41252,1,0,0:0:0:0:
336,188,41486,2,0,L|416:136,1,74.9999928474425
260,120,42423,1,0,0:0:0:0:
260,192,42775,1,0,0:0:0:0:
260,264,43127,1,0,0:0:0:0:
332,116,43361,2,0,L|408:176,1,74.9999928474425
256,192,51681,12,0,53439,0:0:0:0:
332,104,53791,6,0,L|332:220,1,99.9999904632566
256,272,54494,1,0,0:0:0:0:
256,32,54728,1,0,0:0:0:0:
192,248,54962,2,0,L|192:304,1,49.9999952316283
188,168,55548,2,0,P|256:232|268:232,1,99.9999904632566
256,192,56720,5,0,0:0:0:0:
256,336,56955,2,0,L|256:252,1,74.9999928474425
184,64,57541,1,0,0:0:0:0:
180,156,57775,2,0,L|260:104,1,74.9999928474425
312,140,58361,2,0,L|372:200,1,74.9999928474425
380,256,58830,2,0,L|312:308,1,74.9999928474425
248,288,59298,2,0,L|196:220,1,74.9999928474425
396,176,59884,1,0,0:0:0:0:
256,188,60822,1,0,0:0:0:0:
188,184,61291,2,0,L|124:184,1,49.9999952316283
324,188,61877,1,0,0:0:0:0:
324,120,62345,2,0,L|172:120,1,149.999985694885
256,192,64103,2,0,L|256:40,1,149.999985694885
176,56,65392,1,0,0:0:0:0:
240,56,65509,2,0,L|304:56,1,49.9999952316283
176,120,65861,2,0,L|176:184,1,49.9999952316283
256,192,67384,12,0,68439,0:0:0:0:
256,192,68791,6,0,L|256:120,1,49.9999952316283
256,80,69259,5,0,0:0:0:0:
252,144,69728,2,0,L|200:208,1,224.999978542327
256,188,71369,2,0,L|256:120,1,49.9999952316283
256,76,71955,1,0,0:0:0:0:
328,76,72423,1,0,0:0:0:0:
328,184,72892,1,0,0:0:0:0:
408,76,73361,1,0,0:0:0:0:
336,76,73830,2,0,P|276:76|280:116,1,99.9999904632566
260,120,82970,5,12,0:0:0:0:
