osu file format v14

[General]
AudioFilename: MirroR.mp3
AudioLeadIn: 0
PreviewTime: 27087
Countdown: 0
SampleSet: Soft
StackLeniency: 0.7
Mode: 3
LetterboxInBreaks: 0
SpecialStyle: 0
WidescreenStoryboard: 0

[Editor]
DistanceSpacing: 1.3
BeatDivisor: 4
GridSize: 4
TimelineZoom: 1.699999

[Metadata]
Title:MirroR
TitleUnicode:MirroR
Artist:dj-B
ArtistUnicode:dj-B
Creator:Jesuren
Version:AnotheR
Source:Wire Puller
Tags:ML-ysg BMS Ym1024 Yellow mapleleaf Progressive Rock Instrumental JesusMD24
BeatmapID:3415928
BeatmapSetID:1671792

[Difficulty]
HPDrainRate:8
CircleSize:4
OverallDifficulty:8
ApproachRate:5
SliderMultiplier:1.4
SliderTickRate:1

[Events]
//Background and Video events
0,0,"MirroR - BackgrounD.jpg",0,0
//Break Periods
//Storyboard Layer 0 (Background)
//Storyboard Layer 1 (Fail)
//Storyboard Layer 2 (Pass)
//Storyboard Layer 3 (Foreground)
//Storyboard Sound Samples
Sample,644,0,"Hat Open.wav",60
Sample,1088,0,"Hat Open.wav",60
Sample,1533,0,"Hat Open.wav",60
Sample,1977,0,"Hat Open.wav",60
Sample,2422,0,"Hat Open.wav",60
Sample,2866,0,"Hat Open.wav",60
Sample,3311,0,"Hat Open.wav",60
Sample,3755,0,"Hat Open.wav",60
Sample,4199,0,"Hat Open.wav",60
Sample,4644,0,"Hat Open.wav",60
Sample,5088,0,"Hat Open.wav",60
Sample,5533,0,"Hat Open.wav",60
Sample,6422,0,"Hat Close.wav",60
Sample,11531,0,"Hat Close.wav",60
Sample,11975,0,"Hat Close.wav",60
Sample,12420,0,"Hat Close.wav",60
Sample,12864,0,"Hat Close.wav",60
Sample,13309,0,"Hat Close.wav",60
Sample,13753,0,"Hat Close.wav",60
Sample,14198,0,"Hat Close.wav",60
Sample,15086,0,"Hat Close.wav",60
Sample,15531,0,"Hat Close.wav",60
Sample,15975,0,"Hat Close.wav",60
Sample,16420,0,"Hat Close.wav",60
Sample,16864,0,"Hat Close.wav",60
Sample,17309,0,"Hat Close.wav",60
Sample,17753,0,"Hat Close.wav",60
Sample,19309,0,"Hat Open.wav",60
Sample,22198,0,"Hat Open.wav",60
Sample,22642,0,"Hat Open.wav",60
Sample,24642,0,"Hat Open.wav",60
Sample,24864,0,"Hat Open.wav",60
Sample,27531,0,"Hat Close.wav",60
Sample,28420,0,"Hat Close.wav",60
Sample,29309,0,"Hat Close.wav",60
Sample,29753,0,"Hat Close.wav",60
Sample,31086,0,"Hat Close.wav",60
Sample,31531,0,"Hat Close.wav",60
Sample,32864,0,"Hat Close.wav",60
Sample,33309,0,"Hat Close.wav",60
Sample,34642,0,"Hat Close.wav",60
Sample,35531,0,"Hat Close.wav",60
Sample,36420,0,"Hat Close.wav",60
Sample,36864,0,"Hat Close.wav",60
Sample,38198,0,"Hat Close.wav",60
Sample,38642,0,"Hat Close.wav",60
Sample,39975,0,"Hat Close.wav",60
Sample,43086,0,"Hat Open.wav",60
Sample,44197,0,"Hat Open.wav",60
Sample,47086,0,"Hat Open.wav",60
Sample,47531,0,"Hat Open.wav",60
Sample,50864,0,"Hat Open.wav",60
Sample,62197,0,"Hat Open.wav",60
Sample,62641,0,"Hat Open.wav",60
Sample,66196,0,"Hat Close.wav",60
Sample,66640,0,"Hat Close.wav",60
Sample,67085,0,"Hat Close.wav",60
Sample,67529,0,"Hat Close.wav",60
Sample,67974,0,"Hat Close.wav",60
Sample,68418,0,"Hat Close.wav",60
Sample,69752,0,"Hat Close.wav",60
Sample,70196,0,"Hat Close.wav",60
Sample,70640,0,"Hat Close.wav",60
Sample,71085,0,"Hat Close.wav",60
Sample,71529,0,"Hat Close.wav",60
Sample,71974,0,"Hat Close.wav",60
Sample,73751,0,"Hat Close.wav",60
Sample,74640,0,"Hat Close.wav",60
Sample,75529,0,"Hat Close.wav",60
Sample,77307,0,"Hat Close.wav",60
Sample,78196,0,"Hat Close.wav",60
Sample,79085,0,"Hat Close.wav",60
Sample,79751,0,"Hat Close.wav",60

[TimingPoints]
200,444.444444444444,4,2,1,60,1,0
7088,444.444444444444,3,2,1,60,1,0
11087,444.444444444444,4,2,1,60,1,0
19087,444.444444444444,3,2,1,60,1,0
27087,444.444444444444,4,2,1,60,1,0
41309,222.222222222222,5,2,1,60,1,0
41309,-200,5,2,1,60,0,0
59086,444.444444444444,3,2,1,60,1,0
65752,444.444444444444,4,2,1,60,1,0
80418,444.444444444444,4,2,1,60,1,0

[HitObjects]
64,192,200,5,2,0:0:0:0:
320,192,200,1,4,0:0:0:0:
320,192,644,1,2,0:0:0:0:
320,192,1088,1,2,0:0:0:0:
320,192,1533,1,2,0:0:0:0:
320,192,1977,1,2,0:0:0:0:
320,192,2422,1,2,0:0:0:0:
320,192,2866,1,2,0:0:0:0:
320,192,3311,1,2,0:0:0:0:
192,192,3533,1,2,0:0:0:0:
320,192,3755,1,2,0:0:0:0:
320,192,4199,1,2,0:0:0:0:
320,192,4644,1,2,0:0:0:0:
320,192,5088,1,2,0:0:0:0:
64,192,5311,1,0,0:0:0:60:Hat Close.wav
448,192,5422,1,0,0:0:0:60:Hat Close.wav
320,192,5533,1,2,0:0:0:0:
64,192,5977,1,2,0:0:0:0:
320,192,5977,1,4,0:0:0:0:
448,192,6199,1,0,0:0:0:60:Hat Close.wav
64,192,6311,1,0,0:0:0:0:
320,192,6422,1,2,0:0:0:0:
192,192,6533,1,0,0:0:0:60:Hat Close.wav
64,192,6644,1,8,0:0:0:0:
448,192,6644,1,2,0:0:0:0:
320,192,6755,1,0,0:0:0:0:
448,192,6866,1,2,0:0:0:0:
64,192,6977,1,8,0:0:0:0:
192,192,6977,1,0,0:0:0:0:
64,192,7088,1,2,0:0:0:0:
320,192,7088,1,4,0:0:0:0:
448,192,7088,1,0,0:0:0:0:
320,192,7199,1,8,0:0:0:0:
448,192,7199,1,0,0:0:0:0:
192,192,7310,1,0,0:0:0:60:Hat Open.wav
448,192,7421,1,2,0:0:0:0:
64,192,7532,1,8,0:0:0:0:
320,192,7532,1,0,0:0:0:60:Hat Open.wav
64,192,7754,1,2,0:0:0:0:
192,192,7754,1,4,0:0:0:0:
448,192,7754,1,0,0:0:0:0:
64,192,7976,1,8,0:0:0:0:
320,192,7976,1,0,0:0:0:60:Hat Open.wav
320,192,8087,1,2,0:0:0:0:
192,192,8199,1,8,0:0:0:0:
448,192,8199,1,0,0:0:0:60:Hat Open.wav
192,192,8310,1,8,0:0:0:0:
64,192,8421,1,2,0:0:0:0:
320,192,8421,1,4,0:0:0:0:
448,192,8421,1,0,0:0:0:0:
192,192,8532,1,0,0:0:0:0:
448,192,8643,1,2,0:0:0:0:
64,192,8754,1,8,0:0:0:0:
192,192,8754,1,4,0:0:0:0:
320,192,8865,1,0,0:0:0:0:
64,192,8976,1,2,0:0:0:0:
192,192,9087,1,8,0:0:0:0:
320,192,9087,1,4,0:0:0:0:
448,192,9087,1,0,0:0:0:0:
64,192,9199,1,8,0:0:0:0:
192,192,9199,1,0,0:0:0:0:
448,192,9310,1,0,0:0:0:40:Tom1.wav
448,192,9421,1,0,0:0:0:40:Tom1.wav
192,192,9532,1,0,0:0:0:40:Tom2.wav
192,192,9643,1,0,0:0:0:40:Tom1.wav
64,192,9754,1,2,0:0:0:0:
320,192,9754,1,4,0:0:0:0:
448,192,9754,1,0,0:0:0:0:
192,192,9865,1,0,0:0:0:0:
64,192,9976,1,8,0:0:0:0:
320,192,9976,1,0,0:0:0:60:Hat Open.wav
320,192,10087,1,8,0:0:0:0:
448,192,10087,1,0,0:0:0:0:
64,192,10199,1,0,0:0:0:40:Tom1.wav
192,192,10254,1,0,0:0:0:40:Tom1.wav
320,192,10310,1,0,0:0:0:40:Tom1.wav
448,192,10365,1,0,0:0:0:40:Tom1.wav
64,192,10421,1,0,0:0:0:40:Tom3.wav
192,192,10476,1,0,0:0:0:40:Tom3.wav
448,192,10532,1,0,0:0:0:40:Tom2.wav
320,192,10587,1,0,0:0:0:40:Tom2.wav
192,192,10643,1,0,0:0:0:40:Tom3.wav
64,192,10699,1,0,0:0:0:40:Tom3.wav
448,192,10754,1,0,0:0:0:40:Tom3.wav
320,192,10810,1,0,0:0:0:40:Tom3.wav
64,192,10865,1,8,0:0:0:0:
192,192,10865,1,0,0:0:0:60:Hat Open.wav
320,192,10976,1,8,0:0:0:0:
448,192,10976,1,0,0:0:0:0:
64,192,11087,1,2,0:0:0:0:
192,192,11087,1,4,0:0:0:0:
320,192,11087,1,0,0:0:0:0:
64,192,11198,1,0,0:0:0:0:
448,192,11309,1,0,0:0:0:60:Hat Open.wav
192,192,11420,1,0,0:0:0:0:
192,192,11531,1,2,0:0:0:0:
320,192,11642,1,0,0:0:0:0:
64,192,11753,1,0,0:0:0:60:Hat Open.wav
64,192,11864,1,0,0:0:0:0:
448,192,11975,1,2,0:0:0:0:
192,192,12086,1,0,0:0:0:60:Hat Close.wav
192,192,12198,1,0,0:0:0:60:Hat Open.wav
320,192,12309,1,0,0:0:0:0:
64,192,12420,1,2,0:0:0:0:
64,192,12531,1,0,0:0:0:0:
448,192,12642,1,0,0:0:0:60:Hat Open.wav
192,192,12753,1,0,0:0:0:0:
320,192,12864,1,2,0:0:0:0:
320,192,12975,1,0,0:0:0:0:
448,192,13086,1,0,0:0:0:60:Hat Open.wav
192,192,13198,1,0,0:0:0:0:
192,192,13309,1,2,0:0:0:0:
64,192,13420,1,0,0:0:0:0:
320,192,13531,1,0,0:0:0:60:Hat Open.wav
320,192,13642,1,0,0:0:0:0:
448,192,13753,1,2,0:0:0:0:
192,192,13864,1,0,0:0:0:60:Hat Close.wav
192,192,13975,1,0,0:0:0:60:Hat Open.wav
64,192,14086,1,0,0:0:0:0:
320,192,14198,1,2,0:0:0:0:
320,192,14309,1,0,0:0:0:0:
448,192,14420,1,0,0:0:0:60:Hat Open.wav
64,192,14531,1,2,0:0:0:0:
192,192,14642,1,2,0:0:0:0:
320,192,14642,1,4,0:0:0:0:
448,192,14642,1,0,0:0:0:0:
448,192,14753,1,0,0:0:0:0:
192,192,14864,1,0,0:0:0:60:Hat Open.wav
320,192,14975,1,0,0:0:0:0:
320,192,15086,1,2,0:0:0:0:
64,192,15198,1,0,0:0:0:0:
448,192,15309,1,0,0:0:0:60:Hat Open.wav
448,192,15420,1,0,0:0:0:0:
192,192,15531,1,2,0:0:0:0:
320,192,15642,1,0,0:0:0:60:Hat Close.wav
320,192,15753,1,0,0:0:0:60:Hat Open.wav
64,192,15864,1,0,0:0:0:0:
448,192,15975,1,2,0:0:0:0:
448,192,16086,1,0,0:0:0:0:
192,192,16198,1,0,0:0:0:60:Hat Open.wav
320,192,16309,1,0,0:0:0:0:
64,192,16420,1,2,0:0:0:0:
64,192,16531,1,0,0:0:0:0:
192,192,16642,1,0,0:0:0:60:Hat Open.wav
448,192,16753,1,0,0:0:0:0:
448,192,16864,1,2,0:0:0:0:
320,192,16975,1,0,0:0:0:0:
64,192,17086,1,0,0:0:0:60:Hat Open.wav
64,192,17198,1,0,0:0:0:0:
192,192,17309,1,2,0:0:0:0:
448,192,17420,1,0,0:0:0:60:Hat Close.wav
448,192,17531,1,0,0:0:0:60:Hat Open.wav
320,192,17642,1,0,0:0:0:0:
64,192,17753,1,2,0:0:0:0:
64,192,17864,1,0,0:0:0:0:
192,192,17975,1,0,0:0:0:60:Hat Open.wav
448,192,18086,1,0,0:0:0:0:
64,192,18198,1,4,0:0:0:0:
192,192,18198,1,2,0:0:0:0:
448,192,18198,1,8,0:0:0:0:
320,192,18309,1,0,0:0:0:0:
64,192,18420,1,8,0:0:0:0:
448,192,18420,1,0,0:0:0:0:
64,192,18531,1,0,0:0:0:0:
192,192,18642,1,10,0:0:0:0:
320,192,18642,1,4,0:0:0:0:
64,192,18753,1,8,0:0:0:0:
192,192,18753,1,0,0:0:0:0:
448,192,18753,1,0,0:0:0:0:
448,192,18864,1,0,0:0:0:0:
64,192,18975,1,8,0:0:0:0:
192,192,18975,1,0,0:0:0:0:
64,192,19086,1,4,0:0:0:0:
320,192,19086,1,2,0:0:0:0:
448,192,19086,1,0,0:0:0:0:
320,192,19198,1,8,0:0:0:0:
448,192,19198,1,0,0:0:0:0:
192,192,19309,1,8,0:0:0:0:
448,192,19420,1,2,0:0:0:0:
64,192,19531,1,8,0:0:0:0:
320,192,19531,1,0,0:0:0:60:Hat Open.wav
64,192,19753,1,2,0:0:0:0:
192,192,19753,1,4,0:0:0:0:
448,192,19753,1,0,0:0:0:0:
64,192,19975,1,8,0:0:0:0:
320,192,19975,1,0,0:0:0:60:Hat Open.wav
320,192,20087,1,2,0:0:0:0:
192,192,20198,1,8,0:0:0:0:
448,192,20198,1,0,0:0:0:60:Hat Open.wav
192,192,20309,1,8,0:0:0:0:
64,192,20420,1,4,0:0:0:0:
320,192,20420,1,2,0:0:0:0:
448,192,20420,1,0,0:0:0:0:
192,192,20531,1,0,0:0:0:0:
448,192,20642,1,2,0:0:0:0:
64,192,20753,1,8,0:0:0:0:
192,192,20753,1,4,0:0:0:0:
320,192,20864,1,0,0:0:0:0:
64,192,20975,1,2,0:0:0:0:
192,192,21086,1,8,0:0:0:0:
320,192,21086,1,4,0:0:0:0:
448,192,21086,1,0,0:0:0:0:
64,192,21198,1,8,0:0:0:0:
192,192,21198,1,0,0:0:0:0:
448,192,21309,1,0,0:0:0:40:Tom1.wav
448,192,21420,1,0,0:0:0:40:Tom1.wav
192,192,21531,1,0,0:0:0:40:Tom2.wav
192,192,21642,1,0,0:0:0:40:Tom2.wav
64,192,21753,1,4,0:0:0:0:
320,192,21753,1,2,0:0:0:0:
448,192,21753,1,0,0:0:0:0:
192,192,21864,1,0,0:0:0:0:
64,192,21975,1,2,0:0:0:0:
320,192,21975,1,0,0:0:0:60:Hat Open.wav
320,192,22086,1,8,0:0:0:0:
448,192,22086,1,0,0:0:0:0:
64,192,22198,1,2,0:0:0:0:
448,192,22309,1,0,0:0:0:0:
64,192,22420,1,2,0:0:0:0:
192,192,22420,1,0,0:0:0:60:Hat Open.wav
320,192,22420,1,0,0:0:0:0:
320,192,22531,1,8,0:0:0:0:
448,192,22531,1,0,0:0:0:0:
192,192,22642,1,2,0:0:0:0:
64,192,22753,1,8,0:0:0:0:
320,192,22753,1,0,0:0:0:0:
64,192,22864,1,8,0:0:0:0:
192,192,22864,1,0,0:0:0:60:Hat Open.wav
320,192,22975,1,8,0:0:0:0:
448,192,22975,1,0,0:0:0:0:
64,192,23086,1,2,0:0:0:0:
192,192,23086,1,4,0:0:0:0:
448,192,23086,1,0,0:0:0:60:Hat Open.wav
64,192,23198,1,8,0:0:0:0:
192,192,23198,1,0,0:0:0:0:
320,192,23309,1,0,0:0:0:60:Hat Open.wav
64,192,23420,1,2,0:0:0:0:
192,192,23531,1,8,0:0:0:0:
448,192,23531,1,0,0:0:0:60:Hat Open.wav
64,192,23753,1,2,0:0:0:0:
320,192,23753,1,4,0:0:0:0:
448,192,23753,1,0,0:0:0:0:
192,192,23975,1,8,0:0:0:0:
448,192,23975,1,0,0:0:0:60:Hat Open.wav
192,192,24086,1,2,0:0:0:0:
64,192,24198,1,8,0:0:0:0:
320,192,24198,1,0,0:0:0:60:Hat Open.wav
320,192,24309,1,8,0:0:0:0:
64,192,24420,1,4,0:0:0:0:
192,192,24420,1,2,0:0:0:0:
448,192,24420,1,0,0:0:0:0:
320,192,24531,1,0,0:0:0:0:
64,192,24642,1,2,0:0:0:0:
320,192,24753,1,8,0:0:0:0:
448,192,24753,1,4,0:0:0:0:
192,192,24864,1,2,0:0:0:0:
448,192,24975,1,2,0:0:0:0:
64,192,25086,1,2,0:0:0:0:
192,192,25086,1,4,0:0:0:0:
320,192,25086,1,0,0:0:0:0:
320,192,25198,1,8,0:0:0:0:
448,192,25198,1,0,0:0:0:0:
64,192,25309,1,0,0:0:0:0:
64,192,25420,1,0,0:0:0:40:Tom1.wav
320,192,25531,1,0,0:0:0:40:Tom1.wav
320,192,25642,1,0,0:0:0:40:Tom2.wav
64,192,25753,1,4,0:0:0:0:
192,192,25753,1,2,0:0:0:0:
448,192,25753,1,0,0:0:0:0:
320,192,25864,1,0,0:0:0:0:
64,192,25975,1,8,0:0:0:0:
192,192,25975,1,0,0:0:0:60:Hat Open.wav
192,192,26086,1,8,0:0:0:0:
448,192,26086,1,0,0:0:0:0:
64,192,26198,1,0,0:0:0:40:Tom1.wav
192,192,26253,1,0,0:0:0:40:Tom1.wav
320,192,26309,1,0,0:0:0:40:Tom1.wav
448,192,26364,1,0,0:0:0:40:Tom1.wav
64,192,26420,1,0,0:0:0:40:Tom2.wav
192,192,26475,1,0,0:0:0:40:Tom2.wav
448,192,26531,1,0,0:0:0:40:Tom2.wav
320,192,26586,1,0,0:0:0:40:Tom2.wav
192,192,26642,1,0,0:0:0:40:Tom3.wav
64,192,26698,1,0,0:0:0:40:Tom3.wav
448,192,26753,1,0,0:0:0:40:Tom3.wav
320,192,26809,1,0,0:0:0:40:Tom3.wav
64,192,26864,1,8,0:0:0:0:
192,192,26864,1,0,0:0:0:60:Hat Open.wav
320,192,26975,1,8,0:0:0:0:
448,192,26975,1,0,0:0:0:60:Hat Open.wav
64,192,27086,1,2,0:0:0:0:
192,192,27086,1,4,0:0:0:0:
320,192,27086,1,0,0:0:0:0:
64,192,27309,1,0,0:0:0:60:Hat Open.wav
64,192,27531,1,2,0:0:0:0:
64,192,27753,1,0,0:0:0:60:Hat Open.wav
64,192,27975,1,2,0:0:0:0:
448,192,27975,1,0,0:0:0:60:Hat Close.wav
64,192,28198,1,0,0:0:0:60:Hat Open.wav
320,192,28309,1,0,0:0:0:0:
448,192,28309,1,0,0:0:0:0:
64,192,28420,1,2,0:0:0:0:
64,192,28642,1,0,0:0:0:60:Hat Open.wav
320,192,28642,1,0,0:0:0:0:
192,192,28864,1,2,0:0:0:0:
448,192,28864,1,0,0:0:0:60:Hat Close.wav
192,192,29086,1,0,0:0:0:60:Hat Open.wav
192,192,29309,1,2,0:0:0:0:
192,192,29531,1,0,0:0:0:60:Hat Open.wav
192,192,29753,1,2,0:0:0:0:
192,192,29975,1,0,0:0:0:60:Hat Open.wav
192,192,30198,1,10,0:0:0:0:
448,192,30198,1,0,0:0:0:60:Hat Close.wav
320,192,30309,1,0,0:0:0:0:
192,192,30420,1,0,0:0:0:60:Hat Open.wav
448,192,30531,1,0,0:0:0:0:
64,192,30642,1,2,0:0:0:0:
320,192,30642,1,0,0:0:0:60:Hat Close.wav
320,192,30864,1,0,0:0:0:60:Hat Open.wav
320,192,31086,1,2,0:0:0:0:
320,192,31309,1,0,0:0:0:60:Hat Open.wav
320,192,31531,1,2,0:0:0:0:
64,192,31753,1,0,0:0:0:60:Hat Open.wav
320,192,31753,1,0,0:0:0:0:
192,192,31864,1,0,0:0:0:0:
320,192,31975,1,2,0:0:0:0:
448,192,31975,1,0,0:0:0:60:Hat Close.wav
192,192,32086,1,0,0:0:0:0:
64,192,32198,1,0,0:0:0:60:Hat Open.wav
320,192,32198,1,0,0:0:0:0:
192,192,32309,1,0,0:0:0:0:
64,192,32420,1,2,0:0:0:0:
448,192,32420,1,0,0:0:0:60:Hat Close.wav
448,192,32642,1,0,0:0:0:60:Hat Open.wav
448,192,32864,1,2,0:0:0:0:
64,192,33086,1,0,0:0:0:60:Hat Open.wav
448,192,33086,1,0,0:0:0:0:
448,192,33309,1,2,0:0:0:0:
192,192,33531,1,0,0:0:0:60:Hat Open.wav
448,192,33531,1,0,0:0:0:0:
64,192,33753,1,2,0:0:0:0:
192,192,33753,1,4,0:0:0:0:
448,192,33753,1,8,0:0:0:0:
320,192,33975,1,2,0:0:0:0:
448,192,33975,1,0,0:0:0:60:Hat Close.wav
64,192,34198,1,4,0:0:0:0:
192,192,34198,1,2,0:0:0:0:
320,192,34198,1,0,0:0:0:0:
64,192,34420,1,0,0:0:0:60:Hat Open.wav
64,192,34642,1,2,0:0:0:0:
64,192,34864,1,0,0:0:0:60:Hat Open.wav
64,192,35086,1,2,0:0:0:0:
448,192,35086,1,0,0:0:0:60:Hat Close.wav
64,192,35309,1,0,0:0:0:60:Hat Open.wav
320,192,35420,1,0,0:0:0:0:
448,192,35420,1,0,0:0:0:0:
64,192,35531,1,2,0:0:0:0:
64,192,35753,1,0,0:0:0:60:Hat Open.wav
320,192,35753,1,0,0:0:0:0:
192,192,35975,1,2,0:0:0:0:
448,192,35975,1,0,0:0:0:60:Hat Close.wav
192,192,36198,1,0,0:0:0:60:Hat Open.wav
192,192,36420,1,2,0:0:0:0:
192,192,36642,1,0,0:0:0:60:Hat Open.wav
192,192,36864,1,2,0:0:0:0:
192,192,37086,1,0,0:0:0:60:Hat Open.wav
192,192,37309,1,10,0:0:0:0:
448,192,37309,1,0,0:0:0:60:Hat Close.wav
320,192,37420,1,0,0:0:0:0:
192,192,37531,1,0,0:0:0:60:Hat Open.wav
448,192,37642,1,0,0:0:0:0:
64,192,37753,1,2,0:0:0:0:
320,192,37753,1,0,0:0:0:60:Hat Close.wav
320,192,37975,1,0,0:0:0:60:Hat Open.wav
320,192,38198,1,2,0:0:0:0:
320,192,38420,1,0,0:0:0:60:Hat Open.wav
320,192,38642,1,2,0:0:0:0:
64,192,38864,1,0,0:0:0:60:Hat Open.wav
320,192,38864,1,0,0:0:0:0:
192,192,38975,1,0,0:0:0:0:
320,192,39086,1,2,0:0:0:0:
448,192,39086,1,0,0:0:0:60:Hat Close.wav
192,192,39198,1,0,0:0:0:0:
64,192,39309,1,0,0:0:0:60:Hat Open.wav
320,192,39309,1,0,0:0:0:0:
192,192,39420,1,0,0:0:0:0:
64,192,39531,1,2,0:0:0:0:
320,192,39531,1,4,0:0:0:0:
448,192,39531,1,0,0:0:0:0:
448,192,39753,1,0,0:0:0:60:Hat Open.wav
448,192,39975,1,2,0:0:0:0:
64,192,40198,1,0,0:0:0:60:Hat Open.wav
448,192,40198,1,0,0:0:0:0:
64,192,40420,1,6,0:0:0:0:
320,192,40420,1,0,0:0:0:60:Hat Close.wav
448,192,40420,1,8,0:0:0:0:
192,192,40642,1,8,0:0:0:0:
448,192,40642,1,0,0:0:0:60:Hat Open.wav
64,192,40864,1,2,0:0:0:0:
192,192,40864,1,8,0:0:0:0:
448,192,40864,1,4,0:0:0:0:
64,192,40975,1,8,0:0:0:0:
192,192,40975,1,0,0:0:0:0:
448,192,41086,1,0,0:0:0:0:
64,192,41198,1,8,0:0:0:0:
192,192,41198,1,0,0:0:0:0:
64,192,41309,1,4,0:0:0:0:
320,192,41309,1,2,0:0:0:0:
448,192,41309,1,0,0:0:0:0:
192,192,41420,1,8,0:0:0:0:
448,192,41420,1,0,0:0:0:0:
320,192,41531,1,0,0:0:0:60:Hat Open.wav
64,192,41642,1,2,0:0:0:0:
192,192,41753,1,8,0:0:0:0:
320,192,41753,1,0,0:0:0:60:Hat Open.wav
448,192,41753,1,0,0:0:0:0:
64,192,41864,1,0,0:0:0:0:
320,192,41975,1,2,0:0:0:0:
448,192,41975,1,0,0:0:0:60:Hat Open.wav
192,192,42086,1,0,0:0:0:0:
64,192,42197,1,8,0:0:0:0:
448,192,42197,1,0,0:0:0:60:Hat Open.wav
192,192,42309,1,0,0:0:0:0:
64,192,42420,1,2,0:0:0:0:
448,192,42420,1,0,0:0:0:60:Hat Open.wav
320,192,42531,1,8,0:0:0:0:
448,192,42531,1,0,0:0:0:0:
64,192,42642,1,0,0:0:0:60:Hat Open.wav
320,192,42753,1,8,0:0:0:0:
448,192,42753,1,0,0:0:0:0:
64,192,42864,1,10,0:0:0:0:
320,192,42864,1,0,0:0:0:60:Hat Open.wav
192,192,42975,1,2,0:0:0:0:
64,192,43086,1,2,0:0:0:0:
448,192,43197,1,0,0:0:0:0:
64,192,43309,1,4,0:0:0:0:
192,192,43309,1,8,0:0:0:0:
320,192,43309,1,0,0:0:0:0:
448,192,43420,1,0,0:0:0:0:
64,192,43531,1,2,0:0:0:0:
192,192,43531,1,0,0:0:0:0:
192,192,43642,1,8,0:0:0:0:
320,192,43642,1,0,0:0:0:0:
448,192,43642,1,0,0:0:0:0:
64,192,43753,1,0,0:0:0:60:Hat Open.wav
320,192,43864,1,2,0:0:0:0:
64,192,43975,1,8,0:0:0:0:
192,192,43975,1,0,0:0:0:60:Hat Open.wav
448,192,43975,1,0,0:0:0:0:
320,192,44086,1,0,0:0:0:0:
64,192,44197,1,2,0:0:0:0:
192,192,44309,1,0,0:0:0:0:
64,192,44420,1,8,0:0:0:0:
448,192,44420,1,0,0:0:0:60:Hat Open.wav
192,192,44531,1,0,0:0:0:0:
64,192,44642,1,2,0:0:0:0:
320,192,44642,1,0,0:0:0:60:Hat Open.wav
320,192,44753,1,8,0:0:0:0:
448,192,44753,1,0,0:0:0:0:
64,192,44864,1,0,0:0:0:60:Hat Open.wav
448,192,44975,1,2,0:0:0:0:
192,192,45086,1,8,0:0:0:0:
320,192,45086,1,0,0:0:0:60:Hat Open.wav
64,192,45197,1,0,0:0:0:0:
320,192,45308,1,8,0:0:0:0:
448,192,45308,1,2,0:0:0:0:
64,192,45420,1,8,0:0:0:0:
320,192,45420,1,0,0:0:0:0:
192,192,45531,1,8,0:0:0:0:
448,192,45531,1,2,0:0:0:0:
320,192,45642,1,8,0:0:0:0:
64,192,45753,1,2,0:0:0:0:
192,192,45753,1,4,0:0:0:0:
448,192,45753,1,0,0:0:0:0:
64,192,45864,1,8,0:0:0:0:
320,192,45864,1,0,0:0:0:0:
192,192,45975,1,0,0:0:0:60:Hat Open.wav
448,192,46086,1,2,0:0:0:0:
64,192,46197,1,8,0:0:0:0:
192,192,46197,1,0,0:0:0:60:Hat Open.wav
320,192,46197,1,0,0:0:0:0:
448,192,46308,1,0,0:0:0:0:
64,192,46420,1,2,0:0:0:0:
192,192,46420,1,0,0:0:0:60:Hat Open.wav
320,192,46531,1,0,0:0:0:0:
64,192,46642,1,8,0:0:0:0:
448,192,46642,1,0,0:0:0:60:Hat Open.wav
320,192,46753,1,0,0:0:0:0:
64,192,46864,1,2,0:0:0:0:
448,192,46864,1,0,0:0:0:60:Hat Open.wav
64,192,46975,1,8,0:0:0:0:
192,192,46975,1,0,0:0:0:0:
448,192,47086,1,2,0:0:0:0:
64,192,47197,1,8,0:0:0:0:
192,192,47197,1,0,0:0:0:0:
192,192,47308,1,2,0:0:0:0:
448,192,47308,1,0,0:0:0:60:Hat Open.wav
320,192,47420,1,0,0:0:0:0:
448,192,47531,1,8,0:0:0:0:
64,192,47642,1,0,0:0:0:0:
192,192,47753,1,2,0:0:0:0:
320,192,47753,1,4,0:0:0:0:
448,192,47753,1,0,0:0:0:0:
64,192,47864,1,0,0:0:0:0:
320,192,47975,1,2,0:0:0:0:
448,192,47975,1,0,0:0:0:0:
64,192,48086,1,8,0:0:0:0:
192,192,48086,1,0,0:0:0:0:
320,192,48086,1,0,0:0:0:0:
448,192,48197,1,0,0:0:0:60:Hat Open.wav
192,192,48308,1,2,0:0:0:0:
64,192,48420,1,8,0:0:0:0:
448,192,48420,1,0,0:0:0:60:Hat Open.wav
320,192,48531,1,0,0:0:0:0:
64,192,48642,1,2,0:0:0:0:
192,192,48642,1,4,0:0:0:0:
448,192,48642,1,0,0:0:0:0:
320,192,48753,1,0,0:0:0:0:
192,192,48864,1,8,0:0:0:0:
448,192,48864,1,0,0:0:0:60:Hat Open.wav
64,192,48975,1,0,0:0:0:0:
192,192,49086,1,2,0:0:0:0:
320,192,49086,1,4,0:0:0:0:
448,192,49086,1,0,0:0:0:0:
64,192,49197,1,0,0:0:0:0:
448,192,49308,1,0,0:0:0:40:Tom1.wav
320,192,49364,1,0,0:0:0:40:Tom1.wav
64,192,49420,1,0,0:0:0:40:Tom1.wav
192,192,49475,1,0,0:0:0:40:Tom1.wav
448,192,49531,1,0,0:0:0:40:Tom2.wav
320,192,49586,1,0,0:0:0:40:Tom2.wav
192,192,49642,1,0,0:0:0:40:Tom2.wav
64,192,49697,1,0,0:0:0:40:Tom2.wav
320,192,49753,1,0,0:0:0:40:Tom3.wav
448,192,49808,1,0,0:0:0:40:Tom3.wav
64,192,49864,1,0,0:0:0:40:Tom3.wav
192,192,49920,1,0,0:0:0:40:Tom3.wav
320,192,49975,1,8,0:0:0:0:
448,192,49975,1,0,0:0:0:60:Hat Open.wav
64,192,50086,1,8,0:0:0:0:
192,192,50086,1,0,0:0:0:60:Hat Open.wav
64,192,50197,1,4,0:0:0:0:
320,192,50197,1,2,0:0:0:0:
448,192,50197,1,0,0:0:0:0:
192,192,50308,1,8,0:0:0:0:
320,192,50308,1,0,0:0:0:0:
64,192,50420,1,0,0:0:0:60:Hat Open.wav
448,192,50531,1,2,0:0:0:0:
64,192,50642,1,8,0:0:0:0:
192,192,50642,1,0,0:0:0:60:Hat Open.wav
320,192,50642,1,0,0:0:0:0:
448,192,50753,1,0,0:0:0:0:
192,192,50864,1,2,0:0:0:0:
192,192,50975,1,0,0:0:0:0:
64,192,51086,1,8,0:0:0:0:
320,192,51086,1,4,0:0:0:0:
448,192,51086,1,0,0:0:0:0:
320,192,51197,1,0,0:0:0:0:
64,192,51308,1,2,0:0:0:0:
192,192,51308,1,4,0:0:0:0:
448,192,51308,1,0,0:0:0:0:
64,192,51420,1,8,0:0:0:0:
192,192,51420,1,0,0:0:0:0:
320,192,51531,1,0,0:0:0:60:Hat Open.wav
64,192,51642,1,2,0:0:0:0:
192,192,51753,1,8,0:0:0:0:
320,192,51753,1,0,0:0:0:60:Hat Open.wav
64,192,51864,1,0,0:0:0:0:
192,192,51975,1,2,0:0:0:0:
320,192,51975,1,4,0:0:0:0:
448,192,51975,1,0,0:0:0:0:
448,192,52086,1,0,0:0:0:0:
64,192,52197,1,0,0:0:0:40:Tom1.wav
320,192,52197,1,0,0:0:0:0:
320,192,52308,1,0,0:0:0:40:Tom2.wav
64,192,52420,1,2,0:0:0:0:
192,192,52420,1,4,0:0:0:0:
448,192,52420,1,0,0:0:0:0:
64,192,52531,1,8,0:0:0:0:
192,192,52531,1,0,0:0:0:0:
448,192,52642,1,0,0:0:0:60:Hat Open.wav
64,192,52753,1,2,0:0:0:0:
192,192,52753,1,0,0:0:0:0:
320,192,52753,1,0,0:0:0:0:
320,192,52864,1,8,0:0:0:0:
448,192,52864,1,0,0:0:0:60:Hat Open.wav
64,192,52975,1,0,0:0:0:0:
192,192,53086,1,8,0:0:0:0:
448,192,53086,1,0,0:0:0:60:Hat Open.wav
64,192,53197,1,8,0:0:0:0:
192,192,53197,1,0,0:0:0:0:
320,192,53308,1,0,0:0:0:40:Tom2.wav
64,192,53420,1,0,0:0:0:0:
192,192,53531,1,0,0:0:0:40:Tom3.wav
320,192,53531,1,0,0:0:0:0:
448,192,53642,1,0,0:0:0:40:Tom3.wav
192,192,53753,1,0,0:0:0:40:Tom2.wav
320,192,53827,1,0,0:0:0:40:Tom1.wav
64,192,53901,1,0,0:0:0:40:Tom1.wav
448,192,53975,1,0,0:0:0:40:Tom3.wav
192,192,54049,1,0,0:0:0:40:Tom2.wav
64,192,54123,1,0,0:0:0:40:Tom1.wav
448,192,54197,1,0,0:0:0:40:Tom2.wav
192,192,54271,1,0,0:0:0:40:Tom3.wav
320,192,54346,1,0,0:0:0:40:Tom3.wav
64,192,54420,1,8,0:0:0:0:
192,192,54420,1,0,0:0:0:60:Hat Open.wav
320,192,54531,1,8,0:0:0:0:
448,192,54531,1,0,0:0:0:60:Hat Open.wav
64,192,54642,1,2,0:0:0:0:
192,192,54642,1,0,0:0:0:0:
64,192,54753,1,8,0:0:0:0:
320,192,54753,1,4,0:0:0:0:
448,192,54753,1,0,0:0:0:0:
192,192,54864,1,0,0:0:0:0:
64,192,54975,1,2,0:0:0:0:
192,192,55086,1,10,0:0:0:0:
448,192,55086,1,0,0:0:0:60:Hat Open.wav
320,192,55197,1,0,0:0:0:0:
64,192,55308,1,2,0:0:0:0:
192,192,55308,1,4,0:0:0:0:
448,192,55308,1,8,0:0:0:0:
448,192,55420,1,0,0:0:0:0:
64,192,55531,1,8,0:0:0:0:
320,192,55531,1,4,0:0:0:0:
64,192,55642,1,0,0:0:0:0:
192,192,55753,1,2,0:0:0:0:
320,192,55753,1,4,0:0:0:0:
448,192,55753,1,0,0:0:0:0:
64,192,55864,1,0,0:0:0:0:
192,192,55864,1,0,0:0:0:0:
320,192,55975,1,8,0:0:0:0:
448,192,55975,1,0,0:0:0:60:Hat Open.wav
192,192,56086,1,2,0:0:0:0:
64,192,56197,1,2,0:0:0:0:
320,192,56197,1,0,0:0:0:60:Hat Open.wav
448,192,56197,1,0,0:0:0:0:
192,192,56308,1,2,0:0:0:0:
64,192,56420,1,8,0:0:0:0:
320,192,56420,1,0,0:0:0:60:Hat Open.wav
64,192,56531,1,0,0:0:0:0:
192,192,56642,1,8,0:0:0:0:
320,192,56642,1,0,0:0:0:60:Hat Open.wav
448,192,56642,1,0,0:0:0:0:
192,192,56753,1,0,0:0:0:0:
64,192,56864,1,4,0:0:0:0:
320,192,56864,1,2,0:0:0:0:
448,192,56864,1,0,0:0:0:0:
192,192,56975,1,8,0:0:0:0:
448,192,56975,1,0,0:0:0:0:
320,192,57086,1,0,0:0:0:60:Hat Open.wav
64,192,57197,1,2,0:0:0:0:
448,192,57197,1,0,0:0:0:0:
64,192,57308,1,8,0:0:0:0:
192,192,57308,1,0,0:0:0:60:Hat Open.wav
320,192,57420,1,8,0:0:0:0:
448,192,57420,1,0,0:0:0:0:
64,192,57531,1,8,0:0:0:0:
192,192,57531,1,0,0:0:0:60:Hat Open.wav
192,192,57642,1,8,0:0:0:0:
320,192,57642,1,0,0:0:0:0:
64,192,57753,1,0,0:0:0:40:Tom2.wav
448,192,57864,1,0,0:0:0:0:
64,192,57975,1,2,0:0:0:0:
192,192,57975,1,4,0:0:0:0:
320,192,57975,1,0,0:0:0:0:
448,192,58086,1,2,0:0:0:0:
64,192,58197,1,2,0:0:0:0:
192,192,58197,1,8,0:0:0:0:
320,192,58308,1,2,0:0:0:0:
448,192,58308,1,8,0:0:0:0:
192,192,58420,1,0,0:0:0:40:Tom1.wav
64,192,58475,1,0,0:0:0:40:Tom1.wav
320,192,58531,1,0,0:0:0:40:Tom1.wav
448,192,58586,1,0,0:0:0:40:Tom1.wav
64,192,58642,1,0,0:0:0:40:Tom2.wav
192,192,58697,1,0,0:0:0:40:Tom2.wav
320,192,58753,1,0,0:0:0:40:Tom2.wav
448,192,58808,1,0,0:0:0:40:Tom2.wav
64,192,58864,1,0,0:0:0:40:Tom3.wav
192,192,58920,1,0,0:0:0:40:Tom3.wav
448,192,58975,1,0,0:0:0:40:Tom3.wav
320,192,59031,1,0,0:0:0:40:Tom3.wav
64,192,59086,1,4,0:0:0:0:
192,192,59086,1,2,0:0:0:0:
64,192,59197,1,8,0:0:0:0:
192,192,59197,1,0,0:0:0:0:
320,192,59308,1,0,0:0:0:60:Hat Open.wav
64,192,59419,1,2,0:0:0:0:
192,192,59530,1,8,0:0:0:0:
448,192,59530,1,0,0:0:0:60:Hat Open.wav
64,192,59752,1,2,0:0:0:0:
320,192,59752,1,4,0:0:0:0:
448,192,59752,1,0,0:0:0:0:
192,192,59974,1,8,0:0:0:0:
448,192,59974,1,0,0:0:0:60:Hat Open.wav
192,192,60086,1,2,0:0:0:0:
64,192,60197,1,8,0:0:0:0:
320,192,60197,1,0,0:0:0:60:Hat Open.wav
320,192,60308,1,8,0:0:0:0:
64,192,60419,1,2,0:0:0:0:
192,192,60419,1,0,0:0:0:60:Hat Open.wav
448,192,60419,1,0,0:0:0:0:
320,192,60530,1,0,0:0:0:0:
64,192,60641,1,2,0:0:0:0:
320,192,60752,1,8,0:0:0:0:
448,192,60752,1,4,0:0:0:0:
192,192,60863,1,0,0:0:0:0:
448,192,60974,1,2,0:0:0:0:
64,192,61086,1,8,0:0:0:0:
192,192,61086,1,4,0:0:0:0:
320,192,61086,1,0,0:0:0:0:
320,192,61197,1,8,0:0:0:0:
448,192,61197,1,0,0:0:0:0:
192,192,61308,1,0,0:0:0:40:Tom1.wav
192,192,61419,1,0,0:0:0:40:Tom1.wav
448,192,61530,1,0,0:0:0:40:Tom2.wav
448,192,61641,1,0,0:0:0:40:Tom2.wav
64,192,61752,1,2,0:0:0:0:
192,192,61752,1,4,0:0:0:0:
448,192,61863,1,0,0:0:0:0:
64,192,61974,1,2,0:0:0:0:
320,192,61974,1,0,0:0:0:60:Hat Open.wav
320,192,62086,1,8,0:0:0:0:
448,192,62086,1,0,0:0:0:0:
64,192,62197,1,2,0:0:0:0:
448,192,62308,1,0,0:0:0:0:
64,192,62419,1,2,0:0:0:0:
192,192,62419,1,4,0:0:0:0:
320,192,62419,1,0,0:0:0:0:
320,192,62530,1,8,0:0:0:0:
448,192,62530,1,0,0:0:0:0:
192,192,62641,1,2,0:0:0:0:
64,192,62752,1,0,0:0:0:0:
320,192,62752,1,0,0:0:0:0:
64,192,62863,1,8,0:0:0:0:
192,192,62863,1,0,0:0:0:60:Hat Open.wav
320,192,62974,1,8,0:0:0:0:
448,192,62974,1,0,0:0:0:0:
64,192,63085,1,4,0:0:0:0:
192,192,63085,1,2,0:0:0:0:
448,192,63085,1,0,0:0:0:0:
192,192,63197,1,8,0:0:0:0:
320,192,63197,1,0,0:0:0:0:
64,192,63308,1,0,0:0:0:60:Hat Open.wav
448,192,63419,1,2,0:0:0:0:
64,192,63530,1,8,0:0:0:0:
192,192,63530,1,0,0:0:0:60:Hat Open.wav
320,192,63641,1,0,0:0:0:0:
64,192,63752,1,2,0:0:0:0:
192,192,63752,1,4,0:0:0:0:
448,192,63752,1,0,0:0:0:0:
320,192,63863,1,0,0:0:0:0:
64,192,63974,1,8,0:0:0:0:
448,192,63974,1,0,0:0:0:60:Hat Open.wav
192,192,64085,1,8,0:0:0:0:
320,192,64085,1,0,0:0:0:0:
64,192,64197,1,8,0:0:0:0:
192,192,64197,1,0,0:0:0:60:Hat Open.wav
320,192,64308,1,8,0:0:0:0:
448,192,64308,1,0,0:0:0:0:
64,192,64419,1,2,0:0:0:0:
192,192,64419,1,4,0:0:0:0:
320,192,64419,1,0,0:0:0:0:
448,192,64530,1,0,0:0:0:0:
64,192,64641,1,8,0:0:0:0:
192,192,64641,1,0,0:0:0:60:Hat Open.wav
320,192,64752,1,8,0:0:0:0:
448,192,64752,1,0,0:0:0:0:
64,192,64863,1,0,0:0:0:40:Tom1.wav
192,192,64919,1,0,0:0:0:40:Tom1.wav
448,192,64974,1,0,0:0:0:40:Tom1.wav
320,192,65030,1,0,0:0:0:40:Tom1.wav
192,192,65085,1,0,0:0:0:40:Tom2.wav
64,192,65141,1,0,0:0:0:40:Tom2.wav
448,192,65197,1,0,0:0:0:40:Tom2.wav
320,192,65252,1,0,0:0:0:40:Tom2.wav
64,192,65308,1,0,0:0:0:40:Tom3.wav
192,192,65363,1,0,0:0:0:40:Tom3.wav
320,192,65419,1,0,0:0:0:40:Tom3.wav
448,192,65474,1,0,0:0:0:40:Tom3.wav
64,192,65530,1,8,0:0:0:0:
192,192,65530,1,0,0:0:0:60:Hat Open.wav
320,192,65641,1,8,0:0:0:0:
448,192,65641,1,0,0:0:0:60:Hat Open.wav
64,192,65752,1,2,0:0:0:0:
192,192,65752,1,4,0:0:0:0:
320,192,65752,1,0,0:0:0:0:
64,192,65863,1,0,0:0:0:0:
448,192,65974,1,0,0:0:0:60:Hat Open.wav
192,192,66085,1,0,0:0:0:0:
192,192,66196,1,2,0:0:0:0:
320,192,66307,1,0,0:0:0:0:
64,192,66418,1,0,0:0:0:60:Hat Open.wav
64,192,66529,1,0,0:0:0:0:
448,192,66640,1,2,0:0:0:0:
192,192,66752,1,0,0:0:0:60:Hat Close.wav
192,192,66863,1,0,0:0:0:60:Hat Open.wav
320,192,66974,1,0,0:0:0:0:
64,192,67085,1,2,0:0:0:0:
64,192,67196,1,0,0:0:0:0:
448,192,67307,1,0,0:0:0:60:Hat Open.wav
192,192,67418,1,0,0:0:0:0:
320,192,67529,1,2,0:0:0:0:
320,192,67640,1,0,0:0:0:0:
448,192,67752,1,0,0:0:0:60:Hat Open.wav
192,192,67863,1,0,0:0:0:0:
192,192,67974,1,2,0:0:0:0:
64,192,68085,1,0,0:0:0:0:
320,192,68196,1,0,0:0:0:60:Hat Open.wav
320,192,68307,1,0,0:0:0:0:
448,192,68418,1,2,0:0:0:0:
192,192,68529,1,0,0:0:0:60:Hat Close.wav
192,192,68640,1,0,0:0:0:60:Hat Open.wav
64,192,68752,1,0,0:0:0:0:
320,192,68863,1,10,0:0:0:0:
448,192,68863,1,0,0:0:0:60:Hat Close.wav
320,192,68974,1,0,0:0:0:0:
448,192,69085,1,0,0:0:0:60:Hat Open.wav
64,192,69196,1,2,0:0:0:0:
192,192,69307,1,2,0:0:0:0:
320,192,69307,1,4,0:0:0:0:
448,192,69307,1,0,0:0:0:0:
448,192,69418,1,0,0:0:0:0:
192,192,69529,1,0,0:0:0:60:Hat Open.wav
320,192,69640,1,0,0:0:0:0:
320,192,69752,1,2,0:0:0:0:
64,192,69863,1,0,0:0:0:0:
448,192,69974,1,0,0:0:0:60:Hat Open.wav
448,192,70085,1,0,0:0:0:0:
192,192,70196,1,2,0:0:0:0:
320,192,70307,1,0,0:0:0:60:Hat Close.wav
320,192,70418,1,0,0:0:0:60:Hat Open.wav
64,192,70529,1,0,0:0:0:0:
448,192,70640,1,2,0:0:0:0:
448,192,70752,1,0,0:0:0:0:
192,192,70863,1,0,0:0:0:60:Hat Open.wav
320,192,70974,1,0,0:0:0:0:
64,192,71085,1,2,0:0:0:0:
64,192,71196,1,0,0:0:0:0:
192,192,71307,1,0,0:0:0:60:Hat Open.wav
448,192,71418,1,0,0:0:0:0:
448,192,71529,1,2,0:0:0:0:
320,192,71640,1,0,0:0:0:0:
64,192,71752,1,0,0:0:0:60:Hat Open.wav
64,192,71863,1,0,0:0:0:0:
192,192,71974,1,2,0:0:0:0:
448,192,72085,1,0,0:0:0:60:Hat Close.wav
448,192,72196,1,0,0:0:0:60:Hat Open.wav
192,192,72307,1,0,0:0:0:0:
64,192,72418,1,2,0:0:0:0:
320,192,72418,1,8,0:0:0:0:
448,192,72418,1,4,0:0:0:0:
64,192,72529,1,0,0:0:0:0:
192,192,72640,1,0,0:0:0:60:Hat Open.wav
448,192,72752,1,0,0:0:0:0:
64,192,72863,1,2,0:0:0:0:
192,192,72863,1,4,0:0:0:0:
320,192,72863,1,0,0:0:0:0:
320,192,72974,1,0,0:0:0:0:
64,192,73085,1,0,0:0:0:60:Hat Open.wav
192,192,73196,1,0,0:0:0:0:
64,192,73307,1,10,0:0:0:0:
192,192,73307,1,0,0:0:0:60:Hat Close.wav
448,192,73418,1,0,0:0:0:0:
320,192,73529,1,0,0:0:0:60:Hat Open.wav
320,192,73640,1,0,0:0:0:0:
64,192,73751,1,2,0:0:0:0:
192,192,73863,1,0,0:0:0:60:Hat Close.wav
192,192,73974,1,0,0:0:0:60:Hat Open.wav
448,192,74085,1,8,0:0:0:0:
64,192,74196,1,10,0:0:0:0:
320,192,74196,1,0,0:0:0:60:Hat Close.wav
320,192,74307,1,0,0:0:0:0:
448,192,74418,1,0,0:0:0:60:Hat Open.wav
192,192,74529,1,0,0:0:0:0:
64,192,74640,1,2,0:0:0:0:
64,192,74751,1,0,0:0:0:0:
448,192,74863,1,0,0:0:0:60:Hat Open.wav
192,192,74974,1,0,0:0:0:0:
192,192,75085,1,10,0:0:0:0:
448,192,75085,1,0,0:0:0:60:Hat Close.wav
320,192,75196,1,0,0:0:0:0:
64,192,75307,1,0,0:0:0:60:Hat Open.wav
64,192,75418,1,0,0:0:0:0:
448,192,75529,1,2,0:0:0:0:
192,192,75640,1,0,0:0:0:60:Hat Close.wav
192,192,75751,1,0,0:0:0:60:Hat Open.wav
320,192,75863,1,8,0:0:0:0:
64,192,75974,1,10,0:0:0:0:
448,192,75974,1,0,0:0:0:60:Hat Close.wav
64,192,76085,1,0,0:0:0:0:
320,192,76196,1,0,0:0:0:60:Hat Open.wav
192,192,76307,1,2,0:0:0:0:
64,192,76418,1,2,0:0:0:0:
320,192,76418,1,4,0:0:0:0:
448,192,76418,1,0,0:0:0:60:Hat Close.wav
448,192,76529,1,0,0:0:0:0:
192,192,76640,1,0,0:0:0:60:Hat Open.wav
64,192,76751,1,0,0:0:0:0:
64,192,76863,1,10,0:0:0:0:
448,192,76863,1,0,0:0:0:60:Hat Close.wav
320,192,76974,1,0,0:0:0:0:
448,192,77085,1,0,0:0:0:60:Hat Open.wav
448,192,77196,1,0,0:0:0:0:
192,192,77307,1,2,0:0:0:0:
64,192,77418,1,0,0:0:0:60:Hat Close.wav
64,192,77529,1,0,0:0:0:60:Hat Open.wav
320,192,77640,1,8,0:0:0:0:
192,192,77751,1,10,0:0:0:0:
448,192,77751,1,0,0:0:0:60:Hat Close.wav
448,192,77863,1,0,0:0:0:0:
64,192,77974,1,0,0:0:0:60:Hat Open.wav
448,192,78085,1,0,0:0:0:0:
320,192,78196,1,2,0:0:0:0:
320,192,78307,1,0,0:0:0:0:
192,192,78418,1,0,0:0:0:60:Hat Open.wav
448,192,78529,1,0,0:0:0:0:
64,192,78640,1,10,0:0:0:0:
448,192,78640,1,0,0:0:0:60:Hat Close.wav
192,192,78751,1,8,0:0:0:0:
320,192,78863,1,0,0:0:0:60:Hat Open.wav
320,192,78974,1,0,0:0:0:0:
192,192,79085,1,2,0:0:0:0:
448,192,79196,1,0,0:0:0:60:Hat Close.wav
448,192,79307,1,0,0:0:0:60:Hat Open.wav
192,192,79418,1,8,0:0:0:0:
64,192,79529,1,14,0:0:0:0:
320,192,79529,1,0,0:0:0:60:Hat Close.wav
320,192,79640,1,0,0:0:0:0:
192,192,79751,1,2,0:0:0:0:
448,192,79863,1,0,0:0:0:0:
64,192,79974,1,0,0:0:0:40:Tom1.wav
320,192,80048,1,0,0:0:0:40:Tom1.wav
448,192,80122,1,0,0:0:0:40:Tom2.wav
192,192,80196,1,0,0:0:0:40:Tom2.wav
320,192,80270,1,0,0:0:0:40:Tom3.wav
64,192,80344,1,0,0:0:0:40:Tom3.wav
192,192,80418,1,4,0:0:0:0:
320,192,80418,1,2,0:0:0:0:
448,192,80418,1,0,0:0:0:0:
192,192,80529,1,0,0:0:0:0:
192,192,81084,1,0,0:0:0:0:
192,192,82195,1,0,0:0:0:0:
192,192,83306,1,0,0:0:0:0:
192,192,83973,1,0,0:0:0:0:
