osu file format v5

[General]
AudioFilename: dj raaban - anima libera (remix)(3).mp3
AudioLeadIn: 0
PreviewTime: -1
Countdown: 1
SampleSet: Normal
StackLeniency: 0.7
Mode: 0
LetterboxInBreaks: 1

[Metadata]
Title:anima libera (remix)
Artist:dj raaban
Creator:eVoeX
Version:Hard
Source:Dj Raaban
Tags:Anima Libera

[Difficulty]
HPDrainRate:9
CircleSize:6
OverallDifficulty:7
SliderMultiplier:1.5
SliderTickRate:2

[Events]
//Background and Video events
//Break Periods
2,68988,90710
2,113345,124353
2,154167,156603
//Storyboard Layer 0 (Background)
//Storyboard Layer 1 (Failing)
//Storyboard Layer 2 (Passing)
//Storyboard Layer 3 (Foreground)
//Storyboard Sound Samples
//Background Colour Transformations
3,100,163,162,255

[TimingPoints]
7,428.571428571429,4,1,0,100,1,0

[HitObjects]
256,192,1132,12,0,5149
288,64,6596,5,0
224,96,6917,1,0
403,288,7935,1,0
335,242,8257,1,0
132,41,9274,5,0
306,120,9971,1,0
157,218,10614,1,0
332,224,11257,1,0
224,71,11953,5,0
179,138,12274,1,0
157,218,12596,1,0
231,271,12917,1,0
335,265,13292,1,0
385,187,13614,1,0
348,98,13989,1,0
270,83,14310,1,0
187,91,14632,1,0
119,152,14953,1,0
121,246,15328,1,0
198,273,15649,1,0
288,274,15971,1,0
370,239,16292,1,0
285,202,16614,1,0
233,127,18649,5,0
241,138,19989,5,0
55,143,20685,1,0
241,160,21382,1,0
418,116,22078,1,0
238,106,22721,1,0
87,199,23364,5,0
277,226,24060,1,0
391,88,24703,1,0
215,135,25346,1,0
132,173,25667,1,0
123,275,26042,1,0
218,281,26417,1,0
303,255,26739,1,0
350,182,27060,1,0
278,105,27435,1,0
139,130,29417,6,0,L|168:146,14,18.75
149,104,32096,5,0
322,120,32417,1,0
154,199,32739,1,0
313,258,33114,1,0
256,192,33382,12,0,36596
148,61,37882,5,0
221,101,38203,1,0
163,160,38524,1,0
236,214,38846,1,0
336,188,39221,1,0
330,106,39542,1,0
241,86,39864,1,0
158,119,40185,1,0
120,203,40507,1,0
178,279,40882,1,0
266,285,41203,1,0
348,244,41524,1,0
372,151,41899,1,0
306,106,42221,1,0
224,101,42542,1,0
154,142,42864,5,0
119,224,43185,1,0
187,305,43560,1,0
280,298,43935,1,0
348,252,44257,1,0
367,173,44578,1,0
342,138,44739,1,0
308,109,44899,1,0
220,103,45221,1,0
132,129,45542,1,0
256,192,45810,12,0,47846
314,43,48649,5,0
243,61,48917,1,0
311,115,49239,1,0
206,137,49560,1,0
174,157,49774,1,0
141,177,49935,1,0
184,239,50257,1,0
269,267,50578,1,0
377,217,50953,1,0
394,184,51114,1,0
406,151,51274,1,0
316,121,51649,1,0
233,109,51971,1,0
152,116,52292,1,0
103,179,52614,1,0
141,263,52935,1,0
231,275,53257,1,0
330,211,53685,5,0
323,124,54007,1,0
326,170,54167,1,0
323,124,54328,1,0
234,103,54649,1,0
151,122,54971,1,0
178,210,55292,1,0
178,210,55507,1,0
202,242,55667,1,0
126,263,56042,5,0
193,280,56310,1,0
280,277,56632,1,0
368,240,57007,5,0
390,143,57328,5,0
376,128,57489,5,0
366,121,57649,5,0
353,114,57864,5,0
340,110,58024,5,0
330,108,58185,5,0
318,107,58346,5,0
307,107,58507,5,0
295,109,58667,5,0
284,114,58828,5,0
274,121,58989,5,0
265,127,59149,5,0
228,171,59364,5,0
369,57,60649,5,0
69,298,62042,5,0
211,194,62685,5,0
117,42,63328,5,0
183,90,63649,1,0
124,164,64024,1,0
187,74,64774,5,0
347,106,65364,1,0
164,184,66114,1,0
224,185,66382,1,0
318,33,67399,1,0
246,87,67721,1,0
180,154,68096,1,0
176,235,68417,1,0
260,286,68792,1,0
176,89,91614,5,0
255,90,91989,1,0
337,88,92310,1,0
340,158,92632,1,0
260,160,92953,1,0
177,155,93274,1,0
177,232,93649,1,0
136,115,94292,5,0
136,195,94614,1,0
135,279,94989,1,0
220,288,95310,1,0
223,208,95685,1,0
225,118,96007,1,0
316,120,96382,1,0
316,192,96703,1,0
318,274,97024,1,0
411,119,97346,1,0
256,192,97667,12,0,101578
332,179,102328,5,0
231,191,102703,1,0
136,162,103078,1,0
116,123,103239,1,0
96,84,103399,1,0
189,66,103721,1,0
282,76,104042,1,0
374,118,104417,1,0
399,156,104578,1,0
426,193,104739,1,0
354,287,105060,1,0
328,298,105274,1,0
288,313,105435,1,0
176,283,105757,1,0
152,264,105971,1,0
123,246,106132,1,0
89,150,106453,1,0
109,119,106614,1,0
124,94,106774,1,0
234,100,107792,5,0
301,147,108114,1,0
350,216,108435,1,0
316,240,108596,1,0
275,267,108810,1,0
188,243,109078,1,0
128,168,109453,1,0
183,112,109774,1,0
219,96,109935,1,0
259,83,110096,1,0
342,128,110471,1,0
357,204,110792,1,0
289,258,111114,1,0
244,276,111328,1,0
214,281,111489,1,0
133,223,111810,1,0
135,202,111971,1,0
140,182,112132,1,0
146,164,112292,1,0
157,148,112453,1,0
174,137,112614,1,0
193,130,112828,1,0
215,126,112989,1,0
236,124,113149,1,0
145,78,125257,5,0
225,93,125578,1,0
185,190,125953,1,0
162,213,126114,5,0
138,239,126274,1,0
203,282,126596,1,0
297,284,126971,1,0
374,242,127292,1,0
401,213,127453,1,0
423,178,127614,1,0
374,113,127935,1,0
290,103,128257,1,0
244,105,128417,1,0
202,107,128578,1,0
129,168,128953,1,0
108,204,129114,1,0
93,243,129274,1,0
146,311,129596,1,0
182,325,129810,1,0
212,334,129971,1,0
369,249,130614,5,0
346,166,130935,1,0
251,111,131257,1,0
216,103,131471,1,0
186,95,131632,1,0
119,166,131953,1,0
122,253,132274,1,0
210,289,132649,1,0
251,300,132810,1,0
294,304,132971,1,0
379,220,133346,5,0
373,140,133721,1,0
311,100,133989,1,0
225,89,134310,1,0
132,125,134685,1,0
106,204,135007,1,0
142,283,135328,1,0
274,161,135971,5,0
182,145,136346,1,0
240,87,136667,1,0
287,83,136828,1,0
335,81,137042,1,0
368,150,137364,1,0
364,225,137632,1,0
274,285,138007,1,0
235,286,138167,1,0
193,286,138328,1,0
105,210,138649,1,0
103,179,138864,1,0
103,140,139024,1,0
188,73,139346,1,0
222,73,139560,1,0
257,75,139721,1,0
330,106,140042,1,0
355,137,140203,1,0
374,174,140364,1,0
323,267,140685,1,0
298,286,140899,1,0
274,304,141060,1,0
175,289,141382,1,0
147,269,141542,1,0
129,242,141757,1,0
126,149,142078,1,0
145,115,142239,1,0
170,89,142399,1,0
249,76,142721,1,0
290,81,142882,1,0
326,91,143042,1,0
367,166,143364,1,0
367,202,143578,1,0
365,240,143739,1,0
274,275,144060,5,0
190,256,144382,1,0
124,195,144703,1,0
149,101,145078,1,0
229,73,145399,1,0
258,72,145560,1,0
292,78,145774,1,0
313,97,145935,1,0
326,118,146096,1,0
338,142,146257,1,0
343,165,146417,1,0
345,184,146578,1,0
345,244,146792,1,0
256,192,147274,12,0,153971
163,100,157507,5,0
251,101,157828,1,0
382,119,158203,1,0
401,136,158364,1,0
419,148,158524,1,0
435,170,158685,1,0
441,204,158846,1,0
406,265,159221,1,0
317,273,159542,1,0
286,275,159703,1,0
260,275,159864,1,0
235,276,160024,1,0
213,276,160185,1,0
162,220,160507,1,0
272,73,161257,5,0
380,109,161524,1,0
382,134,161685,1,0
383,163,161899,1,0
374,191,162060,1,0
355,216,162221,1,0
330,233,162382,1,0
303,251,162542,1,0
170,261,162917,1,0
118,197,163239,1,0
124,104,163560,5,0
159,82,163721,5,0
195,59,163935,5,0
256,192,164578,12,0,167364
259,100,168274,5,0
168,98,168596,5,0
158,189,168917,5,0
157,233,169132,5,0
161,277,169292,5,0
251,242,169614,5,0
340,224,169935,5,0
377,148,170257,5,0
379,148,170471,5,0
379,150,170632,5,0
238,142,170953,5,0
144,143,171274,5,0
131,210,171596,5,0
163,184,171810,5,0
190,164,171971,5,0
272,222,172292,5,0
351,179,172614,5,0
303,96,172935,5,0
278,145,173149,5,0
260,106,173310,5,0
164,114,173632,5,0
116,197,173953,5,0
191,255,174274,5,0
223,255,174489,1,0
251,258,174649,1,0
350,204,174971,1,0
350,110,175292,1,0
235,76,175614,1,0
200,76,175828,1,0
167,77,175989,1,0
106,164,176364,1,0
145,242,176685,1,0
219,247,176953,1,0
285,248,177167,1,0
253,303,177328,1,0
104,160,177917,6,0,L|388:156,1,281.25
256,192,178828,12,0,179310
