osu file format v6

[General]
AudioFilename: Kakumei.mp3
AudioLeadIn: 1500
PreviewTime: 17180
Countdown: 0
SampleSet: Normal
StackLeniency: 0.4
Mode: 0
LetterboxInBreaks: 1

[Editor]
Bookmarks: 104473
DistanceSpacing: 1.20000004768372
BeatDivisor: 4
GridSize: 8

[Metadata]
Title:Kakumei
Artist:dj TAKA with NAOKI
Creator:Mystearica
Version:Hyper
Source:
Tags:IIDX 7th Style MegaManEXE Megaboy

[Difficulty]
HPDrainRate:6
CircleSize:4
OverallDifficulty:6
SliderMultiplier:1.5
SliderTickRate:1

[Events]
//Background and Video events
0,0,"Revolution.jpg"
//Break Periods
2,14266,16666
2,43862,49099
//Storyboard Layer 0 (Background)
//Storyboard Layer 1 (Fail)
//Storyboard Layer 2 (Pass)
//Storyboard Layer 3 (Foreground)
//Storyboard Sound Samples
//Background Colour Transformations
3,100,0,0,0

[TimingPoints]
400,405.51500405515,4,1,1,70,1,0
704,-100,4,2,1,100,0,0
3339,-100,4,1,1,70,0,0
3745,-100,4,2,1,100,0,0
6584,-100,4,1,1,70,0,0
6989,-100,4,2,1,100,0,0
14066,652.173913043478,4,2,1,30,1,0
16095,405.405405405405,4,1,1,50,1,0

[Colours]
Combo1 : 254,192,210
Combo2 : 254,207,175
Combo3 : 239,254,203
Combo4 : 224,230,254

[HitObjects]
56,248,400,5,0
56,136,603,1,0
176,224,805,6,0,B|144:256,8,37.5,0|0|2|0|0|0|2|0|0
176,160,1819,2,0,B|144:128,10,37.5,2|0|0|0|2|0|0|0|2|0|0
232,192,3035,2,0,B|312:192,1,75,2|0
464,136,3441,5,0
464,248,3644,1,0
304,144,3846,6,0,B|336:112,8,37.5,2|0|0|0|2|0|0|0|2
256,191,4860,1,0
304,239,5063,2,0,B|336:271,10,37.5,2|0|0|0|2|0|0|0|2|0|0
352,192,6279,2,0,B|272:192,1,75,2|0
200,40,6685,5,0
312,40,6888,1,0
256,208,7090,12,0,14066
64,336,17716,5,4
178,298,18122,2,0,B|253:270|327:300,1,150,0|0
407,334,18831,1,0
407,334,18932,1,0
302,275,19338,2,0,B|237:231|254:140,1,150
256,24,20149,1,0
88,120,20453,5,0
88,120,20554,1,0
199,165,20959,2,0,B|269:201|348:164,1,150,0|0
455,123,21770,1,0
411,201,22074,1,0
411,201,22175,1,0
297,239,22581,2,0,B|219:259|201:348,1,150
144,240,23392,2,0,B|222:259|240:348,1,150
424,192,24203,5,0
96,192,24608,1,0
256,64,25317,5,0
256,64,25419,1,0
328,112,25622,1,0
296,192,25824,1,0
216,192,26027,1,0
184,112,26230,1,0
256,352,26938,5,0
256,352,27040,1,0
256,280,27243,1,0
114,191,27446,6,0,B|183:147|257:192,1,150
397,191,28257,2,0,B|328:147|254:192,1,150
160,88,29067,6,0,B|112:88,1,37.5,0|0
168,128,29270,2,0,B|130:147,1,37.5,0|0
192,160,29473,2,0,B|172:195,1,37.5,0|0
232,184,29676,2,0,B|218:241,1,37.5,0|0
272,184,29878,2,0,B|280:220,1,37.5,0|0
312,160,30081,2,0,B|330:192,1,37.5,0|0
336,127,30284,2,0,B|369:144,1,37.5,0|0
344,88,30487,2,0,B|381:88,1,37.5,0|0
328,48,30689,6,0,B|256:20|176:50,2,150,4|0|0
256,136,31803,1,0
256,136,31905,1,0
181,266,32311,2,0,B|255:294|327:266,2,150
40,104,33426,5,0
40,104,33527,1,0
144,152,33831,1,0
144,152,33932,1,0
40,264,34338,1,0
136,320,34642,1,0
136,320,34743,1,0
232,264,35047,1,0
232,264,35149,1,0
144,152,35554,1,0
480,192,36162,5,0
440,192,36263,1,0
400,192,36365,2,0,B|248:192,1,150
424,40,37176,5,0
336,160,37581,1,0
320,192,37682,1,0
336,224,37784,1,0
336,224,37986,1,0
424,344,38391,1,0
46,91,39000,6,0,B|121:46|189:93,1,150,0|0
120,272,39811,1,0
192,200,40013,1,0
264,272,40216,1,0
192,344,40419,1,0
256,40,41027,5,0
256,72,41128,1,0
256,104,41230,1,0
416,328,41838,5,0
384,328,41939,1,0
352,328,42040,1,0
320,328,42142,1,0
288,328,42243,1,0
224,328,42446,1,0
160,328,42649,1,0
160,328,42750,1,0
160,328,42851,1,0
128,80,43257,5,0
384,304,43662,1,4
120,56,50149,6,0,B|40:56,1,75
160,56,50554,1,0
272,56,50757,2,0,B|192:56,1,75
312,56,51162,1,0
312,56,51365,1,0
392,328,51770,6,0,B|472:328,1,75
352,328,52175,1,0
240,328,52378,2,0,B|320:328,1,75
200,328,52783,1,0
200,328,52986,1,0
112,160,53392,6,0,B|184:192,1,75,0|0
400,160,53797,2,0,B|328:192,1,75,0|0
256,208,54203,12,4,56635
331,338,57040,6,0,B|255:380|186:336,1,150
48,224,57851,1,0
128,64,58257,1,0
256,192,58662,1,0
384,64,59067,1,0
464,224,59473,1,0
256,328,59878,5,4
256,32,60689,5,0
174,175,61094,1,0
339,175,61500,1,0
256,320,61905,2,0,B|256:168,1,150
256,320,62716,5,0
256,320,63021,1,0
256,320,63122,1,0
40,144,63527,5,0
96,192,63730,1,0
152,144,63932,2,0,B|152:104,2,37.5
208,192,64338,1,0
264,144,64540,1,0
320,192,64743,2,0,B|320:232,2,37.5
376,144,65149,1,0
432,192,65351,1,0
488,144,65554,2,0,B|488:104,2,37.5
432,296,65959,5,0
80,88,66365,1,4
64,337,66770,6,0,B|106:335|130:297,1,75,0|0
171,240,67176,1,0
171,240,67277,1,0
171,240,67379,1,0
213,178,67581,2,0,B|255:181|279:219,1,75,0|0
301,286,67987,1,0
301,286,68088,1,0
301,286,68189,1,0
371,257,68392,2,0,B|401:228|395:184,1,75,0|0
336,143,68798,1,0
336,143,68899,1,0
336,143,69000,1,0
267,111,69203,2,0,B|250:73|272:34,1,75,0|0
120,120,69608,6,0,B|40:120,2,75,0|0|0
168,192,70216,2,0,B|248:192,2,75
120,264,70824,2,0,B|40:264,2,75
168,336,71432,2,0,B|248:336,2,75
168,192,72040,5,0
256,272,72243,1,0
344,192,72446,1,0
256,112,72649,1,0
374,77,72851,6,0,B|377:25,1,37.5,0|0
410,93,73054,2,0,B|435:54,1,37.5,0|0
440,125,73257,2,0,B|477:99,1,37.5,0|0
457,166,73459,2,0,B|501:157,1,37.5,0|0
459,212,73662,2,0,B|495:219,1,37.5,0|0
441,253,73864,2,0,B|472:274,1,37.5,0|0
411,284,74067,2,0,B|432:316,1,37.5,0|0
376,301,74270,2,0,B|378:339,1,37.5,0|0
256,208,74473,12,4,76094
453,130,76500,6,0,B|384:180|312:128,1,150
212,59,77209,1,0
212,59,77311,1,0
97,178,77716,2,0,B|166:140|243:180,2,150
312,304,78831,5,0
312,304,78932,1,0
452,216,79338,2,0,B|490:142|452:64,2,150
354,139,80453,1,0
354,139,80554,1,0
227,245,80959,2,0,B|154:202|82:247,2,150
384,297,82176,1,0
256,40,82581,6,0,B|256:192,1,150
256,336,83392,5,0
256,224,83696,1,0
256,224,83797,1,0
256,152,84000,1,0
200,104,84203,1,0
256,56,84405,1,0
312,104,84608,1,0
48,304,85216,5,0
32,272,85317,1,0
48,240,85419,1,0
120,208,85622,1,0
192,176,85824,2,0,B|217:137|190:104,1,75
120,56,86230,2,0,B|95:95|122:128,1,75
192,176,86635,2,0,B|217:137|190:104,1,75
120,56,87040,2,0,B|95:95|122:128,1,75
256,303,87446,5,0
279,280,87547,1,0
304,256,87649,1,0
327,232,87750,1,0
351,208,87851,1,0
351,208,88054,1,0
255,80,88257,1,0
232,103,88358,1,0
208,128,88460,1,0
184,151,88561,1,0
160,175,88662,1,0
160,175,88865,1,0
256,192,89067,5,4
117,249,89473,2,0,B|37:249,2,75,0|0|0
208,320,90182,1,0
208,320,90284,2,0,B|281:358|355:319,1,150
276,191,91094,2,0,B|356:191,2,75
463,64,91804,5,0
463,64,91905,1,0
368,160,92209,1,0
368,160,92311,1,0
240,32,92716,1,0
145,128,93020,1,0
145,128,93122,1,0
49,223,93426,1,0
49,223,93527,1,0
177,350,93932,2,0,B|288:238,1,150
256,96,94540,5,0
240,128,94642,1,0
272,128,94743,1,0
256,264,95149,1,0
467,308,95554,6,0,B|398:271|318:310,1,150,4|0
256,344,96162,1,0
184,312,96365,2,0,B|108:348|39:311,2,150
264,176,97378,6,0,B|333:139|413:178,2,150
200,216,98392,1,0
136,176,98594,1,0
72,216,98797,1,0
376,72,99203,5,0
376,136,99405,1,0
376,168,99507,1,0
376,200,99607,1,0
256,136,100013,1,0
256,200,100216,1,0
256,232,100317,1,0
256,264,100419,1,0
136,200,100824,1,0
136,264,101027,1,0
136,296,101128,1,0
136,328,101230,1,0
344,344,101635,5,0
440,192,102040,1,0
344,40,102446,1,0
168,40,102851,1,0
72,192,103257,1,0
168,344,103662,1,4
256,192,104270,5,0
256,192,104372,1,0
256,192,104473,1,4
