osu file format v9

[General]
AudioFilename: dj TAKA vs DJ YOSHITAKA - quell -the seventh slave-.mp3
AudioLeadIn: 0
PreviewTime: 31621
Countdown: 0
SampleSet: Normal
StackLeniency: 0.6
Mode: 0
LetterboxInBreaks: 1

[Editor]
Bookmarks: 14453,28167,31596
DistanceSpacing: 1.7
BeatDivisor: 2
GridSize: 4

[Metadata]
Title:quell -the seventh slave-
Artist:dj TAKA vs DJ YOSHITAKA
Creator:Sprosive
Version:Normal
Source:beatmania IIDX 13th DistorteD CS
Tags:DeeN

[Difficulty]
HPDrainRate:3
CircleSize:3
OverallDifficulty:3
ApproachRate:3
SliderMultiplier:1.2
SliderTickRate:1

[Events]
//Background and Video events
0,0,"dark_cubes.jpg"
//Break Periods
2,59249,71324
2,86678,88466
//Storyboard Layer 0 (Background)
//Storyboard Layer 1 (Fail)
//Storyboard Layer 2 (Pass)
//Storyboard Layer 3 (Foreground)
//Storyboard Sound Samples
//Background Colour Transformations
3,100,0,0,0

[TimingPoints]
764,428.571428571429,4,1,0,80,1,0
31621,-100,4,1,0,80,0,1
32049,-100,4,1,0,80,0,0
72549,-133.333333333333,4,1,0,80,0,0
72817,-133.333333333333,4,2,0,60,0,0
76192,-133.333333333333,4,1,0,80,0,0
76406,-133.333333333333,4,2,0,60,0,0
79621,-133.333333333333,4,1,0,80,0,0
79674,-133.333333333333,4,2,0,60,0,0
83049,-133.333333333333,4,1,0,80,0,0
86478,-133.333333333333,4,1,0,80,0,0
89906,-100,4,1,0,80,0,1
90335,-100,4,1,0,80,0,0

[Colours]
Combo1 : 0,128,0
Combo2 : 105,126,150
Combo3 : 5,51,156
Combo4 : 174,0,0

[HitObjects]
112,80,31621,2,0,B|144:128|128:208,1,120,4|8
96,304,32478,1,0
208,304,32906,1,8
320,304,33335,2,0,B|384:320|432:272,1,120,0|8
464,176,34192,2,0,B|400:160|352:208,1,120,0|8
320,96,35049,5,4
216,88,35478,1,8
112,80,35906,2,0,B|96:144|128:200,1,120,0|8
168,296,36764,2,0,B|232:288|288:320,3,120,0|8|0|8
384,288,38478,5,4
464,216,38906,1,8
388,140,39335,1,0
308,212,39764,1,8
204,212,40192,5,0
124,140,40621,1,8
48,216,41050,1,0
128,288,41478,1,8
232,312,41906,6,0,B|312:264|384:368|464:320,1,240,4|0
488,216,43192,1,8
464,112,43621,2,0,B|385:64|313:168|233:120,1,240,0|0
128,80,44906,1,8
48,160,45335,6,0,B|16:224,2,60,4|0|8
144,224,46192,2,0,B|208:240|224:304,1,120,0|8
336,272,47049,2,0,B|400:272|448:224,3,120,0|8|0|8
480,128,48764,6,0,B|496:64,2,60,4|0|8
384,80,49621,2,0,B|320:80|272:128,1,120,0|8
208,208,50478,1,0
104,168,50906,1,8
64,272,51335,1,0
168,312,51764,5,8
168,312,51978,1,0
168,312,52192,2,0,B|240:304|288:352,1,120,4|8
384,304,53049,2,0,B|416:176,1,120,0|8
440,80,53906,2,0,B|376:96|328:48,3,120,0|8|0|8
240,112,55621,5,4
136,144,56049,1,8
72,232,56478,1,0
64,336,56906,1,8
168,296,57335,6,0,B|232:288|280:328,1,120,0|8
352,248,58192,1,0
351,143,58621,2,0,B|287:151|240:112,1,120,0|4
88,312,72764,6,0,B|448:336,2,359.999989271164,4|2|4
248,232,77049,2,0,B|68:220,2,179.999994635582,0|2|0
392,128,79621,2,0,B|212:116,3,179.999994635582,4|2|0|2
32,100,83049,1,4
256,192,83478,12,0,86478
80,240,89906,6,0,B|144:176|256:232|248:320,1,240,4|0
352,256,91192,1,8
344,136,91621,2,0,B|280:200|168:144|176:56,1,240,4|0
72,120,92906,1,8
80,240,93335,6,0,B|208:248|296:344,2,240,4|0|0
176,168,95478,1,8
288,200,95906,1,0
384,128,96335,5,8
384,128,96549,1,0
384,128,96764,2,0,B|344:200|384:304|472:328,1,240,4|0
344,352,98049,1,8
264,264,98478,2,0,B|304:192|264:88|176:64,1,240,4|0
64,48,99764,1,8
24,160,100192,6,0,B|40:280,1,120,4|8
136,352,101049,2,0,B|120:232,1,120,0|8
216,304,101906,2,0,B|272:336|336:328,1,120,0|8
448,296,102764,1,0
448,296,102978,1,0
448,296,103192,1,0
472,176,103621,6,0,B|344:136|232:240|112:200,1,360,4|8
88,88,105335,2,0,B|200:144|336:32|456:72,1,360,4|8
376,168,107049,6,0,B|400:224|392:288,3,120,4|8|0|8
304,368,108764,2,0,B|280:312|288:248,2,120,0|8|0
192,320,110049,5,8
192,320,110264,1,0
192,320,110478,2,0,B|192:80|192:80|144:80|108:116|112:160,1,360,4|8
280,152,112192,6,0,B|408:152|408:152|336:256|360:376,1,360,4|8
256,328,113906,6,0,B|136:336,1,120,0|8
64,240,114764,2,0,B|184:232,1,120,0|8
248,128,115621,1,0
368,120,116049,1,8
488,112,116478,1,0
56,140,117335,5,4
