osu file format v9

[General]
AudioFilename: dj TAKA vs DJ YOSHITAKA - quell -the seventh slave-.mp3
AudioLeadIn: 0
PreviewTime: 31621
Countdown: 0
SampleSet: Soft
StackLeniency: 0.6
Mode: 0
LetterboxInBreaks: 1

[Editor]
Bookmarks: 14453,28167,31596
DistanceSpacing: 1.6
BeatDivisor: 4
GridSize: 4

[Metadata]
Title:quell -the seventh slave-
Artist:dj TAKA vs DJ YOSHITAKA
Creator:Sprosive
Version:Hyper
Source:beatmania IIDX 13th DistorteD CS
Tags:DeeN

[Difficulty]
HPDrainRate:5
CircleSize:4
OverallDifficulty:6
ApproachRate:7
SliderMultiplier:1.6
SliderTickRate:0.5

[Events]
//Background and Video events
0,0,"dark_cubes.jpg"
//Break Periods
2,61606,71864
//Storyboard Layer 0 (Background)
//Storyboard Layer 1 (Fail)
//Storyboard Layer 2 (Pass)
//Storyboard Layer 3 (Foreground)
//Storyboard Sound Samples
//Background Colour Transformations
3,100,0,0,0

[TimingPoints]
764,428.571428571429,4,2,0,80,1,0
871,-200,4,2,0,70,0,0
7514,-66.6666666666667,4,2,0,70,0,0
8156,-200,4,2,0,70,0,0
13942,-100,4,2,0,70,0,0
21228,-100,4,1,0,70,0,0
21442,-100,4,2,0,70,0,0
23799,-100,4,1,0,70,0,0
24014,-100,4,2,0,70,0,0
26906,-100,4,2,0,75,0,0
27335,-100,4,2,0,80,0,0
27764,-100,4,2,0,85,0,0
28192,-100,4,1,0,90,0,0
28605,-100,4,1,0,85,0,0
29049,-100,4,1,0,80,0,0
29478,-100,4,1,0,75,0,0
29906,-100,4,1,0,70,0,0
30335,-100,4,2,0,65,0,0
31514,-100,4,1,0,80,0,0
72871,-100,4,2,0,80,0,0
73299,-100,4,1,0,80,0,0
73514,-100,4,2,0,80,0,0
73942,-100,4,1,0,80,0,0
74156,-100,4,2,0,80,0,0
74371,-100,4,1,0,80,0,0
75442,-100,4,2,0,80,0,0
75656,-100,4,1,0,80,0,0
76514,-100,4,2,0,80,0,0
79514,-100,4,1,0,80,0,0
79728,-100,4,2,0,80,0,0
82942,-100,4,1,0,80,0,0
83156,-100,4,2,0,80,0,0
89799,-100,4,1,0,80,0,0
117228,-66.6666666666667,4,1,0,80,0,0
117656,-66.6666666666667,4,2,0,5,0,0

[Colours]
Combo1 : 0,128,0
Combo2 : 105,126,150
Combo3 : 5,51,156
Combo4 : 174,0,0

[HitObjects]
60,108,764,1,2
60,108,978,2,0,B|92:184,1,80
104,260,1621,2,0,B|180:280,1,80,2|0
324,344,2264,2,0,B|344:268,1,80,2|0
292,208,2906,2,0,B|232:156,1,80,2|0
232,156,3549,1,0
280,84,4406,5,2
148,284,5049,1,0
336,136,5692,1,2
204,336,6335,1,0
396,192,6978,2,0,B|328:128,1,80,2|2
337,137,7621,6,0,B|240:136|240:136|232:128|232:128|88:128|88:128,1,239.999992847443,4|0
101,128,8478,6,0,B|84:172|104:212,1,80,2|0
176,284,9120,2,0,B|193:240|173:200,1,80
256,128,9763,2,0,B|238:172|258:212,1,80,2|0
256,128,10406,2,0,B|208:84|136:104,1,120
160,272,11264,5,2
364,148,11906,1,0
132,200,12549,1,2
372,228,13192,1,0
156,128,13835,1,2
468,64,14264,1,0
392,156,14478,5,0
392,156,14692,2,0,B|340:128|340:128|336:112|336:112|260:68|260:68,1,160,2|0
224,148,15335,2,2,B|276:176|276:176|280:192|280:192|356:236|356:236,1,160
272,288,15978,2,0,B|220:260|220:260|216:244|216:244|140:200|140:200,1,160,2|0
142,201,16621,1,0
247,78,17049,1,0
247,78,17264,2,0,B|299:106|299:106|303:122|303:122|379:166|379:166,1,160
116,164,18121,2,0,B|168:136|168:136|172:120|172:120|248:76|248:76,1,160,2|0
284,156,18764,2,2,B|232:184|232:184|228:200|228:200|152:244|152:244,1,160
236,296,19407,2,0,B|288:268|288:268|292:252|292:252|368:208|368:208,1,160,2|0
366,209,20050,1,0
178,59,20692,1,0
71,178,21121,1,0
75,257,21335,6,0,B|79:308|79:308,2,40,4|0|0
143,214,21764,2,0,B|180:237,2,40
148,134,22192,2,0,B|193:122,2,40
347,107,22621,6,0,B|308:117,2,40
337,218,23049,2,0,B|303:196,2,40
238,280,23478,2,0,B|238:291|234:240,2,40
167,66,23906,6,0,B|160:126,2,40,4|0|0
246,104,24335,2,0,B|264:151,2,40
287,26,24764,2,0,B|330:53,2,40
399,140,25192,5,0
413,168,25299,1,0
420,199,25406,1,0
422,231,25514,1,0
415,262,25621,1,0
280,283,25835,5,0
266,254,25942,1,0
242,232,26049,1,0
216,212,26156,1,0
184,206,26264,1,0
152,211,26371,1,0
122,223,26478,2,0,B|96:231|96:231,31,20
256,192,28192,12,0,30764
120,68,31621,6,0,B|116:112|71:131,1,80
140,224,32049,2,0,B|144:176|189:161,1,80,8|0
248,212,32478,2,0,B|300:240|360:216|376:152,1,160
292,140,33121,1,0
292,140,33335,2,0,B|252:60,1,80,8|0
248,212,33764,2,0,B|288:288,1,80
128,312,34406,2,0,B|220:276,1,80,0|8
248,212,34835,2,0,B|189:209|149:157|164:96,1,160
300,80,35478,6,0,B|235:134,1,80,8|0
315,192,35906,2,0,B|376:139,2,80,8|0|0
197,192,36549,1,0
197,192,36764,2,0,B|176:232|196:276,1,80,8|0
272,188,37192,2,0,B|292:148|273:104,1,80,8|0
275,110,37835,5,0
197,192,38049,1,8
128,276,38264,1,0
128,276,38478,6,0,B|292:276,1,160,4|0
332,208,39121,2,0,B|371:200|384:153,1,80,0|8
308,128,39549,1,0
308,128,39764,2,0,B|232:172,1,80,0|0
332,208,40192,2,0,B|416:208,1,80
376,296,40621,2,0,B|284:296,1,80,8|0
296,296,41264,5,0
228,228,41478,1,0
140,208,41692,1,0
140,208,41906,2,0,B|120:164|132:124,1,80,8|0
208,76,42335,2,0,B|228:120|216:160,1,80
140,208,42764,2,0,B|184:248|244:248|292:204,1,160,8|0
364,228,43406,1,0
336,152,43621,1,0
285,209,43835,1,0
208,195,44049,2,0,B|196:236|232:268,2,80,8|0|0
336,152,44692,5,0
272,60,44906,1,0
336,152,45121,1,0
176,232,45335,6,0,B|188:288|248:320|304:312,1,160,4|8
356,256,45978,1,0
356,256,46192,2,0,B|312:188,1,80
172,172,46621,1,0
172,172,46835,2,0,B|232:100,1,80,0|8
332,72,47264,1,0
332,72,47478,2,0,B|376:140,1,80
344,248,47906,2,0,B|256:100,1,160,4|8
172,112,48549,2,0,B|212:184,1,80
172,112,48978,6,0,B|124:112|108:68,1,80
108,180,49406,2,0,B|156:180|172:224,1,80,0|8
132,288,49835,2,0,B|188:316|248:284|256:220,1,160
380,96,50478,2,0,B|324:68|264:100|256:164,1,160,0|8
258,156,51121,1,0
258,156,51549,5,0
168,124,51764,1,8
140,216,51978,1,0
228,256,52192,6,0,B|274:261|309:226,1,80,4|0
332,132,52621,2,0,B|286:127|251:162,1,80,8|0
336,208,53049,2,0,B|392:216|432:272|432:328,1,160,0|8
336,300,53692,1,0
336,300,53906,2,0,B|272:352,1,80,8|0
184,316,54335,2,0,B|264:256,1,80
304,212,54764,5,0
336,300,54978,1,0
424,264,55192,1,8
388,176,55406,1,0
304,212,55621,6,0,B|248:216|192:172|200:100,1,160,4|0
148,196,56264,2,0,B|80:252,1,80,0|8
212,232,56692,2,0,B|248:268,2,40,8|0|0
204,152,57121,2,0,B|248:128,2,40
128,136,57549,2,0,B|120:96|120:96,4,40,8|0|0|0|0
120,168,58085,1,0
116,196,58192,1,8
120,224,58299,1,0
136,248,58406,1,0
156,264,58514,1,0
184,268,58621,1,8
212,260,58728,1,0
236,244,58835,1,8
256,224,58942,1,0
256,192,59049,12,0,61406
52,316,72764,6,0,B|96:316|156:316,1,80
240,284,73406,2,0,B|268:204|236:124,1,160
240,284,74049,2,0,B|280:300|328:280,1,80
318,283,74478,1,0
148,284,75121,5,4
148,284,75335,2,0,B|104:192,1,80
48,164,75764,2,0,B|108:108|200:116,1,160,0|4
340,132,76621,5,2
296,200,76835,1,0
260,128,77049,2,0,B|192:88|96:100,2,160
296,200,78121,5,2
300,280,78335,1,0
216,192,78549,1,0
184,268,78764,2,0,B|116:316|20:296,2,160
224,112,80049,2,0,B|264:128,1,40,2|0
332,224,80478,2,0,B|288:264,1,40
188,280,80906,2,0,B|132:268,1,40
88,168,81335,6,0,B|112:112,1,40,2|0
216,92,81764,2,0,B|248:132,1,40
304,224,82192,2,0,B|280:280,1,40
168,260,82621,2,0,B|112:244,1,40
156,132,83049,5,0
236,148,83264,1,0
304,188,83478,1,0
384,184,83692,1,0
364,292,83906,5,2
288,320,84121,1,0
212,296,84335,1,0
156,240,84549,1,0
200,136,84764,2,0,B|364:136,3,160
256,192,86478,12,0,88192
372,244,89906,5,2
372,244,90014,1,0
372,244,90121,1,0
292,248,90335,2,0,B|260:284|204:280,1,80,8|0
228,200,90764,2,0,B|220:156|168:132,1,80
144,156,91085,2,0,B|124:208|72:192,1,80
68,232,91406,2,0,B|160:236|216:304,1,160,8|0
288,252,92049,5,2
288,252,92264,2,0,B|264:156,1,80,0|8
332,128,92692,2,0,B|288:108,1,40,0|8
416,96,93014,2,0,B|376:76,2,40,2|2|2
416,96,93442,2,0,B|396:144|412:192,1,80,8|0
392,212,93764,2,0,B|364:248|308:244,2,80,8|0|0
328,164,94406,2,0,B|280:132,1,40,8|0
216,128,94728,2,8,B|168:132,2,40,8|0|0
124,240,95156,5,4
236,288,95478,1,0
236,288,95799,1,4
124,240,96121,1,4
204,188,96335,1,0
172,96,96549,1,0
172,96,96764,6,0,B|232:124|292:120|340:76,1,160,4|0
328,184,97406,1,0
328,184,97621,1,0
256,248,97835,2,0,B|268:292,2,40
348,276,98264,5,0
348,276,98371,1,0
348,276,98478,2,0,B|292:116,1,160,4|0
272,56,99121,1,0
168,100,99335,5,0
180,128,99442,1,0
176,160,99549,1,0
164,192,99656,1,0
144,216,99764,2,0,B|116:244,1,40
88,264,99978,2,0,B|80:316,1,40
192,312,100299,6,0,B|200:272,2,40
308,280,100728,2,0,B|296:344,2,40
308,280,101049,2,0,B|340:248|336:200,1,80
256,128,101478,2,0,B|224:160|228:208,1,80
200,272,101906,2,0,B|232:240|228:192,1,80
148,120,102335,2,0,B|104:164|112:248,2,120
228,200,103192,1,4
348,176,103406,5,0
348,176,103514,1,0
348,176,103621,2,0,B|168:212,1,160,4|0
208,128,104264,2,0,B|296:112,1,80
252,44,104692,2,0,B|200:52,1,40
348,44,105014,2,0,B|312:76,2,40
416,144,105442,6,0,B|392:180|404:232,1,80,4|0
368,240,105764,2,0,B|336:216|280:228,2,80
424,296,106406,2,0,B|452:336,1,40
344,304,106728,1,0
308,316,106835,1,0
272,300,106942,1,0
312,232,107156,6,0,B|328:104,1,120,4|0
326,112,107692,1,0
248,108,107906,2,0,B|168:152,2,80
248,108,108549,1,0
236,188,108764,5,4
236,188,108871,2,0,B|344:236,2,120
132,248,109835,1,0
240,304,110049,1,0
236,188,110264,1,0
148,120,110478,6,0,B|296:36,1,160,4|0
287,41,111121,1,0
440,204,111549,1,0
264,344,111978,1,0
168,284,112192,6,0,B|36:160,1,160,4|0
51,174,112835,1,0
228,40,113264,1,0
376,208,113692,1,0
308,308,114014,5,0
276,296,114121,1,0
248,284,114228,1,0
224,212,114442,5,0
232,188,114549,1,0
228,156,114656,1,0
220,124,114764,1,0
200,100,114870,1,0
172,84,114978,1,0
140,88,115085,1,0
116,108,115192,1,0
104,136,115299,1,0
108,168,115406,1,0
124,196,115514,1,0
132,228,115621,2,0,B|120:248|120:248,7,20
128,264,116049,2,0,B|140:288|140:288,7,20
160,288,116478,2,0,B|184:296|184:296,7,20
192,308,116906,5,0
304,244,117121,1,0
368,96,117335,2,0,B|316:96|316:96|312:88|312:88|128:88|128:88,1,239.999992847443
