osu file format v14

[General]
AudioFilename: Elemental Creation Gitadora.mp3
AudioLeadIn: 0
PreviewTime: 8324
Countdown: 1
SampleSet: None
StackLeniency: 0.7
Mode: 0
LetterboxInBreaks: 1
EpilepsyWarning: 1
WidescreenStoryboard: 0

[Editor]
Bookmarks: 10588,23606,40019,53603,73978,83034,104825
DistanceSpacing: 1
BeatDivisor: 4
GridSize: 8
TimelineZoom: 2

[Metadata]
Title:Elemental Creation -GITADO ROCK ver.-
TitleUnicode:Elemental Creation -GITADO ROCK ver.-
Artist:dj TAKA meets DJ YOSHITAKA ft.guit.good-cool
ArtistUnicode:dj TAKA meets DJ YOSHITAKA ft.guit.good-cool
Creator:Dextersydney
Version:EXetda
Source:GITADORA
Tags:GuitarFreaks DrumMania beatmaniaIIDX 20 tricoro pop'n music Sunny Park DanceDanceRevolution REFLEC BEAT colette REFLEC BEAT colette Private BEMANI Academy Collaboration deathstream
BeatmapID:930180
BeatmapSetID:431233

[Difficulty]
HPDrainRate:5
CircleSize:5
OverallDifficulty:8
ApproachRate:9.3
SliderMultiplier:2.08
SliderTickRate:1

[Events]
//Background and Video events
0,0,"bg.jpg",0,0
//Break Periods
2,69651,73424
//Storyboard Layer 0 (Background)
//Storyboard Layer 1 (Fail)
//Storyboard Layer 2 (Pass)
//Storyboard Layer 3 (Foreground)
//Storyboard Sound Samples

[TimingPoints]
1533,282.992170549948,4,2,0,55,1,0
1533,-100,4,2,0,55,0,0
4221,-100,4,3,0,55,0,0
4575,-100,4,1,0,55,0,0
5777,-100,4,3,0,55,0,0
6202,-100,4,1,0,55,0,0
8324,-200,4,1,0,55,0,0
10588,-100,4,2,0,55,0,1
14550,-100,4,3,0,55,0,1
15116,-100,4,1,0,55,0,1
17380,-100,4,3,0,55,0,1
18512,-100,4,1,0,55,0,1
19078,-200,4,1,0,55,0,1
20917,-100,4,1,0,55,0,1
23606,-100,4,3,0,55,0,1
24313,-200,4,2,0,39,0,0
24455,-100,4,2,0,55,0,0
26577,-100,4,3,0,55,0,0
28488,-100,4,1,0,55,0,0
30964,-100,4,2,0,40,0,0
31459,-100,4,2,0,55,0,0
32096,-100,4,3,0,55,0,0
33228,-200,4,2,0,39,0,0
33369,-100,4,2,0,55,0,0
34501,-100,4,1,0,55,0,0
37190,-100,4,3,0,55,0,0
37614,-200,4,2,0,55,0,0
37755,-100,4,2,0,55,0,0
39878,-200,4,2,0,55,0,0
40161,-100,4,2,0,55,0,0
41717,-100,4,3,0,55,0,0
42283,-100,4,1,0,55,0,0
44689,-100,4,3,0,55,0,0
45113,-100,4,3,0,55,0,0
45538,-100,4,1,0,55,0,0
50915,-100,4,2,0,40,0,0
51339,-100,4,2,0,55,0,0
53603,-100,4,3,0,55,0,0
56008,-100,4,1,0,55,0,0
57140,-100,4,1,0,30,0,0
57494,-100,4,1,0,55,0,0
60395,-100,4,1,0,30,0,0
60678,-100,4,1,0,55,0,0
64923,-200,4,2,0,30,0,0
68460,-200,4,3,0,30,0,0
73413,-200,4,2,0,55,0,0
78365,-200,4,3,0,55,0,0
79072,-200,4,1,0,55,0,0
81053,-200,4,3,0,55,0,0
81619,-100,4,1,0,55,0,0
83034,-100,4,3,0,55,0,1
84166,-200,4,2,0,55,0,1
84308,-100,4,1,0,55,0,1
88270,-100,4,1,0,55,0,1
90109,-200,4,1,0,55,0,1
90251,-133.333333333333,4,1,0,55,0,1
93788,-100,4,2,0,30,0,0
94071,-100,4,2,0,55,0,0
94354,-100,4,3,0,55,0,0
95910,-100,4,1,0,55,0,0
99448,-100,4,1,0,55,0,0
103551,-100,4,1,0,55,0,0
104683,-200,4,2,0,55,0,0
104825,-100,4,2,0,55,0,0
108504,-100,4,2,0,55,0,0
114022,-100,4,3,0,55,0,0
115861,-66.6666666666667,4,3,0,55,0,0
120955,-100,4,3,0,55,0,0
123219,-200,4,3,0,55,0,0
123785,-200,4,3,0,65,0,0

[Colours]
Combo1 : 134,231,255
Combo2 : 255,255,132
Combo3 : 158,255,40
Combo4 : 0,196,244
Combo5 : 255,140,230
Combo6 : 255,172,117

[HitObjects]
192,80,1533,6,8,P|184:144|224:192,1,104
320,272,1815,2,8,L|400:192,1,104
376,40,2098,2,8,L|304:128,1,104
256,176,2381,1,8,0:0:0:0:
208,240,2523,1,0,0:0:0:0:
232,320,2664,1,8,0:0:0:0:
144,336,2806,1,0,0:0:0:0:
120,256,2947,1,8,0:0:0:0:
152,304,3089,6,0,P|324:304|356:280,1,208
384,284,3513,5,8,0:0:0:0:
76,40,3655,1,0,0:0:0:0:
132,60,3938,5,0,0:0:0:0:
300,304,4079,1,8,0:0:0:0:
268,156,4221,1,0,0:0:0:0:
304,160,4292,1,0,0:0:0:0:
336,164,4362,1,8,0:0:0:0:
360,168,4433,1,0,0:0:0:0:
388,172,4504,1,0,0:0:0:0:
416,176,4575,1,0,0:0:0:0:
452,184,4787,5,0,0:0:0:0:
136,340,4928,1,8,0:0:0:0:
140,264,5211,1,8,0:0:0:0:
304,264,5353,1,0,0:0:0:0:
140,200,5494,1,8,0:0:0:0:
304,192,5636,1,0,0:0:0:0:
152,112,5777,5,8,0:0:0:0:
176,88,5848,1,0,0:0:0:0:
200,72,5919,1,0,0:0:0:0:
232,56,5990,1,0,0:0:0:0:
264,56,6060,1,8,0:0:0:0:
296,56,6131,1,0,0:0:0:0:
336,56,6202,1,0,0:0:0:0:
440,128,6343,5,8,0:0:0:0:
372,200,6485,1,0,0:0:0:0:
404,104,6626,1,8,0:0:0:0:
432,200,6768,1,0,0:0:0:0:
352,132,6909,1,8,0:0:0:0:
460,156,7051,1,0,0:0:0:0:
368,196,7192,1,8,0:0:0:0:
432,112,7334,1,0,0:0:0:0:
280,96,7475,6,8,P|208:56|144:64,1,104
144,104,7758,1,8,0:0:0:0:
256,176,7900,1,0,0:0:0:0:
320,240,8041,1,8,0:0:0:0:
256,280,8183,1,0,0:0:0:0:
256,280,8324,6,8,L|256:72,1,208
72,120,9173,5,8,0:0:0:0:
112,160,9456,5,12,0:0:0:0:
136,176,9527,1,0,0:0:0:0:
160,176,9598,1,4,0:0:0:0:
184,168,9669,1,0,0:0:0:0:
208,160,9739,1,8,0:0:0:0:
224,144,9810,1,0,0:0:0:0:
248,136,9881,1,0,0:0:0:0:
272,152,9952,1,0,0:0:0:0:
280,176,10022,1,8,0:0:0:0:
288,200,10093,1,0,0:0:0:0:
304,216,10164,1,0,0:0:0:0:
328,208,10235,1,0,0:0:0:0:
344,192,10305,5,8,0:0:0:0:
360,168,10376,1,0,0:0:0:0:
368,144,10447,1,0,0:0:0:0:
368,120,10518,1,0,0:0:0:0:
392,56,10588,6,0,P|448:176|328:304,1,312
248,224,11154,1,0,0:0:0:0:
248,224,11225,1,0,0:0:0:0:
248,224,11296,1,0,0:0:0:0:
248,216,11366,2,0,P|200:120|152:80,1,156
80,296,11720,6,8,L|80:152,2,104
80,288,12145,1,0,0:0:0:0:
80,296,12286,1,8,0:0:0:0:
180,292,12428,1,0,0:0:0:0:
232,160,12569,1,8,0:0:0:0:
328,136,12711,1,0,0:0:0:0:
376,232,12852,5,8,0:0:0:0:
368,328,12994,1,0,0:0:0:0:
272,232,13135,2,8,L|280:104,1,104
192,168,13418,1,8,0:0:0:0:
204,48,13560,1,0,0:0:0:0:
320,64,13701,1,8,0:0:0:0:
312,184,13843,1,0,0:0:0:0:
348,240,13984,1,8,0:0:0:0:
200,220,14126,1,0,0:0:0:0:
48,272,14267,1,8,0:0:0:0:
124,316,14409,1,0,0:0:0:0:
208,296,14550,5,10,0:0:0:0:
240,296,14621,1,2,0:0:0:0:
272,296,14692,1,2,0:0:0:0:
304,296,14762,1,2,0:0:0:0:
340,296,14833,1,8,0:0:0:0:
372,296,14904,1,0,0:0:0:0:
408,296,14975,1,0,0:0:0:0:
436,296,15045,1,0,0:0:0:0:
464,296,15116,1,8,0:0:0:0:
416,136,15258,5,0,0:0:0:0:
348,72,15399,1,8,0:0:0:0:
284,136,15541,1,0,0:0:0:0:
232,72,15753,1,0,0:0:0:0:
204,72,15824,1,0,0:0:0:0:
180,72,15894,1,0,0:0:0:0:
156,72,15965,1,8,0:0:0:0:
124,72,16036,1,0,0:0:0:0:
96,72,16107,1,0,0:0:0:0:
80,192,16248,6,8,P|56:88|64:56,1,104
176,144,16531,2,8,P|192:224|176:280,1,104
288,336,16814,6,8,P|352:312|400:256,1,104
408,224,17097,1,8,0:0:0:0:
344,168,17239,1,0,0:0:0:0:
352,84,17380,1,14,0:0:0:0:
352,84,17451,1,2,0:0:0:0:
352,84,17522,1,2,0:0:0:0:
352,84,17592,1,2,0:0:0:0:
352,84,17663,1,2,0:0:0:0:
352,84,17734,1,2,0:0:0:0:
336,100,17805,1,2,0:0:0:0:
308,112,17875,1,2,0:0:0:0:
276,104,17946,1,10,0:0:0:0:
256,72,18017,1,0,0:0:0:0:
224,48,18088,1,0,0:0:0:0:
176,40,18158,1,0,0:0:0:0:
128,56,18229,1,8,0:0:0:0:
104,92,18300,1,0,0:0:0:0:
128,140,18371,1,0,0:0:0:0:
168,176,18441,1,0,0:0:0:0:
164,220,18512,1,8,0:0:0:0:
160,272,18654,5,0,0:0:0:0:
208,112,18795,1,8,0:0:0:0:
80,192,18937,1,0,0:0:0:0:
104,128,19078,2,8,L|192:40,1,104
176,56,19503,1,0,0:0:0:0:
260,80,19644,5,8,0:0:0:0:
260,80,19715,1,0,0:0:0:0:
260,80,19785,1,0,0:0:0:0:
160,128,19927,5,8,0:0:0:0:
352,144,20068,1,0,0:0:0:0:
176,232,20210,1,8,0:0:0:0:
260,80,20351,1,0,0:0:0:0:
296,248,20493,1,8,0:0:0:0:
352,144,20634,1,0,0:0:0:0:
368,296,20776,1,8,0:0:0:0:
432,160,20917,6,8,B|448:208|448:208|416:304,1,104
431,258,21200,1,0,0:0:0:0:
352,312,21342,1,8,0:0:0:0:
296,216,21483,1,0,0:0:0:0:
376,272,21625,1,8,0:0:0:0:
280,272,21766,1,0,0:0:0:0:
360,216,21908,1,8,0:0:0:0:
296,312,22049,1,0,0:0:0:0:
312,176,22191,1,8,0:0:0:0:
296,112,22332,1,0,0:0:0:0:
240,68,22474,1,8,0:0:0:0:
168,64,22615,1,0,0:0:0:0:
88,96,22757,6,8,P|96:160|144:216,1,104
160,272,23040,2,8,P|200:240|288:240,1,104
312,128,23323,2,8,L|408:184,1,104
420,212,23606,5,8,0:0:0:0:
432,252,23677,1,0,0:0:0:0:
424,296,23747,1,0,0:0:0:0:
400,328,23818,1,0,0:0:0:0:
368,348,23889,1,8,0:0:0:0:
328,344,23960,1,0,0:0:0:0:
288,332,24030,1,0,0:0:0:0:
260,300,24101,1,0,0:0:0:0:
248,264,24172,1,8,0:0:0:0:
248,240,24313,6,0,L|248:152,1,52
296,160,24596,1,0,0:0:0:0:
212,68,24738,1,8,0:0:0:0:
336,88,24879,1,0,0:0:0:0:
296,244,25021,1,8,0:0:0:0:
140,140,25162,5,0,0:0:0:0:
312,176,25304,1,8,0:0:0:0:
264,328,25445,1,0,0:0:0:0:
64,240,25587,2,8,P|104:296|168:304,1,104
200,240,25870,2,8,P|160:184|96:176,1,104
184,80,26153,5,8,0:0:0:0:
328,88,26294,1,0,0:0:0:0:
460,112,26436,1,8,0:0:0:0:
240,112,26577,5,0,0:0:0:0:
272,136,26648,1,0,0:0:0:0:
280,176,26719,1,8,0:0:0:0:
280,216,26790,1,0,0:0:0:0:
280,256,26860,1,0,0:0:0:0:
240,272,26931,1,0,0:0:0:0:
200,264,27002,5,8,0:0:0:0:
168,240,27073,1,0,0:0:0:0:
144,200,27143,1,0,0:0:0:0:
152,152,27214,1,0,0:0:0:0:
168,112,27285,1,8,0:0:0:0:
200,80,27356,1,0,0:0:0:0:
216,40,27426,1,0,0:0:0:0:
176,24,27497,1,0,0:0:0:0:
144,48,27568,1,8,0:0:0:0:
80,88,27709,5,4,0:0:0:0:
80,88,27780,1,4,0:0:0:0:
80,88,27850,1,12,0:0:0:0:
152,160,27992,6,8,B|96:152|96:152|32:208,2,104
304,176,28417,2,8,P|360:176|440:224,1,104
416,280,28700,5,8,0:0:0:0:
320,336,28841,1,0,0:0:0:0:
320,336,28912,1,0,0:0:0:0:
320,336,28983,1,8,0:0:0:0:
216,320,29124,1,0,0:0:0:0:
184,232,29266,1,8,0:0:0:0:
104,184,29407,1,0,0:0:0:0:
128,144,29478,1,0,0:0:0:0:
152,104,29549,1,8,0:0:0:0:
176,64,29619,1,0,0:0:0:0:
272,96,29761,1,0,0:0:0:0:
272,96,29832,1,8,0:0:0:0:
272,96,29902,1,0,0:0:0:0:
272,168,30044,5,0,0:0:0:0:
312,168,30115,1,8,0:0:0:0:
352,168,30185,1,0,0:0:0:0:
400,232,30327,1,0,0:0:0:0:
384,264,30398,1,8,0:0:0:0:
368,296,30468,1,0,0:0:0:0:
248,344,30610,1,0,0:0:0:0:
216,336,30681,1,8,0:0:0:0:
184,328,30751,1,0,0:0:0:0:
152,320,30822,1,0,0:0:0:0:
188,236,30964,6,8,B|92:188|92:72|92:72|160:40|160:40|220:60|220:128,1,364
224,136,31530,2,8,P|296:160|432:136,1,208
416,160,31954,2,0,L|400:224,1,52
400,216,32096,1,8,0:0:0:0:
396,240,32166,1,0,0:0:0:0:
392,260,32237,1,0,0:0:0:0:
388,284,32308,1,0,0:0:0:0:
384,304,32379,1,8,0:0:0:0:
380,324,32449,1,0,0:0:0:0:
360,344,32520,1,0,0:0:0:0:
336,344,32591,1,0,0:0:0:0:
312,336,32662,1,8,0:0:0:0:
296,320,32732,1,0,0:0:0:0:
272,304,32803,1,0,0:0:0:0:
248,296,32874,1,0,0:0:0:0:
224,288,32945,1,8,0:0:0:0:
208,272,33015,1,0,0:0:0:0:
192,256,33086,1,0,0:0:0:0:
120,200,33228,6,8,L|144:152,1,52
172,100,33511,5,8,0:0:0:0:
304,100,33652,1,0,0:0:0:0:
304,240,33794,1,8,0:0:0:0:
424,176,33935,1,0,0:0:0:0:
304,100,34077,1,8,0:0:0:0:
304,100,34218,2,8,P|360:72|440:96,1,104
432,96,34501,5,0,0:0:0:0:
464,120,34572,1,0,0:0:0:0:
476,156,34643,1,8,0:0:0:0:
480,196,34713,1,0,0:0:0:0:
480,240,34784,1,0,0:0:0:0:
468,276,34855,1,0,0:0:0:0:
440,312,34926,1,8,0:0:0:0:
408,344,34996,1,0,0:0:0:0:
364,348,35067,5,0,0:0:0:0:
320,328,35138,1,0,0:0:0:0:
288,296,35209,1,8,0:0:0:0:
256,264,35279,1,0,0:0:0:0:
208,264,35350,1,0,0:0:0:0:
160,272,35421,1,0,0:0:0:0:
120,256,35492,1,8,0:0:0:0:
104,216,35562,1,0,0:0:0:0:
104,176,35633,1,0,0:0:0:0:
144,104,35775,6,8,L|248:160,1,104
368,80,36058,2,8,L|240:64,1,104
440,48,36341,5,8,0:0:0:0:
464,136,36482,1,0,0:0:0:0:
436,216,36624,1,8,0:0:0:0:
384,288,36765,1,0,0:0:0:0:
384,288,37048,1,4,0:0:0:0:
144,64,37190,5,8,0:0:0:0:
196,200,37331,1,0,0:0:0:0:
320,276,37473,1,8,0:0:0:0:
320,276,37614,2,0,L|372:220,1,52
404,200,37897,5,0,0:0:0:0:
232,168,38038,2,8,B|288:136|288:136|320:80,1,104
424,128,38321,1,8,0:0:0:0:
448,40,38463,1,0,0:0:0:0:
340,224,38604,1,8,0:0:0:0:
264,280,38746,1,0,0:0:0:0:
180,220,38887,1,8,0:0:0:0:
264,144,39029,1,0,0:0:0:0:
264,280,39170,5,8,0:0:0:0:
184,216,39312,1,0,0:0:0:0:
232,120,39453,2,8,L|120:120,2,104
232,120,39878,2,8,L|300:120,1,52
312,56,40161,1,0,0:0:0:0:
408,192,40302,1,8,0:0:0:0:
252,124,40444,1,0,0:0:0:0:
416,88,40585,1,8,0:0:0:0:
312,216,40727,1,0,0:0:0:0:
368,312,40868,6,8,B|312:344|312:344|312:336|312:336|304:352|304:352|264:320,1,104
212,320,41151,1,8,0:0:0:0:
240,248,41293,2,8,B|184:216|184:192|184:192|200:176,1,104
212,104,41576,1,0,0:0:0:0:
324,152,41717,5,12,0:0:0:0:
324,152,41788,1,4,0:0:0:0:
324,152,41859,1,4,0:0:0:0:
324,152,41930,1,12,0:0:0:0:
324,152,42000,1,8,0:0:0:0:
324,152,42072,1,0,0:0:0:0:
324,152,42142,1,0,0:0:0:0:
324,152,42213,1,8,0:0:0:0:
324,152,42283,2,0,L|320:272,1,104
328,304,42566,6,8,P|264:320|224:336,1,104
112,312,42849,2,8,P|112:240|144:168,1,104
192,132,43132,1,8,0:0:0:0:
288,176,43274,1,0,0:0:0:0:
440,120,43415,1,8,0:0:0:0:
368,60,43557,1,0,0:0:0:0:
288,68,43698,1,8,0:0:0:0:
252,128,43840,1,0,0:0:0:0:
440,120,43981,1,8,0:0:0:0:
424,232,44123,1,0,0:0:0:0:
392,352,44264,5,8,0:0:0:0:
248,352,44406,1,0,0:0:0:0:
176,344,44547,1,8,0:0:0:0:
128,328,44618,1,0,0:0:0:0:
112,280,44689,1,0,0:0:0:0:
128,232,44760,1,0,0:0:0:0:
168,200,44830,1,8,0:0:0:0:
216,208,44901,1,0,0:0:0:0:
256,176,44972,1,0,0:0:0:0:
264,176,45043,1,0,0:0:0:0:
280,192,45113,5,8,0:0:0:0:
272,184,45184,1,4,0:0:0:0:
280,192,45255,1,4,0:0:0:0:
280,192,45326,1,4,0:0:0:0:
272,184,45396,1,12,0:0:0:0:
272,184,45467,1,0,0:0:0:0:
280,192,45538,1,0,0:0:0:0:
280,192,45609,1,0,0:0:0:0:
280,192,45679,5,8,0:0:0:0:
280,192,45750,1,0,0:0:0:0:
272,184,45821,1,0,0:0:0:0:
256,184,45892,1,0,0:0:0:0:
224,184,45962,1,8,0:0:0:0:
200,176,46033,1,0,0:0:0:0:
168,168,46104,1,0,0:0:0:0:
136,168,46175,1,0,0:0:0:0:
112,152,46245,1,8,0:0:0:0:
80,144,46316,1,0,0:0:0:0:
72,176,46387,1,0,0:0:0:0:
64,208,46458,1,0,0:0:0:0:
64,240,46528,1,8,0:0:0:0:
80,272,46599,1,0,0:0:0:0:
96,296,46670,1,0,0:0:0:0:
120,312,46740,1,0,0:0:0:0:
152,336,46811,6,8,L|296:336,1,104
440,40,47094,2,8,P|392:96|400:144,1,104
392,208,47377,5,8,0:0:0:0:
296,248,47519,1,0,0:0:0:0:
184,232,47660,1,8,0:0:0:0:
96,200,47802,2,2,B|72:136|72:136|96:96,1,104
90,105,48085,1,0,0:0:0:0:
168,136,48226,1,8,0:0:0:0:
232,80,48368,1,0,0:0:0:0:
320,92,48509,1,8,0:0:0:0:
224,168,48651,1,0,0:0:0:0:
280,248,48792,1,8,0:0:0:0:
368,184,48934,1,0,0:0:0:0:
444,144,49075,6,8,B|448:96|368:40|368:40|360:40,1,104
328,40,49358,1,8,0:0:0:0:
248,60,49499,1,0,0:0:0:0:
136,152,49641,1,8,0:0:0:0:
228,272,49782,1,0,0:0:0:0:
336,184,49924,1,8,0:0:0:0:
352,264,50066,1,0,0:0:0:0:
352,256,50207,6,8,P|304:328|280:336,1,104
152,280,50490,2,8,P|88:280|32:304,2,104
248,232,50915,1,0,0:0:0:0:
268,252,50985,1,4,0:0:0:0:
268,252,51056,1,12,0:0:0:0:
268,252,51127,1,0,0:0:0:0:
268,252,51198,1,0,0:0:0:0:
268,252,51268,1,0,0:0:0:0:
268,252,51339,1,8,0:0:0:0:
268,252,51481,5,0,0:0:0:0:
196,176,51622,1,8,0:0:0:0:
212,64,51764,1,0,0:0:0:0:
320,44,51905,1,8,0:0:0:0:
380,104,52047,5,4,0:0:0:0:
376,160,52117,1,4,0:0:0:0:
368,212,52188,1,12,0:0:0:0:
360,288,52330,5,0,0:0:0:0:
280,332,52471,1,8,0:0:0:0:
184,304,52613,1,0,0:0:0:0:
176,200,52754,1,8,0:0:0:0:
304,200,52896,1,0,0:0:0:0:
412,172,53037,1,8,0:0:0:0:
424,104,53179,1,0,0:0:0:0:
372,52,53320,1,8,0:0:0:0:
300,48,53462,1,0,0:0:0:0:
212,92,53603,5,12,0:0:0:0:
240,112,53674,1,4,0:0:0:0:
256,136,53745,1,0,0:0:0:0:
264,168,53815,1,0,0:0:0:0:
272,200,53886,1,8,0:0:0:0:
264,232,53957,1,0,0:0:0:0:
232,240,54028,1,4,0:0:0:0:
208,256,54098,1,4,0:0:0:0:
184,240,54169,1,8,0:0:0:0:
160,224,54240,1,0,0:0:0:0:
144,256,54311,1,0,0:0:0:0:
128,304,54452,5,12,0:0:0:0:
128,304,54523,1,4,0:0:0:0:
128,304,54594,1,4,0:0:0:0:
96,216,54735,1,8,0:0:0:0:
96,128,54877,1,0,0:0:0:0:
168,64,55018,1,8,0:0:0:0:
256,72,55160,1,0,0:0:0:0:
244,148,55301,2,12,P|256:200|240:256,1,104
264,296,55584,5,8,0:0:0:0:
288,296,55655,1,0,0:0:0:0:
312,296,55726,1,0,0:0:0:0:
336,288,55796,1,0,0:0:0:0:
360,272,55867,1,8,0:0:0:0:
240,192,56008,5,0,0:0:0:0:
160,240,56150,1,8,0:0:0:0:
112,160,56291,1,0,0:0:0:0:
184,120,56433,1,8,0:0:0:0:
272,96,56574,2,0,P|352:112|408:144,1,104
392,192,56857,1,0,0:0:0:0:
392,288,56999,1,8,0:0:0:0:
304,320,57140,5,0,0:0:0:0:
224,312,57282,2,0,B|160:280|160:280|160:224,1,104
152,168,57565,1,8,0:0:0:0:
72,184,57706,1,0,0:0:0:0:
96,288,57848,1,8,0:0:0:0:
176,272,57989,1,0,0:0:0:0:
264,296,58131,1,8,0:0:0:0:
320,336,58272,2,0,L|408:264,1,104
96,288,58555,1,0,0:0:0:0:
72,184,58697,5,8,0:0:0:0:
152,168,58838,1,0,0:0:0:0:
248,176,58980,1,8,0:0:0:0:
336,96,59121,1,0,0:0:0:0:
464,176,59263,1,8,0:0:0:0:
344,256,59404,2,0,L|240:256,1,104
132,252,59687,1,0,0:0:0:0:
256,188,59829,1,8,0:0:0:0:
168,108,59970,1,0,0:0:0:0:
264,148,60112,1,8,0:0:0:0:
156,176,60253,1,0,0:0:0:0:
236,60,60395,6,8,P|372:52|444:136,1,208
368,272,60819,2,0,L|496:240,1,104
256,128,61102,2,2,L|376:160,1,104
240,288,61385,5,0,0:0:0:0:
152,232,61527,1,8,0:0:0:0:
248,232,61668,1,0,0:0:0:0:
152,280,61810,1,8,0:0:0:0:
200,200,61951,1,0,0:0:0:0:
200,304,62093,1,8,0:0:0:0:
264,352,62234,1,0,0:0:0:0:
336,320,62376,2,8,P|416:264|464:264,1,104
416,168,62659,2,8,L|360:64,1,104
272,140,62942,2,8,P|408:132|480:44,1,208
452,64,63366,5,0,0:0:0:0:
372,44,63508,1,8,0:0:0:0:
296,84,63649,1,0,0:0:0:0:
304,176,63791,1,8,0:0:0:0:
388,232,63932,1,0,0:0:0:0:
316,320,64074,1,8,0:0:0:0:
200,304,64215,1,0,0:0:0:0:
144,224,64357,1,8,0:0:0:0:
140,136,64498,2,0,L|224:56,1,104
256,192,64923,12,8,69026,0:0:0:0:
280,112,69168,5,10,0:0:0:0:
168,192,69310,1,2,0:0:0:0:
272,264,69451,1,10,0:0:0:0:
292,96,73978,6,8,L|312:212,1,104
376,224,74544,5,8,0:0:0:0:
240,192,74686,1,0,0:0:0:0:
96,232,74969,2,0,L|64:168,1,52
136,80,75252,2,0,L|208:64,1,52
320,96,75535,2,0,L|352:144,1,52
376,260,75959,5,8,0:0:0:0:
256,248,76101,1,0,0:0:0:0:
256,248,76242,2,8,P|216:208|160:208,1,104
128,144,76667,1,0,0:0:0:0:
64,208,76808,2,8,L|40:256,1,52
128,288,77091,2,8,L|152:336,1,52
216,112,77374,6,8,L|128:48,1,104
256,176,77799,2,0,L|216:224,1,52
288,104,78082,1,0,0:0:0:0:
392,192,78223,1,8,0:0:0:0:
464,288,78365,6,4,L|444:320,1,26
368,328,78506,2,0,L|312:232,1,104
192,192,78931,1,0,0:0:0:0:
232,96,79072,1,8,0:0:0:0:
232,96,79214,1,0,0:0:0:0:
312,184,79355,2,8,P|352:224|408:248,1,104
400,240,79780,1,0,0:0:0:0:
432,144,79921,1,8,0:0:0:0:
400,56,80063,1,0,0:0:0:0:
312,48,80204,1,8,0:0:0:0:
208,64,80346,6,0,L|240:128,1,52
176,184,80629,2,0,L|144:232,1,52
368,304,81053,5,12,0:0:0:0:
240,192,81336,5,12,0:0:0:0:
336,104,81619,5,12,0:0:0:0:
336,104,81761,6,8,B|520:319|520:319|352:319|344:200|328:319|248:320|160:319|160:319|32:176,1,832
42,187,83034,5,8,0:0:0:0:
96,176,83176,1,0,0:0:0:0:
144,168,83246,1,0,0:0:0:0:
192,160,83317,1,8,0:0:0:0:
240,160,83388,1,0,0:0:0:0:
288,160,83459,1,0,0:0:0:0:
336,168,83529,1,0,0:0:0:0:
384,176,83600,1,8,0:0:0:0:
432,184,83671,5,0,0:0:0:0:
424,232,83742,1,0,0:0:0:0:
392,272,83812,1,0,0:0:0:0:
352,288,83883,2,8,P|264:312|216:312,1,104
160,320,84166,5,8,0:0:0:0:
88,288,84308,1,0,0:0:0:0:
72,240,84378,1,0,0:0:0:0:
64,192,84449,1,8,0:0:0:0:
56,144,84520,1,0,0:0:0:0:
64,96,84591,1,0,0:0:0:0:
104,64,84661,1,0,0:0:0:0:
152,48,84732,1,8,0:0:0:0:
200,40,84803,5,0,0:0:0:0:
256,40,84874,1,0,0:0:0:0:
304,40,84944,1,0,0:0:0:0:
352,48,85015,2,8,P|312:128|272:152,1,104
208,144,85298,5,8,0:0:0:0:
240,184,85440,1,0,0:0:0:0:
288,192,85510,1,0,0:0:0:0:
336,216,85581,1,8,0:0:0:0:
376,248,85652,1,0,0:0:0:0:
360,296,85723,1,0,0:0:0:0:
320,328,85793,1,0,0:0:0:0:
272,336,85864,1,8,0:0:0:0:
224,328,85935,5,0,0:0:0:0:
184,296,86006,1,0,0:0:0:0:
160,248,86076,1,0,0:0:0:0:
152,208,86147,2,8,P|120:152|80:128,1,104
56,48,86430,5,8,0:0:0:0:
144,48,86572,1,0,0:0:0:0:
184,80,86642,1,0,0:0:0:0:
192,128,86713,1,8,0:0:0:0:
232,160,86784,1,0,0:0:0:0:
280,168,86855,1,0,0:0:0:0:
328,160,86925,1,0,0:0:0:0:
376,136,86996,1,8,0:0:0:0:
400,88,87067,5,0,0:0:0:0:
448,104,87138,1,0,0:0:0:0:
448,152,87208,1,0,0:0:0:0:
440,200,87279,2,8,P|352:224|304:224,1,104
152,240,87562,5,8,0:0:0:0:
152,240,87633,1,0,0:0:0:0:
152,240,87704,1,0,0:0:0:0:
232,272,87845,1,8,0:0:0:0:
304,208,87987,5,12,0:0:0:0:
304,208,88058,1,4,0:0:0:0:
304,208,88129,1,12,0:0:0:0:
392,296,88270,1,4,0:0:0:0:
264,256,88411,1,12,0:0:0:0:
184,152,88553,1,4,0:0:0:0:
272,120,88694,5,14,0:0:0:0:
272,120,88765,1,6,0:0:0:0:
272,120,88836,1,4,0:0:0:0:
336,168,88977,1,8,0:0:0:0:
392,224,89119,1,4,0:0:0:0:
208,72,89260,5,10,0:0:0:0:
208,72,89331,1,2,0:0:0:0:
208,72,89402,1,2,0:0:0:0:
160,120,89543,1,8,0:0:0:0:
120,176,89685,1,0,0:0:0:0:
316,136,89826,1,8,0:0:0:0:
316,136,89897,1,0,0:0:0:0:
316,136,89968,1,0,0:0:0:0:
312,320,90109,6,8,L|248:360,2,52
400,296,90534,1,0,0:0:0:0:
328,248,90675,1,8,0:0:0:0:
416,192,90817,2,0,L|448:264,1,78.000002975464
447,263,91100,1,0,0:0:0:0:
384,80,91241,2,8,P|320:64|224:80,2,156
304,120,91948,5,0,0:0:0:0:
360,152,92090,1,8,0:0:0:0:
312,216,92231,1,0,0:0:0:0:
240,216,92373,1,8,0:0:0:0:
272,280,92514,1,0,0:0:0:0:
272,280,92797,1,0,0:0:0:0:
48,224,92939,2,12,L|120:328,1,104
148,328,93222,5,8,0:0:0:0:
192,328,93293,1,0,0:0:0:0:
236,328,93363,1,0,0:0:0:0:
284,328,93434,1,0,0:0:0:0:
328,328,93505,1,8,0:0:0:0:
376,324,93576,1,0,0:0:0:0:
404,304,93646,1,0,0:0:0:0:
428,284,93788,2,8,P|352:208|244:184,1,208
252,188,94212,1,0,0:0:0:0:
248,232,94354,5,8,0:0:0:0:
216,272,94425,1,0,0:0:0:0:
168,288,94495,1,0,0:0:0:0:
112,288,94566,1,0,0:0:0:0:
72,256,94637,1,8,0:0:0:0:
56,208,94708,1,0,0:0:0:0:
64,160,94778,1,0,0:0:0:0:
88,112,94849,1,0,0:0:0:0:
136,88,94920,1,8,0:0:0:0:
224,128,95061,5,0,0:0:0:0:
224,128,95132,1,0,0:0:0:0:
224,128,95203,1,8,0:0:0:0:
304,96,95344,1,0,0:0:0:0:
359,247,95486,2,8,P|311:279|191:279,1,156
215,287,95769,1,8,0:0:0:0:
384,320,95910,5,0,0:0:0:0:
440,232,96052,2,8,P|408:160|376:128,1,104
288,168,96335,1,8,0:0:0:0:
288,72,96476,1,0,0:0:0:0:
164,72,96618,1,8,0:0:0:0:
168,168,96759,1,0,0:0:0:0:
288,168,96901,1,8,0:0:0:0:
236,280,97042,1,0,0:0:0:0:
352,284,97184,1,8,0:0:0:0:
348,164,97325,1,0,0:0:0:0:
344,80,97467,6,8,P|256:64|208:80,1,104
80,208,97750,6,8,B|152:208|152:208|184:232|184:216|264:216,1,156
232,216,98033,1,8,0:0:0:0:
304,160,98174,1,0,0:0:0:0:
336,280,98316,2,8,B|400:240|400:240|400:232|400:232|416:216|408:144,1,156
409,161,98599,1,8,0:0:0:0:
168,160,98740,1,0,0:0:0:0:
196,84,98882,1,8,0:0:0:0:
288,56,99023,1,0,0:0:0:0:
364,68,99165,1,8,0:0:0:0:
424,132,99306,5,0,0:0:0:0:
408,220,99448,1,10,0:0:0:0:
392,256,99519,1,2,0:0:0:0:
376,296,99589,1,2,0:0:0:0:
360,336,99660,1,2,0:0:0:0:
328,360,99731,1,8,0:0:0:0:
288,368,99802,5,4,0:0:0:0:
248,368,99872,1,4,0:0:0:0:
208,360,99943,1,0,0:0:0:0:
168,352,100014,1,8,0:0:0:0:
144,336,100085,2,0,P|88:280|80:208,1,104
64,160,100297,1,8,0:0:0:0:
64,160,100368,1,0,0:0:0:0:
64,160,100438,1,0,0:0:0:0:
168,112,100580,1,8,0:0:0:0:
264,120,100721,1,0,0:0:0:0:
304,184,100863,1,10,0:0:0:0:
296,216,100933,1,2,0:0:0:0:
280,248,101004,1,2,0:0:0:0:
264,280,101075,1,2,0:0:0:0:
240,312,101146,1,10,0:0:0:0:
208,328,101216,5,0,0:0:0:0:
176,336,101287,1,0,0:0:0:0:
144,328,101358,1,0,0:0:0:0:
112,312,101429,1,8,0:0:0:0:
96,280,101499,1,0,0:0:0:0:
88,248,101570,1,0,0:0:0:0:
104,216,101641,1,0,0:0:0:0:
136,200,101712,1,8,0:0:0:0:
168,184,101782,1,0,0:0:0:0:
200,168,101853,1,0,0:0:0:0:
232,160,101924,1,0,0:0:0:0:
264,152,101995,1,8,0:0:0:0:
304,144,102065,5,2,0:0:0:0:
344,144,102136,1,2,0:0:0:0:
376,152,102207,1,10,0:0:0:0:
408,176,102278,1,10,0:0:0:0:
392,208,102348,1,2,0:0:0:0:
352,208,102419,1,0,0:0:0:0:
312,208,102490,5,0,0:0:0:0:
272,208,102561,1,8,0:0:0:0:
240,232,102631,1,0,0:0:0:0:
208,248,102702,1,0,0:0:0:0:
176,240,102773,1,0,0:0:0:0:
152,216,102844,1,8,0:0:0:0:
136,184,102914,1,0,0:0:0:0:
128,152,102985,1,0,0:0:0:0:
136,120,103056,1,0,0:0:0:0:
160,96,103127,1,8,0:0:0:0:
240,144,103268,5,2,0:0:0:0:
240,144,103339,1,2,0:0:0:0:
240,144,103410,1,10,0:0:0:0:
272,272,103551,1,0,0:0:0:0:
368,336,103693,1,8,0:0:0:0:
448,240,103834,1,0,0:0:0:0:
360,176,103976,1,8,0:0:0:0:
224,88,104117,1,4,0:0:0:0:
224,88,104188,1,0,0:0:0:0:
224,88,104259,1,8,0:0:0:0:
132,192,104400,1,0,0:0:0:0:
132,192,104471,1,4,0:0:0:0:
132,192,104542,2,8,P|144:256|200:296,1,104
176,288,104825,1,8,0:0:0:0:
276,292,104966,5,0,0:0:0:0:
344,224,105108,1,8,0:0:0:0:
256,188,105249,1,0,0:0:0:0:
348,152,105391,1,8,0:0:0:0:
412,112,105532,1,4,0:0:0:0:
288,88,105674,6,8,P|224:128|184:168,1,104
312,88,105957,2,8,P|376:24|384:-24,1,104
224,272,106240,6,8,P|160:312|120:352,1,104
248,272,106523,2,8,P|312:208|320:160,1,104
368,152,106806,1,8,0:0:0:0:
416,224,106947,1,0,0:0:0:0:
408,296,107089,1,8,0:0:0:0:
320,296,107230,5,0,0:0:0:0:
296,224,107372,1,8,0:0:0:0:
232,320,107513,1,0,0:0:0:0:
148,336,107655,1,8,0:0:0:0:
56,296,107796,1,0,0:0:0:0:
160,292,107938,1,8,0:0:0:0:
208,232,108079,1,0,0:0:0:0:
208,136,108221,1,8,0:0:0:0:
312,128,108362,1,0,0:0:0:0:
408,136,108504,1,10,0:0:0:0:
424,176,108574,1,2,0:0:0:0:
432,216,108645,1,2,0:0:0:0:
424,256,108716,1,2,0:0:0:0:
400,288,108787,1,10,0:0:0:0:
368,312,108857,1,2,0:0:0:0:
328,320,108928,1,2,0:0:0:0:
288,328,108999,1,2,0:0:0:0:
248,320,109070,6,8,L|136:296,1,104
208,232,109353,5,8,0:0:0:0:
128,160,109494,1,0,0:0:0:0:
92,216,109636,5,10,0:0:0:0:
112,264,109706,1,2,0:0:0:0:
144,304,109777,1,2,0:0:0:0:
192,320,109848,1,2,0:0:0:0:
240,336,109919,1,10,0:0:0:0:
288,328,109989,1,2,0:0:0:0:
336,304,110060,1,0,0:0:0:0:
376,272,110131,1,0,0:0:0:0:
416,304,110201,1,8,0:0:0:0:
432,352,110272,1,0,0:0:0:0:
480,336,110343,1,0,0:0:0:0:
456,216,110484,5,8,0:0:0:0:
352,144,110626,1,0,0:0:0:0:
256,224,110767,1,8,0:0:0:0:
248,136,110909,5,2,0:0:0:0:
248,136,110980,1,2,0:0:0:0:
248,136,111050,1,10,0:0:0:0:
248,136,111121,1,2,0:0:0:0:
216,96,111192,1,2,0:0:0:0:
176,64,111263,1,10,0:0:0:0:
128,40,111333,1,10,0:0:0:0:
80,56,111404,1,2,0:0:0:0:
48,96,111475,1,2,0:0:0:0:
32,144,111546,1,2,0:0:0:0:
72,176,111616,1,10,0:0:0:0:
80,224,111687,1,0,0:0:0:0:
80,280,111758,1,0,0:0:0:0:
128,264,111829,1,0,0:0:0:0:
136,272,111899,1,8,0:0:0:0:
128,264,111970,1,0,0:0:0:0:
136,272,112041,5,4,0:0:0:0:
136,272,112112,1,4,0:0:0:0:
136,272,112182,1,12,0:0:0:0:
288,352,112324,1,0,0:0:0:0:
336,300,112465,1,8,0:0:0:0:
336,300,112536,1,0,0:0:0:0:
336,300,112607,1,0,0:0:0:0:
412,304,112748,1,8,0:0:0:0:
384,216,112890,2,8,L|328:112,1,104
280,184,113173,5,0,0:0:0:0:
248,248,113314,1,8,0:0:0:0:
176,196,113456,1,0,0:0:0:0:
176,196,113527,1,0,0:0:0:0:
176,196,113597,1,8,0:0:0:0:
156,96,113739,1,0,0:0:0:0:
248,64,113880,1,8,0:0:0:0:
336,56,114022,6,0,P|384:112|400:184,1,104
344,272,114305,2,0,L|448:240,1,104
216,128,114588,2,0,L|352:184,1,104
216,128,114871,5,4,0:0:0:0:
216,128,114942,1,4,0:0:0:0:
216,128,115012,1,8,0:0:0:0:
128,232,115154,5,4,0:0:0:0:
128,232,115225,1,4,0:0:0:0:
128,232,115296,1,8,0:0:0:0:
160,280,115438,5,4,0:0:0:0:
160,280,115508,1,4,0:0:0:0:
164,284,115579,1,8,0:0:0:0:
228,324,115720,5,0,0:0:0:0:
228,324,115791,1,0,0:0:0:0:
228,324,115861,2,8,B|360:320|424:296|424:296|424:80,1,390.00001487732
352,40,116427,5,8,0:0:0:0:
356,40,116569,1,0,0:0:0:0:
344,96,116710,2,8,P|376:208|408:240,1,156.000005950928
288,312,116993,2,8,P|352:304|408:232,1,156.000005950928
144,264,117276,5,8,0:0:0:0:
152,272,117347,1,0,0:0:0:0:
152,272,117418,1,0,0:0:0:0:
152,272,117489,1,0,0:0:0:0:
168,288,117559,1,8,0:0:0:0:
192,304,117630,1,0,0:0:0:0:
216,328,117701,1,0,0:0:0:0:
248,336,117772,1,0,0:0:0:0:
280,336,117842,1,8,0:0:0:0:
312,328,117913,1,0,0:0:0:0:
336,304,117984,1,0,0:0:0:0:
352,272,118055,1,0,0:0:0:0:
352,240,118125,1,8,0:0:0:0:
304,160,118267,5,0,0:0:0:0:
224,216,118408,1,8,0:0:0:0:
216,112,118550,1,4,0:0:0:0:
160,40,118691,1,8,0:0:0:0:
88,56,118833,1,0,0:0:0:0:
64,120,118974,1,8,0:0:0:0:
88,192,119116,5,4,0:0:0:0:
88,192,119187,1,4,0:0:0:0:
88,192,119257,1,8,0:0:0:0:
128,264,119399,5,4,0:0:0:0:
128,264,119469,1,4,0:0:0:0:
128,264,119539,1,12,0:0:0:0:
216,272,119682,5,0,0:0:0:0:
216,272,119752,1,0,0:0:0:0:
216,272,119823,1,8,0:0:0:0:
248,224,119965,1,0,0:0:0:0:
248,224,120035,1,0,0:0:0:0:
248,224,120106,2,8,P|320:272|408:272,1,156
272,320,120389,6,8,B|272:84|272:84|168:12|100:80|100:80|96:136,1,468.000017852784
88,104,121097,1,0,0:0:0:0:
144,200,121238,1,8,0:0:0:0:
168,68,121380,1,0,0:0:0:0:
316,96,121521,1,8,0:0:0:0:
284,220,121663,1,0,0:0:0:0:
180,216,121804,1,8,0:0:0:0:
108,120,121946,1,4,0:0:0:0:
344,148,122087,1,12,0:0:0:0:
348,24,122229,1,4,0:0:0:0:
428,48,122370,5,8,0:0:0:0:
376,248,122512,1,4,0:0:0:0:
180,284,122653,1,12,0:0:0:0:
96,36,122795,5,0,0:0:0:0:
296,128,122936,1,8,0:0:0:0:
376,300,123078,1,0,0:0:0:0:
192,232,123219,6,8,L|144:264,1,52
176,128,123502,1,8,0:0:0:0:
128,56,123644,1,0,0:0:0:0:
256,192,123785,5,0,0:0:0:0:
