osu file format v14

[General]
AudioFilename: BEMANIElemental Creation-dj TAKA meets DJ YOSHITAKA.mp3
AudioLeadIn: 0
PreviewTime: -1
Countdown: 1
SampleSet: Normal
StackLeniency: 0.7
Mode: 0
LetterboxInBreaks: 0
WidescreenStoryboard: 1

[Editor]
DistanceSpacing: 1.2
BeatDivisor: 4
GridSize: 16
TimelineZoom: 1

[Metadata]
Title:Elemental Creation
TitleUnicode:Elemental Creation
Artist:dj TAKA meets DJ YOSHITAKA
ArtistUnicode:dj TAKA meets DJ YOSHITAKA
Creator:Wales
Version:Insane
Source:
Tags:
BeatmapID:779259
BeatmapSetID:353639

[Difficulty]
HPDrainRate:7
CircleSize:4
OverallDifficulty:8
ApproachRate:9
SliderMultiplier:1.5
SliderTickRate:2

[Events]
//Background and Video events
0,0,"Cool-1920x1080.jpg",0,0
//Break Periods
2,57956,64514
//Storyboard Layer 0 (Background)
//Storyboard Layer 1 (Fail)
//Storyboard Layer 2 (Pass)
//Storyboard Layer 3 (Foreground)
//Storyboard Sound Samples

[TimingPoints]
10775,283.018867924528,4,1,0,100,1,0
74290,-66.6666666666667,4,1,0,100,0,0
83135,-100,4,1,0,100,0,0

[HitObjects]
64,48,10775,5,0,0:0:0:0:
64,48,10916,1,0,0:0:0:0:
64,144,11058,1,0,0:0:0:0:
64,144,11199,1,0,0:0:0:0:
64,240,11341,5,0,0:0:0:0:
64,240,11482,1,0,0:0:0:0:
64,336,11624,1,0,0:0:0:0:
64,336,11765,1,0,0:0:0:0:
154,328,11907,6,0,P|246:304|256:295,1,75
223,226,12190,1,0,0:0:0:0:
260,144,12331,1,0,0:0:0:0:
319,211,12473,2,0,P|367:270|387:268,1,75
442,297,12756,1,0,0:0:0:0:
466,210,12897,1,0,0:0:0:0:
416,144,13039,6,0,P|352:128|320:144,1,75
272,176,13322,1,0,0:0:0:0:
176,176,13463,1,0,0:0:0:0:
96,128,13605,2,0,P|48:160|48:192,1,75
64,256,13888,1,0,0:0:0:0:
128,320,14029,1,0,0:0:0:0:
208,288,14171,6,0,L|304:288,3,75
368,288,14737,1,0,0:0:0:0:
432,224,14878,5,0,0:0:0:0:
432,192,14949,1,0,0:0:0:0:
432,160,15020,1,0,0:0:0:0:
432,128,15091,1,0,0:0:0:0:
432,96,15161,1,0,0:0:0:0:
352,64,15303,5,0,0:0:0:0:
262,65,15444,1,0,0:0:0:0:
176,64,15586,1,0,0:0:0:0:
92,97,15727,1,0,0:0:0:0:
48,176,15869,2,0,P|96:208|208:208,1,150
186,215,16435,1,0,0:0:0:0:
368,224,16718,1,0,0:0:0:0:
224,336,17001,6,0,L|80:288,1,150
64,112,17567,5,0,0:0:0:0:
160,112,17708,1,0,0:0:0:0:
64,112,17850,1,0,0:0:0:0:
160,112,17991,1,0,0:0:0:0:
112,192,18133,2,0,P|192:208|208:208,1,75
272,208,18416,5,0,0:0:0:0:
272,208,18558,1,0,0:0:0:0:
336,144,18699,2,0,L|448:256,1,150
442,250,19124,1,0,0:0:0:0:
384,320,19265,5,0,0:0:0:0:
384,320,19336,1,0,0:0:0:0:
384,320,19407,1,0,0:0:0:0:
288,304,19548,5,0,0:0:0:0:
288,304,19619,1,0,0:0:0:0:
288,304,19690,1,0,0:0:0:0:
192,304,19831,6,0,L|96:272,1,75
64,208,20114,1,0,0:0:0:0:
96,128,20256,1,0,0:0:0:0:
176,96,20397,2,0,L|272:96,3,75
336,96,20963,1,0,0:0:0:0:
336,96,21105,1,0,0:0:0:0:
411,143,21246,1,0,0:0:0:0:
411,143,21388,1,0,0:0:0:0:
426,231,21529,5,0,0:0:0:0:
361,293,21671,1,0,0:0:0:0:
276,322,21812,1,0,0:0:0:0:
185,322,21954,1,0,0:0:0:0:
102,286,22095,1,0,0:0:0:0:
68,109,22378,5,0,0:0:0:0:
241,62,22661,2,0,L|241:158,1,75
328,114,22944,2,0,L|328:194,1,75
160,144,23227,2,0,L|160:224,1,75
240,272,23510,1,0,0:0:0:0:
240,272,23652,1,0,0:0:0:0:
329,278,23793,5,0,0:0:0:0:
351,258,23864,1,0,0:0:0:0:
370,234,23935,1,0,0:0:0:0:
385,208,24006,1,0,0:0:0:0:
396,180,24076,1,0,0:0:0:0:
400,144,24147,1,0,0:0:0:0:
400,112,24218,1,0,0:0:0:0:
345,40,24359,6,0,L|251:83,1,75
268,160,24642,2,0,L|191:123,1,75
159,46,24925,2,0,P|79:62|47:126,1,150
48,207,25350,1,0,0:0:0:0:
77,291,25491,1,0,0:0:0:0:
163,318,25633,1,0,0:0:0:0:
163,228,25774,6,0,P|227:228|243:244,1,75
256,320,26058,2,0,P|320:320|352:304,1,75
327,226,26341,2,0,P|391:226|407:242,1,75
444,306,26624,1,0,0:0:0:0:
444,306,26765,1,0,0:0:0:0:
442,215,26907,5,0,0:0:0:0:
416,176,26977,1,0,0:0:0:0:
384,144,27048,1,0,0:0:0:0:
304,96,27190,1,0,0:0:0:0:
304,96,27331,1,0,0:0:0:0:
208,96,27473,1,0,0:0:0:0:
160,96,27543,1,0,0:0:0:0:
112,96,27614,1,0,0:0:0:0:
43,154,27756,6,0,P|43:218|59:234,1,75
133,196,28039,2,0,P|133:244|117:276,1,75
78,347,28322,1,0,0:0:0:0:
124,350,28392,1,0,0:0:0:0:
172,350,28463,1,0,0:0:0:0:
261,336,28605,1,0,0:0:0:0:
256,192,28888,12,0,32001,0:0:0:0:
80,64,32284,5,0,0:0:0:0:
176,64,32425,1,0,0:0:0:0:
176,64,32496,1,0,0:0:0:0:
176,64,32567,1,0,0:0:0:0:
272,64,32708,5,0,0:0:0:0:
272,64,32779,1,0,0:0:0:0:
272,64,32850,1,0,0:0:0:0:
368,64,32991,5,0,0:0:0:0:
368,64,33133,2,0,L|368:144,1,75
464,144,33416,2,0,L|464:224,1,75
368,208,33699,2,0,L|368:288,1,75
272,256,33982,2,0,L|272:352,1,75
176,320,34265,5,0,0:0:0:0:
96,272,34407,1,0,0:0:0:0:
160,208,34548,1,0,0:0:0:0:
80,160,34690,1,0,0:0:0:0:
144,96,34831,1,0,0:0:0:0:
240,96,34973,1,0,0:0:0:0:
336,96,35114,1,0,0:0:0:0:
336,96,35255,1,0,0:0:0:0:
416,144,35397,6,0,L|272:240,1,150
291,227,35822,1,0,0:0:0:0:
224,176,35963,2,0,L|160:224,1,75
112,288,36246,2,0,L|208:320,1,75
272,304,36529,2,0,L|352:272,1,75
384,192,36812,2,0,L|352:112,1,75
272,80,37095,2,0,L|192:80,1,75
112,80,37378,5,0,0:0:0:0:
112,176,37520,1,0,0:0:0:0:
112,272,37661,1,0,0:0:0:0:
112,272,37803,1,0,0:0:0:0:
208,272,37944,6,0,L|288:272,1,75
320,192,38227,2,0,L|368:272,1,75
448,272,38510,2,0,L|464:192,1,75
416,128,38793,5,0,0:0:0:0:
352,64,38935,1,0,0:0:0:0:
256,48,39076,1,0,0:0:0:0:
160,64,39218,1,0,0:0:0:0:
96,128,39359,1,0,0:0:0:0:
64,208,39501,5,0,0:0:0:0:
64,208,39642,2,0,L|64:304,1,75
160,288,39925,2,0,L|256:288,1,75
320,288,40208,1,0,0:0:0:0:
416,288,40350,1,0,0:0:0:0:
416,192,40491,6,0,L|320:192,1,75
320,192,40704,1,0,0:0:0:0:
288,192,40774,1,0,0:0:0:0:
256,192,40845,1,0,0:0:0:0:
224,192,40916,1,0,0:0:0:0:
128,192,41058,5,0,0:0:0:0:
128,192,41199,1,0,0:0:0:0:
64,128,41341,2,0,P|96:80|128:64,1,75
192,48,41624,6,0,L|288:48,1,75
288,48,41836,1,0,0:0:0:0:
310,54,41907,1,0,0:0:0:0:
329,64,41977,1,0,0:0:0:0:
349,76,42048,1,0,0:0:0:0:
367,91,42119,1,0,0:0:0:0:
385,105,42190,1,0,0:0:0:0:
398,122,42260,1,0,0:0:0:0:
409,143,42331,1,0,0:0:0:0:
400,240,42473,6,0,L|336:304,1,75
256,304,42756,2,0,L|160:304,1,75
112,256,43039,2,0,L|64:192,1,75
96,112,43322,2,0,L|176:64,1,75
256,64,43605,5,0,0:0:0:0:
256,160,43746,1,0,0:0:0:0:
256,64,43888,1,0,0:0:0:0:
256,160,44029,1,0,0:0:0:0:
256,256,44171,6,0,L|160:256,1,75
256,256,44454,2,0,L|336:256,1,75
256,256,44737,2,0,L|256:336,1,75
256,192,45020,12,0,46859,0:0:0:0:
256,192,47001,6,0,L|176:192,1,75
256,192,47284,2,0,L|256:112,1,75
256,192,47567,2,0,L|336:192,1,75
256,192,47850,2,0,L|256:272,1,75
192,320,48133,5,0,0:0:0:0:
96,304,48274,1,0,0:0:0:0:
48,224,48416,1,0,0:0:0:0:
32,128,48558,1,0,0:0:0:0:
48,48,48699,1,0,0:0:0:0:
48,48,48982,1,0,0:0:0:0:
224,48,49265,6,0,L|272:128,1,75
336,64,49548,2,0,L|368:144,1,75
448,112,49831,2,0,L|432:192,1,75
480,256,50114,2,0,L|400:288,1,75
352,352,50397,2,0,L|288:288,1,75
208,320,50680,2,0,L|176:240,1,75
96,256,50963,2,0,L|128:176,1,75
64,128,51246,2,0,L|144:80,1,75
128,89,51529,1,0,0:0:0:0:
128,89,51812,1,0,0:0:0:0:
304,64,52095,5,0,0:0:0:0:
304,160,52237,1,0,0:0:0:0:
400,160,52378,1,0,0:0:0:0:
400,64,52520,1,0,0:0:0:0:
352,112,52661,6,0,L|352:192,1,75
352,208,53227,6,0,L|352:288,1,75
139,115,53793,6,0,P|94:151|84:174,1,75
71,254,54076,2,0,P|104:312|125:318,1,75
197,323,54359,2,0,P|253:305|280:283,1,75
316,221,54642,2,0,P|296:167|256:145,1,75
176,192,54925,6,0,P|224:128|400:224,1,300
396,198,55774,1,0,0:0:0:0:
258,315,56058,6,0,B|108:308|56:249|56:249|33:187|33:184|75:109|81:102|182:63|263:69|343:73|405:105|446:225|450:242|454:360,1,900
80,80,65114,6,0,B|96:320|336:272|352:224|352:224|240:48|240:48|64:320,1,900
170,338,67095,1,0,0:0:0:0:
256,304,67378,2,0,B|384:240|384:240|112:160|112:160|400:96|400:96|192:48,1,900
48,48,69359,1,0,0:0:0:0:
57,227,69642,2,0,B|233:307|233:307|121:67|121:67|393:51|425:323,1,900
159,351,71624,1,0,0:0:0:0:
60,321,71907,2,0,B|60:49|60:49|332:337|332:337|332:81,1,900
224,98,73888,5,0,0:0:0:0:
157,265,74171,1,0,0:0:0:0:
432,240,74454,1,0,0:0:0:0:
176,160,74737,1,0,0:0:0:0:
176,160,74878,1,0,0:0:0:0:
112,304,75161,6,0,P|224:320|336:304,1,225.000008583069
334,304,75727,1,0,0:0:0:0:
448,64,76010,1,0,0:0:0:0:
320,64,76152,1,0,0:0:0:0:
192,64,76293,1,0,0:0:0:0:
65,162,76718,5,0,0:0:0:0:
48,336,77001,1,0,0:0:0:0:
48,336,77142,1,0,0:0:0:0:
320,320,77425,2,0,L|384:96,1,225.000008583069
381,103,77991,1,0,0:0:0:0:
192,64,78274,6,0,L|192:208,1,112.500004291535
192,176,78558,1,0,0:0:0:0:
48,128,78982,1,0,0:0:0:0:
45,222,79265,1,0,0:0:0:0:
45,222,79407,1,0,0:0:0:0:
44,321,79690,5,0,0:0:0:0:
44,321,79831,2,0,L|156:321,1,112.500004291535
291,322,80256,1,0,0:0:0:0:
291,322,80397,2,0,L|419:322,1,112.500004291535
135,116,80822,1,0,0:0:0:0:
135,116,80963,1,0,0:0:0:0:
135,116,81105,1,0,0:0:0:0:
240,80,81246,6,0,L|240:192,1,112.500004291535
240,192,81529,2,0,L|112:192,1,112.500004291535
240,192,81812,2,0,L|352:192,1,112.500004291535
240,192,82095,2,0,L|240:320,1,112.500004291535
160,272,82378,1,0,0:0:0:0:
320,272,82520,1,0,0:0:0:0:
112,288,82661,5,0,0:0:0:0:
368,288,82803,1,0,0:0:0:0:
464,192,82944,1,0,0:0:0:0:
384,80,83086,1,0,0:0:0:0:
304,128,83227,6,0,L|304:64,6,37.5
176,112,83793,1,0,0:0:0:0:
80,112,83935,1,0,0:0:0:0:
80,208,84076,1,0,0:0:0:0:
240,288,84359,6,0,L|304:288,6,37.5
336,288,84925,1,0,0:0:0:0:
432,288,85067,1,0,0:0:0:0:
432,192,85208,1,0,0:0:0:0:
272,112,85491,6,0,L|224:160,1,37.5
240,96,85633,2,0,L|208:128,1,37.5
208,80,85774,2,0,L|176:112,1,37.5
176,64,85916,2,0,L|128:112,1,37.5
112,64,86058,5,0,0:0:0:0:
64,144,86199,1,0,0:0:0:0:
64,240,86341,1,0,0:0:0:0:
240,288,86624,6,0,L|336:288,5,75
320,192,87473,1,0,0:0:0:0:
320,96,87614,1,0,0:0:0:0:
224,96,87756,6,0,L|224:176,5,75
144,128,88605,1,0,0:0:0:0:
80,192,88746,1,0,0:0:0:0:
80,288,88888,6,0,L|160:288,7,75
240,288,90020,1,0,0:0:0:0:
400,80,91152,5,0,0:0:0:0:
400,80,91293,1,0,0:0:0:0:
220,95,91576,2,0,P|164:58|79:74,2,150
220,95,92284,1,0,0:0:0:0:
220,95,92425,1,0,0:0:0:0:
41,118,92708,5,0,0:0:0:0:
41,118,92991,1,0,0:0:0:0:
187,344,93274,1,0,0:0:0:0:
187,344,93416,2,0,B|431:278|470:124|457:37,1,450
352,80,94548,6,0,L|352:128,1,37.5
320,80,94690,2,0,L|320:128,1,37.5
288,80,94831,2,0,L|288:128,1,37.5
256,80,94973,2,0,L|256:128,1,37.5
224,80,95114,2,0,L|224:128,1,37.5
192,80,95256,2,0,L|192:144,1,37.5
160,80,95397,2,0,L|160:128,1,37.5
128,80,95539,2,0,L|128:128,1,37.5
96,160,95680,1,0,0:0:0:0:
96,160,95822,1,0,0:0:0:0:
176,240,95963,2,0,L|256:240,1,75
336,240,96246,1,0,0:0:0:0:
432,240,96388,1,0,0:0:0:0:
480,160,96529,1,0,0:0:0:0:
480,160,96671,1,0,0:0:0:0:
416,96,96812,6,0,L|336:96,1,75
256,96,97095,2,0,L|176:96,1,75
96,96,97378,2,0,L|96:176,1,75
96,256,97661,1,0,0:0:0:0:
272,304,97944,6,0,L|304:224,1,75
384,240,98227,2,0,L|336:160,1,75
416,112,98510,2,0,L|336:112,1,75
304,32,98793,2,0,L|256:112,1,75
176,64,99076,2,0,L|224:144,1,75
128,160,99359,2,0,L|208:192,1,75
160,272,99642,6,0,L|240:240,1,75
272,224,99855,1,0,0:0:0:0:
304,208,99925,1,0,0:0:0:0:
336,192,99996,1,0,0:0:0:0:
368,176,100067,1,0,0:0:0:0:
400,96,100208,6,0,L|240:96,1,150
64,80,100774,2,0,L|64:240,1,150
224,304,101341,2,0,L|384:304,1,150
256,192,101907,12,0,104454,0:0:0:0:
64,96,104737,5,0,0:0:0:0:
128,160,104878,1,0,0:0:0:0:
224,144,105020,2,0,P|272:192|272:224,1,75
224,272,105303,1,0,0:0:0:0:
144,304,105444,1,0,0:0:0:0:
80,240,105586,6,0,P|64:176|80:144,1,75
128,96,105869,1,0,0:0:0:0:
208,64,106010,1,0,0:0:0:0:
304,80,106152,2,0,P|336:128|336:160,1,75
320,224,106435,1,0,0:0:0:0:
352,304,106576,1,0,0:0:0:0:
416,240,106718,6,0,P|416:192|400:160,1,75
320,144,107001,1,0,0:0:0:0:
240,160,107142,1,0,0:0:0:0:
144,176,107284,6,0,P|96:224|96:256,1,75
128,320,107567,2,0,P|192:320|208:304,1,75
272,256,107850,2,0,P|272:208|240:192,1,75
160,192,108133,5,0,0:0:0:0:
64,192,108274,1,0,0:0:0:0:
64,96,108416,1,0,0:0:0:0:
160,96,108558,1,0,0:0:0:0:
256,96,108699,2,0,L|352:96,1,75
416,96,108982,2,0,L|416:176,1,75
320,176,109265,6,0,L|240:176,1,75
208,176,109477,1,0,0:0:0:0:
160,176,109548,1,0,0:0:0:0:
112,176,109619,1,0,0:0:0:0:
64,176,109690,1,0,0:0:0:0:
64,272,109831,6,0,L|112:336,1,75
176,272,110114,2,0,L|224:336,1,75
288,272,110397,2,0,L|336:336,1,75
416,288,110680,5,0,0:0:0:0:
416,192,110822,1,0,0:0:0:0:
416,96,110963,1,0,0:0:0:0:
416,96,111105,1,0,0:0:0:0:
320,80,111246,2,0,L|224:80,1,75
160,80,111529,6,0,L|112:112,1,37.5
160,128,111671,2,0,L|112:160,1,37.5
160,176,111812,2,0,L|112:208,1,37.5
160,224,111954,2,0,L|112:256,1,37.5
160,272,112095,2,0,L|112:304,1,37.5
176,304,112237,1,0,0:0:0:0:
224,320,112308,1,0,0:0:0:0:
272,320,112378,1,0,0:0:0:0:
320,320,112449,1,0,0:0:0:0:
368,304,112520,1,0,0:0:0:0:
416,240,112661,5,0,0:0:0:0:
400,144,112803,2,0,L|400:80,2,37.5
304,144,113086,2,0,L|304:96,2,37.5
208,144,113369,2,0,L|208:96,2,37.5
112,144,113652,5,0,0:0:0:0:
112,144,113793,1,0,0:0:0:0:
96,240,113935,1,0,0:0:0:0:
96,240,114076,1,0,0:0:0:0:
160,304,114218,1,0,0:0:0:0:
160,304,114359,1,0,0:0:0:0:
256,304,114501,1,0,0:0:0:0:
256,304,114642,1,0,0:0:0:0:
336,288,114784,1,0,0:0:0:0:
336,288,114925,2,0,L|384:224,1,75
448,160,115208,6,0,L|368:112,1,75
352,32,115491,2,0,L|288:112,1,75
208,96,115774,2,0,L|272:160,1,75
208,224,116058,2,0,L|288:224,1,75
368,240,116341,1,0,0:0:0:0:
432,304,116482,1,0,0:0:0:0:
336,320,116624,2,0,L|240:320,1,75
261,320,116907,1,0,0:0:0:0:
64,304,117190,5,0,0:0:0:0:
64,208,117331,1,0,0:0:0:0:
64,304,117473,1,0,0:0:0:0:
64,208,117614,1,0,0:0:0:0:
144,256,117756,2,0,L|240:256,1,75
224,160,118039,2,0,L|320:160,1,75
304,64,118322,2,0,L|384:64,1,75
416,144,118605,5,0,0:0:0:0:
400,240,118746,1,0,0:0:0:0:
320,288,118888,1,0,0:0:0:0:
224,304,119029,1,0,0:0:0:0:
144,272,119171,2,0,L|80:288,6,37.5
112,192,119737,5,0,0:0:0:0:
112,192,119878,1,0,0:0:0:0:
112,96,120020,1,0,0:0:0:0:
112,96,120161,1,0,0:0:0:0:
192,64,120303,2,0,P|240:96|240:128,1,75
176,160,120586,2,0,P|208:208|256:208,1,75
304,192,120869,2,0,P|336:160|352:128,1,75
320,48,121152,6,0,P|416:48|416:224,1,300
352,272,121859,1,0,0:0:0:0:
256,288,122001,1,0,0:0:0:0:
160,272,122142,1,0,0:0:0:0:
80,304,122284,6,0,L|80:208,1,75
80,144,122567,2,0,L|160:96,1,75
224,80,122850,2,0,L|304:80,1,75
384,112,123133,2,0,L|464:144,1,75
432,224,123416,2,0,L|432:304,1,75
352,272,123699,2,0,B|272:320|272:320|208:256,1,150
