osu file format v12

[General]
AudioFilename: dj TAKA meets DJ YOSHITAKA - Elemental Creation.mp3
AudioLeadIn: 0
PreviewTime: -1
Countdown: 0
SampleSet: None
StackLeniency: 0.7
Mode: 0
LetterboxInBreaks: 0

[Editor]
Bookmarks: 10453,19509,28566,37198,37622,46679,55736,64792,68188,73849,82905,95358,104415,113471,124226
DistanceSpacing: 1.2
BeatDivisor: 4
GridSize: 8

[Metadata]
Title:Elemental Creation
TitleUnicode:Elemental Creation
Artist:dj TAKA meets DJ YOSHITAKA
ArtistUnicode:dj TAKA meets DJ YOSHITAKA
Creator:Nyar
Version:AR10
Source:
Tags:
BeatmapID:263644
BeatmapSetID:98989

[Difficulty]
HPDrainRate:8
CircleSize:4
OverallDifficulty:7
ApproachRate:10
SliderMultiplier:2.32
SliderTickRate:1

[Events]
//Background and Video events
//Break Periods
//Storyboard Layer 0 (Background)
//Storyboard Layer 1 (Fail)
//Storyboard Layer 2 (Pass)
//Storyboard Layer 3 (Foreground)
//Storyboard Sound Samples
//Background Colour Transformations
3,100,163,162,255

[TimingPoints]
265,283.018867924528,4,1,1,55,1,0
1326,-100,4,2,1,5,0,0
1397,-100,4,1,1,55,0,0
3378,1132.07547169811,4,1,1,55,1,0
3661,283.018867924528,4,1,1,55,1,0
3873,-100,4,2,1,5,0,0
3944,-100,4,1,1,55,0,0
8189,1132.07547169811,4,1,1,55,1,0
8684,-100,4,2,1,5,0,0
8755,566.037735849057,4,1,1,55,1,0
8967,-100,4,2,1,5,0,0
9038,-100,4,1,1,55,0,0
9250,-100,4,2,1,5,0,0
9321,283.018867924528,4,1,1,55,1,0
37339,-133.333333333333,4,1,1,55,0,0
37552,-100,4,2,1,5,0,0
37622,-100,4,1,1,55,0,0
59273,-133.333333333333,4,1,1,50,0,0
59698,-200,4,1,1,45,0,0
60264,-200,4,1,1,40,0,0
60358,-200,4,1,1,39,0,0
60453,-200,4,1,1,38,0,0
60547,-200,4,1,1,37,0,0
60641,-200,4,1,1,36,0,0
60736,-200,4,1,1,35,0,0
60830,-200,4,1,1,34,0,0
60924,-200,4,1,1,33,0,0
61019,-200,4,1,1,32,0,0
61113,-200,4,1,1,31,0,0
61207,-200,4,1,1,30,0,0
61302,-200,4,1,1,29,0,0
61396,-200,4,1,1,28,0,0
61490,-200,4,1,1,27,0,0
61585,-200,4,1,1,26,0,0
61679,-200,4,1,1,25,0,0
61773,-200,4,1,1,24,0,0
61868,-200,4,1,1,23,0,0
61962,-200,4,1,1,22,0,0
62056,-200,4,1,1,21,0,0
62151,-200,4,1,1,20,0,0
62245,-200,4,1,1,19,0,0
62339,-200,4,1,1,18,0,0
62434,-200,4,1,1,17,0,0
64651,-200,4,1,1,5,0,0
64792,2264.15094339623,4,1,1,45,1,0
72150,-100,4,1,1,40,0,0
72716,-100,4,1,1,37,0,0
73282,-100,4,1,1,34,0,0
73849,283.018867924528,4,1,1,55,1,0
78377,-100,4,1,1,46,0,0
83754,-50,4,1,1,46,0,0
86867,-100,4,1,1,46,0,0
87150,-50,4,1,1,46,0,0
87292,-100,4,1,1,46,0,0
90688,-100,4,1,1,5,0,0
90830,-100,4,1,1,46,0,0
93094,1132.07547169811,4,1,1,46,1,0
93589,-100,4,1,1,5,0,0
93660,566.037735849057,4,1,1,46,1,0
93872,-100,4,1,1,5,0,0
93943,-100,4,1,1,46,0,0
94155,-100,4,1,1,5,0,0
94226,283.018867924528,4,1,1,46,1,0
122244,-133.333333333333,4,1,1,46,0,0
122457,-100,4,2,1,5,0,0
122527,-100,4,1,1,46,0,0
123376,-133.333333333333,4,1,1,46,0,0
123589,-100,4,2,1,5,0,0
123659,-66.6666666666667,4,1,1,46,0,0
124225,-66.6666666666667,4,2,1,5,0,0

[HitObjects]
256,192,831,12,0,1326,0:0:0:0:
256,192,1397,5,0,0:0:0:0:
256,192,1538,1,0,0:0:0:0:
329,22,1680,6,0,P|332:77|333:138,1,116
183,362,1963,2,0,P|180:307|179:246,1,116
183,22,2246,2,0,P|180:77|179:138,1,116
329,362,2529,2,0,P|332:307|333:246,1,116
257,38,2812,5,0,0:0:0:0:
272,175,2953,1,0,0:0:0:0:
410,160,3095,1,0,0:0:0:0:
395,23,3236,1,0,0:0:0:0:
231,152,3378,6,0,P|234:202|235:253,1,101.5
144,358,3944,5,0,0:0:0:0:
36,315,4085,1,0,0:0:0:0:
36,315,4227,2,0,P|37:258|39:199,1,116
67,86,4510,2,0,P|120:61|174:73,1,116
337,310,4793,5,0,0:0:0:0:
337,310,4934,1,0,0:0:0:0:
448,275,5076,2,0,P|513:191|467:86,1,232
231,141,5500,1,0,0:0:0:0:
402,208,5642,2,0,P|344:215|287:228,1,116
178,360,5925,5,0,0:0:0:0:
66,328,6066,1,0,0:0:0:0:
66,328,6208,2,0,P|57:267|55:212,1,116
271,139,6491,2,0,P|271:196|269:255,1,116
103,44,6774,2,0,P|151:74|209:69,1,116
358,6,7057,5,0,0:0:0:0:
265,192,7198,1,0,0:0:0:0:
482,127,7340,2,0,P|424:131|368:138,1,116
102,328,7623,5,0,0:0:0:0:
238,304,7764,1,0,0:0:0:0:
74,236,7906,1,0,0:0:0:0:
227,67,8047,1,0,0:0:0:0:
48,144,8189,6,0,P|104:141|150:140,1,101.5
309,184,8755,6,0,P|270:185|222:188,1,87
62,239,9038,2,0,P|111:237|150:236,1,87
338,278,9321,6,0,P|286:280|222:284,1,116
148,332,9533,1,0,0:0:0:0:
148,332,9604,1,0,0:0:0:0:
76,161,9745,5,0,0:0:0:0:
101,206,9816,1,0,0:0:0:0:
149,226,9887,1,0,0:0:0:0:
200,232,9957,1,0,0:0:0:0:
250,222,10028,1,0,0:0:0:0:
287,185,10099,1,0,0:0:0:0:
301,134,10170,2,0,L|297:76,1,58
212,12,10311,2,0,L|216:70,1,58
231,353,10453,5,0,0:0:0:0:
224,237,10594,1,0,0:0:0:0:
107,243,10736,1,0,0:0:0:0:
114,359,10877,5,0,0:0:0:0:
307,277,11019,1,0,0:0:0:0:
231,83,11160,1,0,0:0:0:0:
38,165,11302,5,0,0:0:0:0:
56,267,11443,1,0,0:0:0:0:
100,81,11585,1,0,0:0:0:0:
183,296,11726,5,0,0:0:0:0:
229,201,11868,1,0,0:0:0:0:
259,367,12009,1,0,0:0:0:0:
316,105,12151,6,0,P|325:164|331:220,1,116
422,5,12434,2,0,P|422:65|420:121,1,116
370,346,12717,5,0,0:0:0:0:
348,254,12858,1,0,0:0:0:0:
438,233,13000,1,0,0:0:0:0:
459,323,13141,5,0,0:0:0:0:
480,150,13283,1,0,0:0:0:0:
308,127,13424,1,0,0:0:0:0:
287,300,13566,5,0,0:0:0:0:
241,62,13707,1,0,0:0:0:0:
482,22,13849,1,0,0:0:0:0:
381,228,13990,5,0,0:0:0:0:
267,203,14132,1,0,0:0:0:0:
153,179,14273,1,0,0:0:0:0:
153,179,14415,2,0,P|153:235|155:295,1,116
179,341,14627,1,0,0:0:0:0:
223,368,14698,1,0,0:0:0:0:
274,376,14769,1,0,0:0:0:0:
325,371,14839,1,0,0:0:0:0:
370,345,14910,1,0,0:0:0:0:
395,299,14981,5,0,0:0:0:0:
314,149,15122,1,0,0:0:0:0:
321,242,15264,5,0,0:0:0:0:
453,88,15405,1,0,0:0:0:0:
460,204,15547,5,0,0:0:0:0:
307,32,15688,1,0,0:0:0:0:
209,132,15830,5,0,0:0:0:0:
211,155,15901,1,0,0:0:0:0:
213,177,15971,1,0,0:0:0:0:
214,200,16042,1,0,0:0:0:0:
215,223,16113,1,0,0:0:0:0:
111,175,16254,1,0,0:0:0:0:
311,135,16396,1,0,0:0:0:0:
215,223,16537,1,0,0:0:0:0:
129,56,16679,5,0,0:0:0:0:
253,29,16820,1,0,0:0:0:0:
276,302,16962,1,0,0:0:0:0:
148,297,17104,1,0,0:0:0:0:
362,243,17245,6,0,P|384:195|378:133,1,116
342,73,17457,1,0,0:0:0:0:
342,73,17528,1,0,0:0:0:0:
342,73,17670,6,0,L|284:66,1,58
52,107,17811,1,0,0:0:0:0:
87,135,17882,1,0,0:0:0:0:
132,145,17953,1,0,0:0:0:0:
177,141,18023,1,0,0:0:0:0:
218,120,18094,2,0,P|248:113|275:111,1,58
459,217,18236,1,0,0:0:0:0:
459,217,18306,1,0,0:0:0:0:
459,217,18377,1,0,0:0:0:0:
372,355,18519,5,0,0:0:0:0:
377,273,18802,1,0,0:0:0:0:
381,191,19085,1,0,0:0:0:0:
358,53,19226,6,0,P|365:85|370:110,1,58
273,244,19368,2,0,L|266:186,1,58
247,11,19509,1,0,0:0:0:0:
147,175,19651,6,0,P|142:118|141:60,1,116
19,168,19934,1,0,0:0:0:0:
88,314,20075,1,0,0:0:0:0:
88,314,20217,2,0,P|156:225|254:260,1,232
186,381,20641,5,0,0:0:0:0:
154,124,20783,1,0,0:0:0:0:
262,301,20924,2,0,P|264:243|269:185,1,116
334,23,21207,5,0,0:0:0:0:
478,181,21349,1,0,0:0:0:0:
450,26,21490,1,0,0:0:0:0:
372,227,21632,1,0,0:0:0:0:
372,227,21703,1,0,0:0:0:0:
372,227,21773,2,0,P|318:298|194:265,1,232
117,45,22198,5,0,0:0:0:0:
250,147,22339,1,0,0:0:0:0:
117,339,22481,2,0,P|111:286|109:224,1,116
371,77,22764,1,0,0:0:0:0:
371,77,22905,2,0,P|445:158|402:263,1,232
230,327,23330,5,0,0:0:0:0:
122,285,23471,2,0,P|123:227|125:169,1,116
108,125,23684,1,0,0:0:0:0:
151,140,23754,1,0,0:0:0:0:
197,145,23825,1,0,0:0:0:0:
243,146,23896,1,0,0:0:0:0:
289,141,23967,1,0,0:0:0:0:
333,131,24037,5,0,0:0:0:0:
328,293,24179,1,0,0:0:0:0:
449,226,24320,1,0,0:0:0:0:
175,169,24462,5,0,0:0:0:0:
201,353,24604,1,0,0:0:0:0:
55,282,24745,1,0,0:0:0:0:
280,218,24887,5,0,0:0:0:0:
283,195,24957,1,0,0:0:0:0:
285,171,25028,1,0,0:0:0:0:
286,147,25099,1,0,0:0:0:0:
286,123,25170,1,0,0:0:0:0:
196,50,25311,1,0,0:0:0:0:
356,21,25453,1,0,0:0:0:0:
286,123,25594,1,0,0:0:0:0:
359,314,25736,5,0,0:0:0:0:
156,202,25877,1,0,0:0:0:0:
216,328,26019,1,0,0:0:0:0:
410,163,26160,1,0,0:0:0:0:
247,32,26302,2,0,P|189:36|131:38,1,116
61,42,26514,1,0,0:0:0:0:
61,42,26585,1,0,0:0:0:0:
35,237,26726,5,0,0:0:0:0:
32,183,26797,1,0,0:0:0:0:
55,136,26868,1,0,0:0:0:0:
103,119,26938,1,0,0:0:0:0:
154,122,27009,1,0,0:0:0:0:
196,152,27080,1,0,0:0:0:0:
217,199,27151,1,0,0:0:0:0:
252,235,27221,1,0,0:0:0:0:
302,248,27292,1,0,0:0:0:0:
353,233,27363,1,0,0:0:0:0:
390,196,27434,5,0,0:0:0:0:
303,118,27575,1,0,0:0:0:0:
381,32,27717,1,0,0:0:0:0:
466,110,27858,1,0,0:0:0:0:
390,196,28000,5,0,0:0:0:0:
390,217,28070,1,0,0:0:0:0:
391,240,28141,1,0,0:0:0:0:
392,263,28212,1,0,0:0:0:0:
393,286,28283,1,0,0:0:0:0:
374,341,28354,1,0,0:0:0:0:
324,369,28424,1,0,0:0:0:0:
265,366,28495,1,0,0:0:0:0:
218,330,28566,2,0,P|158:321|102:320,1,116
18,209,28849,6,0,P|75:215|132:203,1,116
326,123,29132,1,0,0:0:0:0:
122,40,29273,1,0,0:0:0:0:
351,0,29415,5,0,0:0:0:0:
186,127,29556,1,0,0:0:0:0:
338,236,29698,2,0,P|342:294|338:351,1,116
245,164,29981,5,0,0:0:0:0:
155,270,30122,1,0,0:0:0:0:
46,228,30264,2,0,P|42:172|43:112,1,116
181,25,30547,2,0,P|169:82|166:139,1,116
186,324,30830,2,0,P|301:356|385:293,1,232
160,70,31254,1,0,0:0:0:0:
160,70,31396,2,0,P|247:212|397:166,1,348
479,59,31962,6,0,L|476:117,1,58
468,268,32104,2,0,L|471:210,1,58
429,83,32245,5,0,0:0:0:0:
424,48,32316,1,0,0:0:0:0:
415,13,32387,2,0,P|385:7|357:2,1,58
174,77,32528,1,0,0:0:0:0:
158,120,32599,1,0,0:0:0:0:
155,166,32670,1,0,0:0:0:0:
166,210,32740,1,0,0:0:0:0:
188,250,32811,2,0,L|245:256,1,58
378,206,32953,6,0,L|321:200,1,58
45,317,33094,2,0,P|100:334|159:338,1,116
274,284,33377,2,0,P|331:272|388:278,1,116
489,355,33660,1,0,0:0:0:0:
421,134,33802,5,0,0:0:0:0:
274,284,33943,1,0,0:0:0:0:
109,199,34085,1,0,0:0:0:0:
109,199,34226,2,0,P|102:142|106:83,1,116
224,35,34509,5,0,0:0:0:0:
203,244,34651,1,0,0:0:0:0:
46,282,34792,2,0,P|14:233|10:176,1,116
201,6,35075,2,0,P|188:63|186:120,1,116
276,360,35358,2,0,P|352:299|361:171,1,232
428,320,35783,1,0,0:0:0:0:
428,320,35924,2,0,P|286:244|316:82,1,348
143,220,36490,5,0,0:0:0:0:
369,164,36632,1,0,0:0:0:0:
265,317,36915,1,0,0:0:0:0:
81,287,37198,1,0,0:0:0:0:
81,287,37339,2,0,P|74:219|75:156,1,130.50000497818
126,109,37622,5,0,0:0:0:0:
309,142,37764,1,0,0:0:0:0:
204,232,37905,5,0,0:0:0:0:
179,35,38047,1,0,0:0:0:0:
374,11,38188,1,0,0:0:0:0:
226,129,38330,6,0,P|281:133|341:146,1,116
176,326,38613,2,0,P|120:338|61:343,1,116
269,223,38896,5,0,0:0:0:0:
359,365,39037,1,0,0:0:0:0:
494,266,39179,1,0,0:0:0:0:
255,331,39320,6,0,P|196:327|142:307,1,116
329,144,39604,2,0,P|379:122|438:110,1,116
347,260,39887,5,0,0:0:0:0:
201,128,40028,1,0,0:0:0:0:
343,40,40170,1,0,0:0:0:0:
222,251,40311,2,0,P|162:266|109:254,1,116
16,358,40594,6,0,P|73:352|131:348,1,116
340,373,40877,1,0,0:0:0:0:
470,323,41019,1,0,0:0:0:0:
235,256,41160,5,0,0:0:0:0:
412,357,41302,1,0,0:0:0:0:
224,381,41443,1,0,0:0:0:0:
367,231,41585,2,0,P|377:175|375:117,1,116
349,76,41797,1,0,0:0:0:0:
309,50,41868,1,0,0:0:0:0:
263,46,41938,1,0,0:0:0:0:
219,62,42009,1,0,0:0:0:0:
188,97,42080,1,0,0:0:0:0:
178,142,42151,5,0,0:0:0:0:
283,189,42292,1,0,0:0:0:0:
188,239,42434,1,0,0:0:0:0:
278,287,42575,1,0,0:0:0:0:
183,337,42717,1,0,0:0:0:0:
287,383,42858,1,0,0:0:0:0:
157,329,43000,5,0,0:0:0:0:
134,324,43070,1,0,0:0:0:0:
110,323,43141,1,0,0:0:0:0:
86,323,43212,1,0,0:0:0:0:
63,328,43283,1,0,0:0:0:0:
33,216,43424,1,0,0:0:0:0:
123,238,43566,1,0,0:0:0:0:
107,100,43707,1,0,0:0:0:0:
205,298,43849,5,0,0:0:0:0:
206,170,43990,1,0,0:0:0:0:
291,230,44132,1,0,0:0:0:0:
300,80,44273,1,0,0:0:0:0:
369,302,44415,5,0,0:0:0:0:
457,153,44556,1,0,0:0:0:0:
467,197,44627,1,0,0:0:0:0:
474,242,44698,1,0,0:0:0:0:
338,82,44839,5,0,0:0:0:0:
365,119,44910,1,0,0:0:0:0:
369,165,44981,1,0,0:0:0:0:
349,207,45052,1,0,0:0:0:0:
308,227,45122,1,0,0:0:0:0:
261,223,45193,1,0,0:0:0:0:
217,207,45264,2,0,L|213:149,1,58
135,251,45405,2,0,L|138:308,1,58
45,220,45547,1,0,0:0:0:0:
200,48,45688,5,0,0:0:0:0:
113,31,45971,1,0,0:0:0:0:
34,63,46254,1,0,0:0:0:0:
259,121,46396,5,0,0:0:0:0:
292,118,46467,1,0,0:0:0:0:
326,116,46537,1,0,0:0:0:0:
360,113,46608,1,0,0:0:0:0:
394,111,46679,1,0,0:0:0:0:
493,168,46820,2,0,P|499:227|484:280,1,116
349,375,47104,1,0,0:0:0:0:
239,341,47245,2,0,P|222:285|223:228,1,116
308,88,47528,1,0,0:0:0:0:
308,88,47670,2,0,P|366:89|423:95,1,116
248,284,47953,5,0,0:0:0:0:
133,267,48094,2,0,P|125:208|121:151,1,116
357,245,48377,2,0,P|355:304|350:361,1,116
436,108,48660,6,0,P|444:167|448:224,1,116
176,375,48943,2,0,P|142:326|137:271,1,116
154,150,49226,1,0,0:0:0:0:
275,140,49368,1,0,0:0:0:0:
380,262,49509,5,0,0:0:0:0:
487,236,49651,2,0,P|496:174|482:122,1,116
318,35,49934,1,0,0:0:0:0:
360,191,50075,1,0,0:0:0:0:
443,12,50217,5,0,0:0:0:0:
268,163,50358,1,0,0:0:0:0:
164,69,50500,1,0,0:0:0:0:
57,137,50641,2,0,P|59:193|64:252,1,116
72,299,50854,1,0,0:0:0:0:
99,335,50924,1,0,0:0:0:0:
141,354,50995,1,0,0:0:0:0:
187,356,51066,1,0,0:0:0:0:
228,335,51137,1,0,0:0:0:0:
251,295,51207,5,0,0:0:0:0:
221,171,51349,1,0,0:0:0:0:
342,244,51490,1,0,0:0:0:0:
311,100,51632,1,0,0:0:0:0:
440,207,51773,1,0,0:0:0:0:
408,41,51915,1,0,0:0:0:0:
444,217,52056,5,0,0:0:0:0:
421,270,52127,1,0,0:0:0:0:
371,299,52198,1,0,0:0:0:0:
312,299,52269,1,0,0:0:0:0:
259,275,52339,1,0,0:0:0:0:
86,345,52481,1,0,0:0:0:0:
198,372,52622,5,0,0:0:0:0:
94,192,52764,1,0,0:0:0:0:
307,285,52905,1,0,0:0:0:0:
221,133,53047,1,0,0:0:0:0:
447,249,53188,1,0,0:0:0:0:
325,42,53330,1,0,0:0:0:0:
500,103,53471,6,0,P|442:122|388:118,1,116
320,183,53684,1,0,0:0:0:0:
298,191,53754,2,0,P|241:175|184:172,1,116
143,87,53967,1,0,0:0:0:0:
120,91,54037,1,0,0:0:0:0:
72,125,54108,1,0,0:0:0:0:
53,180,54179,1,0,0:0:0:0:
52,238,54250,1,0,0:0:0:0:
76,289,54320,1,0,0:0:0:0:
126,318,54391,1,0,0:0:0:0:
183,324,54462,5,0,0:0:0:0:
240,314,54533,1,0,0:0:0:0:
297,304,54604,2,0,L|355:295,1,58
497,175,54745,5,0,0:0:0:0:
451,183,54816,1,0,0:0:0:0:
405,192,54887,2,0,L|348:203,1,58
201,109,55028,5,0,0:0:0:0:
235,115,55099,1,0,0:0:0:0:
269,120,55170,2,0,L|264:62,1,58
352,0,55311,2,0,L|357:57,1,58
288,271,55453,6,0,L|283:213,1,58
371,151,55594,2,0,L|376:208,1,58
342,346,55736,6,0,P|286:333|227:332,1,116
144,251,56019,2,0,P|82:267|31:258,1,116
24,236,56231,1,0,0:0:0:0:
17,213,56302,1,0,0:0:0:0:
12,190,56372,1,0,0:0:0:0:
10,166,56443,1,0,0:0:0:0:
161,38,56585,1,0,0:0:0:0:
336,125,56726,1,0,0:0:0:0:
336,125,56797,1,0,0:0:0:0:
336,125,56868,2,0,P|342:184|333:239,1,116
193,362,57151,6,0,P|191:304|187:246,1,116
179,176,57363,1,0,0:0:0:0:
179,176,57434,1,0,0:0:0:0:
314,283,57575,1,0,0:0:0:0:
462,253,57717,1,0,0:0:0:0:
465,230,57787,1,0,0:0:0:0:
466,206,57858,1,0,0:0:0:0:
467,182,57929,1,0,0:0:0:0:
467,158,58000,2,0,P|418:128|361:121,1,116
244,295,58283,5,0,0:0:0:0:
135,256,58424,1,0,0:0:0:0:
135,256,58495,1,0,0:0:0:0:
135,256,58566,2,0,P|115:204|123:146,1,116
178,42,58849,2,0,P|229:34|293:30,1,116
363,30,59061,1,0,0:0:0:0:
363,30,59132,1,0,0:0:0:0:
113,91,59273,6,0,P|85:172|144:232,1,174.000006637573
223,190,59698,6,0,P|272:208|335:205,1,116
414,171,60122,1,0,0:0:0:0:
470,111,60264,2,0,P|489:106|508:104,23,38.6666666666667
256,192,63872,12,0,64651,0:0:0:0:
134,312,64792,2,0,P|130:279|129:254,1,58
378,72,65924,2,0,P|381:104|382:129,1,58
129,129,67056,2,0,P|130:104|134:72,1,58
382,254,68188,2,0,P|381:279|378:312,1,58
134,72,69320,6,0,P|166:66|191:64,1,58
378,312,70452,2,0,P|345:317|320:319,1,58
320,64,71584,2,0,P|345:66|378:72,1,58
191,319,72716,2,0,P|166:317|134:312,1,58
133,311,73848,5,0,0:0:0:0:
203,234,73990,1,0,0:0:0:0:
31,291,74273,1,0,0:0:0:0:
203,234,74556,1,0,0:0:0:0:
31,291,74839,1,0,0:0:0:0:
141,85,74981,5,0,0:0:0:0:
71,162,75122,1,0,0:0:0:0:
243,105,75405,1,0,0:0:0:0:
71,162,75688,1,0,0:0:0:0:
243,105,75971,1,0,0:0:0:0:
371,299,76113,5,0,0:0:0:0:
441,222,76254,1,0,0:0:0:0:
269,279,76537,1,0,0:0:0:0:
441,222,76820,1,0,0:0:0:0:
269,279,77103,1,0,0:0:0:0:
379,73,77245,5,0,0:0:0:0:
309,150,77386,1,0,0:0:0:0:
481,93,77669,1,0,0:0:0:0:
309,150,77952,1,0,0:0:0:0:
481,93,78235,1,0,0:0:0:0:
249,16,78377,5,0,0:0:0:0:
249,20,78448,1,0,0:0:0:0:
249,25,78518,1,0,0:0:0:0:
249,30,78589,1,0,0:0:0:0:
249,35,78660,1,0,0:0:0:0:
249,40,78731,1,0,0:0:0:0:
250,45,78801,1,0,0:0:0:0:
250,50,78872,1,0,0:0:0:0:
250,55,78943,1,0,0:0:0:0:
250,60,79014,1,0,0:0:0:0:
250,65,79084,1,0,0:0:0:0:
250,70,79155,1,0,0:0:0:0:
251,75,79226,1,0,0:0:0:0:
251,80,79297,1,0,0:0:0:0:
251,85,79367,1,0,0:0:0:0:
251,90,79438,1,0,0:0:0:0:
251,95,79509,1,0,0:0:0:0:
251,100,79580,1,0,0:0:0:0:
252,105,79650,1,0,0:0:0:0:
252,110,79721,1,0,0:0:0:0:
252,115,79792,1,0,0:0:0:0:
252,120,79863,1,0,0:0:0:0:
252,125,79933,1,0,0:0:0:0:
253,130,80004,1,0,0:0:0:0:
253,135,80075,1,0,0:0:0:0:
253,140,80146,1,0,0:0:0:0:
253,145,80216,1,0,0:0:0:0:
253,150,80287,1,0,0:0:0:0:
253,155,80358,1,0,0:0:0:0:
254,160,80429,1,0,0:0:0:0:
254,165,80499,1,0,0:0:0:0:
254,170,80570,1,0,0:0:0:0:
238,213,80641,5,0,0:0:0:0:
208,248,80712,1,0,0:0:0:0:
162,259,80782,1,0,0:0:0:0:
115,257,80853,1,0,0:0:0:0:
70,243,80924,1,0,0:0:0:0:
40,207,80995,1,0,0:0:0:0:
30,161,81065,1,0,0:0:0:0:
35,114,81136,1,0,0:0:0:0:
81,78,81207,5,0,0:0:0:0:
139,90,81278,1,0,0:0:0:0:
185,123,81348,1,0,0:0:0:0:
224,165,81419,1,0,0:0:0:0:
277,188,81490,1,0,0:0:0:0:
334,199,81561,1,0,0:0:0:0:
391,192,81632,1,0,0:0:0:0:
442,164,81702,1,0,0:0:0:0:
455,107,81773,6,0,L|447:49,1,58
367,83,81915,2,0,L|359:25,1,58
295,163,82056,2,0,L|287:105,1,58
223,235,82198,2,0,L|215:177,1,58
135,211,82339,2,0,L|127:153,1,58
63,267,82481,2,0,L|55:209,1,58
119,340,82622,5,0,0:0:0:0:
187,336,82693,1,0,0:0:0:0:
256,332,82764,1,0,0:0:0:0:
324,329,82834,1,0,0:0:0:0:
393,325,82905,1,0,0:0:0:0:
393,325,83047,1,0,0:0:0:0:
492,265,83188,5,0,0:0:0:0:
491,276,83259,1,0,0:0:0:0:
491,287,83330,1,0,0:0:0:0:
490,298,83400,1,0,0:0:0:0:
489,309,83471,1,0,0:0:0:0:
489,320,83542,1,0,0:0:0:0:
488,331,83613,1,0,0:0:0:0:
488,342,83683,1,0,0:0:0:0:
487,353,83754,2,0,P|395:289|422:186,1,232
238,286,84037,5,0,0:0:0:0:
238,286,84179,1,0,0:0:0:0:
134,234,84320,1,0,0:0:0:0:
135,244,84391,1,0,0:0:0:0:
136,255,84462,1,0,0:0:0:0:
137,266,84532,1,0,0:0:0:0:
139,277,84603,1,0,0:0:0:0:
139,288,84674,1,0,0:0:0:0:
141,299,84745,1,0,0:0:0:0:
142,310,84815,1,0,0:0:0:0:
143,321,84886,2,0,P|231:252|204:148,1,232
374,270,85169,5,0,0:0:0:0:
374,270,85311,1,0,0:0:0:0:
474,132,85452,1,0,0:0:0:0:
472,142,85523,1,0,0:0:0:0:
472,153,85594,1,0,0:0:0:0:
470,164,85665,1,0,0:0:0:0:
469,175,85735,1,0,0:0:0:0:
469,186,85806,1,0,0:0:0:0:
467,197,85877,1,0,0:0:0:0:
467,208,85948,1,0,0:0:0:0:
465,219,86018,2,0,P|370:143|396:46,1,232
246,198,86301,5,0,0:0:0:0:
246,198,86443,1,0,0:0:0:0:
97,152,86584,1,0,0:0:0:0:
107,151,86655,1,0,0:0:0:0:
118,150,86726,1,0,0:0:0:0:
129,149,86797,1,0,0:0:0:0:
141,148,86867,2,0,L|136:90,1,58
227,16,87009,2,0,L|231:73,1,58
332,131,87150,2,0,P|436:98|408:1,1,232
244,209,87433,5,0,0:0:0:0:
261,347,87575,1,0,0:0:0:0:
129,317,87716,2,0,L|187:312,1,58
340,299,87858,2,0,L|397:293,1,58
274,154,87999,5,0,0:0:0:0:
263,298,88141,1,0,0:0:0:0:
398,259,88282,2,0,L|337:256,1,58
177,252,88424,2,0,L|116:249,1,58
239,92,88565,5,0,0:0:0:0:
255,242,88707,1,0,0:0:0:0:
112,206,88848,2,0,L|175:200,1,58
344,191,88990,2,0,L|407:185,1,58
267,21,89132,5,0,0:0:0:0:
250,178,89273,1,0,0:0:0:0:
400,140,89415,2,0,L|333:134,1,58
156,124,89556,2,0,L|89:118,1,58
256,192,89698,12,0,90688,0:0:0:0:
169,323,90830,5,0,0:0:0:0:
169,323,90971,1,0,0:0:0:0:
153,231,91254,1,0,0:0:0:0:
135,139,91537,1,0,0:0:0:0:
114,48,91820,1,0,0:0:0:0:
347,307,91962,5,0,0:0:0:0:
347,307,92103,1,0,0:0:0:0:
359,233,92386,1,0,0:0:0:0:
374,159,92669,1,0,0:0:0:0:
391,87,92952,1,0,0:0:0:0:
392,87,93094,2,0,P|336:91|290:97,1,101.5
138,162,93660,6,0,P|176:157|224:153,1,87
390,182,93943,2,0,P|341:186|302:191,1,87
122,259,94226,6,0,P|173:253|237:248,1,116
318,286,94438,1,0,0:0:0:0:
318,286,94509,1,0,0:0:0:0:
419,208,94650,5,0,0:0:0:0:
389,164,94721,1,0,0:0:0:0:
339,145,94792,1,0,0:0:0:0:
287,146,94862,1,0,0:0:0:0:
237,164,94933,1,0,0:0:0:0:
203,204,95004,1,0,0:0:0:0:
195,255,95075,2,0,L|202:312,1,58
296,358,95216,2,0,L|288:300,1,58
216,26,95358,5,0,0:0:0:0:
195,116,95499,1,0,0:0:0:0:
285,137,95641,1,0,0:0:0:0:
306,47,95782,5,0,0:0:0:0:
344,205,95924,1,0,0:0:0:0:
186,243,96065,1,0,0:0:0:0:
148,85,96207,5,0,0:0:0:0:
117,302,96348,2,0,P|108:244|104:186,1,116
395,82,96631,2,0,P|404:140|407:197,1,116
364,299,96914,1,0,0:0:0:0:
267,168,97056,5,0,0:0:0:0:
151,174,97197,1,0,0:0:0:0:
66,253,97339,2,0,P|14:195|37:109,1,174
83,56,97622,2,0,L|200:63,1,116
286,228,97905,5,0,0:0:0:0:
356,319,98046,2,0,P|416:324|466:303,1,116
487,117,98329,2,0,P|393:212|302:213,1,232
194,75,98754,1,0,0:0:0:0:
305,14,98895,1,0,0:0:0:0:
208,189,99037,5,0,0:0:0:0:
33,149,99178,1,0,0:0:0:0:
96,344,99320,2,0,P|95:283|100:229,1,116
118,179,99532,1,0,0:0:0:0:
161,149,99603,1,0,0:0:0:0:
213,144,99674,1,0,0:0:0:0:
259,166,99744,1,0,0:0:0:0:
288,209,99815,1,0,0:0:0:0:
292,261,99886,2,0,P|240:285|183:276,1,116
393,205,100169,5,0,0:0:0:0:
426,194,100240,1,0,0:0:0:0:
459,186,100310,2,0,L|465:243,1,58
469,67,100452,1,0,0:0:0:0:
423,59,100523,1,0,0:0:0:0:
377,52,100593,2,0,L|368:109,1,58
344,302,100735,5,0,0:0:0:0:
294,333,100806,1,0,0:0:0:0:
236,331,100876,1,0,0:0:0:0:
184,304,100947,1,0,0:0:0:0:
169,247,101018,2,0,P|168:187|175:131,1,116
279,57,101230,5,0,0:0:0:0:
279,57,101301,2,0,P|289:112|294:171,1,116
275,226,101513,1,0,0:0:0:0:
225,256,101584,1,0,0:0:0:0:
166,259,101655,1,0,0:0:0:0:
111,238,101725,1,0,0:0:0:0:
77,191,101796,1,0,0:0:0:0:
73,132,101867,2,0,L|130:125,1,58
246,52,102009,2,0,L|189:51,1,58
13,46,102150,5,0,0:0:0:0:
68,64,102221,1,0,0:0:0:0:
100,112,102292,1,0,0:0:0:0:
95,169,102362,1,0,0:0:0:0:
55,211,102433,2,0,L|112:208,1,58
251,158,102575,2,0,L|194:161,1,58
167,274,102716,5,0,0:0:0:0:
187,322,102787,1,0,0:0:0:0:
232,348,102858,1,0,0:0:0:0:
282,356,102928,1,0,0:0:0:0:
331,338,102999,2,0,L|388:335,1,58
501,263,103141,2,0,L|444:266,1,58
331,224,103282,5,0,0:0:0:0:
333,189,103353,1,0,0:0:0:0:
335,154,103424,2,0,L|398:157,1,58
487,112,103565,1,0,0:0:0:0:
486,88,103636,1,0,0:0:0:0:
485,64,103707,2,0,L|422:67,1,58
240,98,103848,5,0,0:0:0:0:
244,131,103919,1,0,0:0:0:0:
247,165,103990,1,0,0:0:0:0:
251,199,104060,1,0,0:0:0:0:
241,244,104131,1,0,0:0:0:0:
201,269,104202,1,0,0:0:0:0:
154,276,104273,1,0,0:0:0:0:
108,269,104343,1,0,0:0:0:0:
72,240,104414,2,0,P|73:183|77:124,1,116
153,34,104697,1,0,0:0:0:0:
318,150,104839,1,0,0:0:0:0:
178,150,104980,5,0,0:0:0:0:
325,3,105122,1,0,0:0:0:0:
449,88,105263,2,0,P|445:147|439:203,1,116
295,340,105546,5,0,0:0:0:0:
186,298,105688,1,0,0:0:0:0:
186,298,105829,2,0,P|168:246|166:185,1,116
339,27,106112,5,0,0:0:0:0:
313,186,106254,1,0,0:0:0:0:
399,279,106395,2,0,P|459:229|450:141,1,174
386,111,106678,2,0,L|270:104,1,116
65,257,106961,5,0,0:0:0:0:
133,349,107103,2,0,P|184:365|243:355,1,116
474,251,107386,2,0,P|379:340|315:294,1,232
245,200,107810,1,0,0:0:0:0:
255,61,107952,1,0,0:0:0:0:
122,132,108093,5,0,0:0:0:0:
329,149,108235,1,0,0:0:0:0:
445,94,108376,2,0,P|453:154|455:208,1,116
442,254,108589,1,0,0:0:0:0:
405,281,108659,1,0,0:0:0:0:
359,289,108730,1,0,0:0:0:0:
313,281,108801,1,0,0:0:0:0:
272,257,108872,1,0,0:0:0:0:
254,214,108942,2,0,P|198:202|140:209,1,116
250,345,109225,5,0,0:0:0:0:
301,335,109296,1,0,0:0:0:0:
345,306,109367,1,0,0:0:0:0:
368,260,109438,1,0,0:0:0:0:
374,207,109509,1,0,0:0:0:0:
359,157,109579,1,0,0:0:0:0:
322,119,109650,1,0,0:0:0:0:
273,100,109721,1,0,0:0:0:0:
221,107,109792,2,0,L|227:164,1,58
159,311,109933,2,0,L|153:254,1,58
50,273,110075,2,0,P|48:214|53:157,1,116
64,29,110287,5,0,0:0:0:0:
64,29,110358,2,0,P|119:19|178:14,1,116
230,24,110570,1,0,0:0:0:0:
269,58,110641,1,0,0:0:0:0:
285,106,110711,1,0,0:0:0:0:
279,158,110782,1,0,0:0:0:0:
254,204,110853,1,0,0:0:0:0:
205,224,110924,1,0,0:0:0:0:
153,224,110994,1,0,0:0:0:0:
102,209,111065,1,0,0:0:0:0:
72,165,111136,1,0,0:0:0:0:
92,116,111207,5,0,0:0:0:0:
149,111,111277,1,0,0:0:0:0:
206,104,111348,1,0,0:0:0:0:
264,100,111419,1,0,0:0:0:0:
321,94,111490,2,0,L|378:89,1,58
444,238,111631,5,0,0:0:0:0:
414,266,111702,1,0,0:0:0:0:
375,280,111773,1,0,0:0:0:0:
334,278,111843,1,0,0:0:0:0:
298,259,111914,2,0,L|240:255,1,58
178,341,112056,5,0,0:0:0:0:
154,343,112126,1,0,0:0:0:0:
130,342,112197,1,0,0:0:0:0:
106,340,112268,1,0,0:0:0:0:
83,335,112339,2,0,L|76:277,1,58
224,210,112480,2,0,L|223:267,1,58
39,188,112622,6,0,L|96:185,1,58
190,304,112763,2,0,L|247:308,1,58
359,274,112905,1,0,0:0:0:0:
390,260,112975,1,0,0:0:0:0:
413,234,113046,1,0,0:0:0:0:
425,201,113117,1,0,0:0:0:0:
427,166,113188,1,0,0:0:0:0:
417,132,113259,1,0,0:0:0:0:
396,104,113329,1,0,0:0:0:0:
366,85,113400,1,0,0:0:0:0:
331,77,113471,2,0,P|273:77|215:85,1,116
25,174,113754,6,0,P|76:196|135:198,1,116
235,138,114037,1,0,0:0:0:0:
219,23,114178,1,0,0:0:0:0:
251,252,114320,5,0,0:0:0:0:
424,136,114461,1,0,0:0:0:0:
334,332,114603,2,0,P|339:273|339:216,1,116
332,30,114886,5,0,0:0:0:0:
242,192,115027,1,0,0:0:0:0:
139,109,115169,2,0,P|76:106|24:117,1,116
41,318,115452,6,0,P|44:261|56:204,1,116
327,255,115735,2,0,P|246:320|130:293,1,232
202,147,116159,1,0,0:0:0:0:
202,147,116301,2,0,P|278:298|441:310,1,348
490,204,116867,5,0,0:0:0:0:
461,167,116938,1,0,0:0:0:0:
418,147,117009,1,0,0:0:0:0:
372,140,117079,1,0,0:0:0:0:
326,150,117150,1,0,0:0:0:0:
289,179,117221,1,0,0:0:0:0:
259,215,117292,1,0,0:0:0:0:
233,253,117362,1,0,0:0:0:0:
197,282,117433,5,0,0:0:0:0:
154,300,117504,1,0,0:0:0:0:
107,304,117575,1,0,0:0:0:0:
62,294,117645,1,0,0:0:0:0:
26,263,117716,2,0,L|23:206,1,58
114,99,117858,5,0,0:0:0:0:
147,108,117928,1,0,0:0:0:0:
181,114,117999,2,0,P|239:122|296:125,1,116
118,15,118424,5,0,0:0:0:0:
60,18,118707,1,0,0:0:0:0:
2,21,118990,1,0,0:0:0:0:
181,114,119131,2,0,P|239:122|296:125,1,116
118,15,119556,5,0,0:0:0:0:
60,18,119839,1,0,0:0:0:0:
2,21,120122,1,0,0:0:0:0:
181,114,120263,2,0,P|239:122|296:125,1,116
412,114,120546,2,0,L|400:-1,1,116
379,237,120829,6,0,P|429:210|485:223,1,116
259,339,121112,2,0,L|263:224,1,116
147,241,121395,5,0,0:0:0:0:
350,86,121537,1,0,0:0:0:0:
378,228,121820,5,0,0:0:0:0:
163,122,122103,1,0,0:0:0:0:
163,122,122244,2,0,L|32:127,1,130.50000497818
1,190,122527,5,0,0:0:0:0:
243,8,122669,1,0,0:0:0:0:
201,219,122952,5,0,0:0:0:0:
230,319,123235,1,0,0:0:0:0:
230,319,123376,2,0,L|360:313,1,130.50000497818
430,275,123659,6,0,B|503:261|541:131|481:41|310:1|186:67|336:195|249:261|157:300|70:281|34:258,1,696.000026550294
