osu file format v9

[General]
AudioFilename: 03 - DROP.mp3
AudioLeadIn: 0
PreviewTime: 50476
Countdown: 0
SampleSet: Soft
StackLeniency: 0.7
Mode: 0
LetterboxInBreaks: 1

[Editor]
DistanceSpacing: 0.9
BeatDivisor: 4
GridSize: 16

[Metadata]
Title:DROP
Artist:dj TAKA feat.Kanako Hoshino
Creator:Sharp
Version:Normal
Source:BeatmaniaIIDX 17 SIRIUS
Tags:Natteke lepidopodus

[Difficulty]
HPDrainRate:2
CircleSize:4
OverallDifficulty:1
ApproachRate:4
SliderMultiplier:1.4
SliderTickRate:1

[Events]
//Background and Video events
0,0,"wallpaper-566284.jpg"
//Break Periods
//Storyboard Layer 0 (Background)
//Storyboard Layer 1 (Fail)
//Storyboard Layer 2 (Pass)
//Storyboard Layer 3 (Foreground)
//Storyboard Sound Samples
//Background Colour Transformations
3,100,163,162,255

[TimingPoints]
345,394.736842105263,4,2,0,80,1,0
25608,-100,4,1,0,80,0,0
36660,-100,4,2,0,80,0,0
38239,-100,4,1,0,80,0,0
41397,-100,4,2,0,100,0,0
44555,-100,4,1,0,80,0,0
49292,-100,4,2,0,80,0,0
76134,-200,4,2,0,80,0,0
88766,-100,4,2,0,80,0,0

[Colours]
Combo1 : 128,0,255
Combo2 : 0,255,128
Combo3 : 0,128,128
Combo4 : 128,0,128

[HitObjects]
112,160,12976,2,2,B|176:80|256:176,1,140
176,192,13568,1,0
112,224,13766,2,2,B|176:304|256:208,1,140
352,272,14555,6,0,B|432:272,2,70,2|0|2
288,272,15147,1,0
224,272,15344,2,2,B|160:272|112:192,1,140
192,96,16134,5,2
320,112,16529,1,2
416,192,16923,2,2,B|480:256|448:320,1,140
320,352,17713,5,2
256,240,18108,1,2
144,304,18502,1,2
80,192,18897,1,2
144,80,19292,6,0,B|240:80,1,70,2|0
256,32,19687,2,2,B|336:96|336:160,1,140
320,272,20476,1,2
208,320,20871,1,2
208,320,21463,1,2
144,144,22055,1,2
272,144,22450,1,2
256,192,22647,12,4,24029
192,192,24423,5,4
320,192,24818,1,4
368,80,25608,6,0,B|256:80,1,105,6|2
176,80,26200,1,2
160,144,26397,2,0,B|272:144,1,105,2|2
352,144,26989,1,2
368,208,27187,2,0,B|208:208,1,140,2|0
96,208,27976,1,0
208,256,28371,1,0
320,224,28766,6,0,B|352:176|304:128,1,105,2|2
224,80,29358,1,2
160,96,29555,2,0,B|112:128|112:192,1,105,2|2
144,272,30147,1,2
192,320,30344,2,0,B|256:352|336:304,1,140,2|0
416,224,31134,1,0
400,96,31529,1,0
288,128,31923,6,0,B|256:256,1,105,6|0
224,320,32516,1,0
224,320,32713,2,0,B|176:160,1,140,2|8
144,64,33502,6,0,B|272:96,1,105,6|0
336,112,34094,1,0
336,112,34292,2,0,B|176:160,1,140,2|8
80,176,35081,6,0,B|144:128,1,70,2|0
144,192,35476,2,0,B|208:240,1,70,2|0
208,176,35871,2,0,B|272:128,1,70,2|0
272,192,36266,2,0,B|336:240,1,70,2|0
272,272,36660,6,2,B|336:336,2,70,2|2|2
208,272,37252,2,2,B|128:272,1,70,2|2
80,272,37647,2,2,B|16:336,2,70,2|2|2
96,208,38239,6,0,B|96:128,1,70,6|0
149,172,38634,2,0,B|213:108,1,70,2|0
212,184,39029,2,0,B|372:184,1,140,2|8
464,256,39818,6,0,B|464:336,1,70,2|0
416,304,40213,2,0,B|352:368,1,70,2|0
352,304,40608,1,2
304,304,40805,1,0
256,304,41002,1,8
192,192,41397,6,2,B|240:112,1,70,2|2
256,192,41792,2,2,B|304:112,1,70,2|2
320,192,42187,2,2,B|368:112,1,70,2|2
384,192,42581,2,2,B|432:112,1,70,2|2
448,192,42976,6,0,B|384:256,1,70,2|0
352,288,43371,2,0,B|288:224,1,70,2|0
256,192,43766,2,0,B|192:256,1,70,2|0
160,192,44160,1,4
128,320,44555,6,0,B|160:320|208:304,1,70,6|0
248,288,44950,1,2
296,256,45147,1,0
328,208,45344,2,0,B|376:160|360:64,1,140,2|0
240,64,46134,6,0,B|176:96,1,70,2|0
128,128,46529,2,0,B|192:160,1,70,2|0
240,192,46923,2,0,B|176:224,1,70,2|0
128,256,47318,2,0,B|192:288,1,70,2|0
256,304,47713,5,2
272,240,47910,1,0
288,176,48108,1,2
192,96,48502,5,2
128,112,48700,1,0
64,128,48897,1,2
256,192,49292,12,4,50476
160,192,50871,6,0,B|176:112|272:96,1,140,0|8
384,112,51660,2,0,B|368:192|272:208,1,140,0|8
160,208,52450,1,0
256,288,52844,1,8
336,192,53239,1,0
240,112,53634,1,8
112,144,54029,6,0,B|160:288,1,140,0|8
240,176,54818,2,0,B|208:80,1,70
160,128,55213,2,0,B|192:224,1,70,8|0
240,224,55608,6,0,B|384:176,1,140,0|8
272,96,56397,2,0,B|176:128,1,70
224,176,56792,2,0,B|320:144,1,70,8|0
336,112,57187,5,0
448,176,57581,1,8
336,240,57976,1,0
224,176,58371,1,8
288,288,58766,5,0
176,352,59160,1,8
64,288,59555,1,0
176,224,59950,1,8
256,128,60344,5,0
256,128,60542,1,0
256,128,60739,1,8
384,128,61134,1,0
384,128,61331,1,0
384,128,61529,1,8
320,240,61923,1,4
112,240,62713,5,2
112,240,63108,1,2
224,304,63502,5,0
224,304,63700,1,0
224,304,63897,1,8
352,288,64292,2,0,B|416:256,1,70
480,224,64687,2,0,B|416:192,1,70,8|0
352,160,65081,5,0
352,160,65476,1,8
224,144,65871,2,0,B|192:208,1,70
160,272,66266,2,0,B|128:208,1,70,8|0
96,144,66660,5,0
96,144,66858,1,0
96,144,67055,1,8
208,112,67450,2,0,B|272:96|320:192|304:224,1,140,0|8
336,320,68239,5,0
336,320,68634,1,8
224,288,69029,1,0
112,320,69423,1,8
112,320,69621,1,0
112,320,69818,6,0,B|48:304|16:256,1,70
96,240,70213,2,0,B|160:224|192:176,1,70,8|0
112,160,70608,2,0,B|160:128|224:144,1,70
224,192,71002,2,0,B|240:256|288:288,1,70,8|0
320,272,71397,5,4
192,112,72976,5,4
192,240,74555,5,2
320,240,74950,1,2
256,128,75344,1,2
256,128,75542,1,2
256,128,75739,1,2
160,208,76134,6,0,B|192:288|272:288,1,140,4|0
352,192,77713,2,0,B|320:112|240:112,1,140,4|0
160,208,79292,2,0,B|160:288|256:320|336:304|352:240|352:176,1,280,0|4
352,112,81266,5,0
256,144,81660,1,0
160,176,82055,1,0
64,208,82450,1,4
256,192,82647,12,4,84029
368,112,84818,5,0
288,128,85114,1,0
224,176,85410,1,0
192,224,85608,2,0,B|160:288|224:320,1,105,4|0
272,336,86397,1,0
256,192,86595,12,2,88173
224,160,88766,5,4
352,288,89358,2,2,B|416:352,2,70
288,160,90344,5,4
160,288,90937,2,2,B|96:352,2,70
288,224,91923,5,4
160,96,92516,2,2,B|96:32,2,70
224,224,93502,5,4
352,96,94094,2,2,B|416:32,2,70
192,192,95081,5,4
192,64,95476,1,2
320,64,95871,1,2
320,192,96266,1,2
192,192,96660,5,4
192,320,97055,1,2
320,320,97450,1,2
320,192,97844,1,2
256,64,98239,6,2,B|224:128,1,70
192,192,98634,2,2,B|112:192,2,70
224,256,99226,2,2,B|256:320,1,70
320,288,99621,1,2
384,256,99818,6,2,B|416:192,1,70,4|2
448,128,100213,1,2
384,160,100410,2,2,B|320:192,1,70,2|2
256,224,100805,1,2
288,160,101002,2,2,B|320:96,1,70
256,192,101397,12,0,104160
128,160,104555,5,0
128,160,104752,1,0
128,160,104950,1,8
128,160,105147,1,0
128,160,105344,2,0,B|160:80|272:48,1,140,0|8
352,64,106134,5,0
352,64,106331,1,0
352,64,106529,1,8
352,64,106726,1,0
352,64,106923,2,0,B|400:64|448:112,2,70,0|0|8
240,112,107713,6,0,B|176:144,1,70,4|0
240,176,108108,2,0,B|304:208,1,70,8|0
240,240,108502,2,0,B|176:272,2,70,0|0|8
304,208,109094,1,0
256,96,109489,5,0
160,192,109884,1,0
256,304,110278,1,0
352,192,110673,1,0
256,192,110871,12,4,112450
192,128,113239,5,2
320,128,113634,1,2
256,240,114029,1,4
