osu file format v9

[General]
AudioFilename: 03 - DROP.mp3
AudioLeadIn: 0
PreviewTime: 50476
Countdown: 0
SampleSet: Normal
StackLeniency: 0.5
Mode: 0
LetterboxInBreaks: 1

[Editor]
Bookmarks: 12976,50871,76134,88766,101397,114029
DistanceSpacing: 1
BeatDivisor: 4
GridSize: 8

[Metadata]
Title:DROP
Artist:dj TAKA feat.Kanako Hoshino
Creator:Sharp
Version:Hyper
Source:BeatmaniaIIDX 17 SIRIUS
Tags:Natteke lepidopodus

[Difficulty]
HPDrainRate:6
CircleSize:4
OverallDifficulty:6
ApproachRate:7
SliderMultiplier:1.7
SliderTickRate:0.5

[Events]
//Background and Video events
0,0,"wallpaper-566284.jpg"
//Break Periods
//Storyboard Layer 0 (Background)
//Storyboard Layer 1 (Fail)
//Storyboard Layer 2 (Pass)
//Storyboard Layer 3 (Foreground)
//Storyboard Sound Samples
//Background Colour Transformations
3,100,163,162,255

[TimingPoints]
345,394.736842105263,4,1,0,40,1,0
13075,-100,4,2,0,50,0,0
19193,-100,4,1,0,30,0,0
19390,-100,4,2,0,50,0,0
24029,-100,4,1,0,50,0,0
25608,-100,4,1,0,57,0,0
32022,-100,4,2,0,57,0,0
32219,-100,4,1,0,57,0,0
32416,-100,4,2,0,57,0,0
32613,-100,4,1,0,57,0,0
32810,-100,4,2,0,57,0,0
33007,-100,4,1,0,57,0,0
33204,-100,4,2,0,57,0,0
33401,-100,4,1,0,57,0,0
33598,-100,4,2,0,57,0,0
33795,-100,4,1,0,57,0,0
33992,-100,4,2,0,57,0,0
34189,-100,4,1,0,57,0,0
34386,-100,4,2,0,57,0,0
34583,-100,4,1,0,57,0,0
34780,-100,4,2,0,57,0,0
34977,-100,4,1,0,50,0,0
40706,-100,4,2,0,50,0,0
40903,-100,4,1,0,50,0,0
41100,-100,4,2,0,50,0,0
41297,-100,4,1,0,50,0,0
41496,-100,4,2,0,50,0,0
41693,-100,4,1,0,50,0,0
41890,-100,4,2,0,50,0,0
42087,-100,4,1,0,50,0,0
42284,-100,4,2,0,50,0,0
42481,-100,4,1,0,50,0,0
42678,-100,4,2,0,50,0,0
42875,-100,4,1,0,50,0,0
43072,-100,4,2,0,50,0,0
43269,-100,4,1,0,50,0,0
43466,-100,4,2,0,50,0,0
43663,-100,4,1,0,50,0,0
51364,-100,4,2,0,50,0,0
51561,-100,4,1,0,50,0,0
51758,-100,4,2,0,50,0,0
51955,-100,4,1,0,50,0,0
52152,-100,4,2,0,50,0,0
52351,-100,4,1,0,50,0,0
54127,-100,4,2,0,50,0,0
54324,-100,4,1,0,50,0,0
54521,-100,4,2,0,50,0,0
54718,-100,4,1,0,50,0,0
54915,-100,4,2,0,50,0,0
55112,-100,4,1,0,50,0,0
55309,-100,4,2,0,50,0,0
55506,-100,4,1,0,50,0,0
60344,-100,4,1,0,20,0,0
60738,-100,4,1,0,29,0,0
61132,-100,4,1,0,40,0,0
61526,-100,4,1,0,50,0,0
61920,-100,4,1,0,50,0,0
62022,-100,4,2,0,61,0,0
63502,-100,4,1,0,61,0,0
63600,-100,4,2,0,61,0,0
63797,-100,4,1,0,61,0,0
63994,-100,4,2,0,61,0,0
64191,-100,4,1,0,61,0,0
64388,-100,4,2,0,61,0,0
64585,-100,4,1,0,61,0,0
64782,-100,4,2,0,61,0,0
64979,-100,4,1,0,61,0,0
65176,-100,4,2,0,61,0,0
65373,-100,4,1,0,61,0,0
65570,-100,4,2,0,61,0,0
65767,-100,4,1,0,61,0,0
65964,-100,4,2,0,61,0,0
66161,-100,4,1,0,61,0,0
66358,-100,4,2,0,61,0,0
66555,-100,4,1,0,61,0,0
76529,-100,4,2,0,50,0,0
82450,-200,4,2,0,50,0,0
88766,-100,4,1,0,50,0,0
88864,-100,4,2,0,50,0,0
94983,-100,4,1,0,50,0,0
95180,-100,4,2,0,50,0,0
96562,-100,4,1,0,50,0,0
96759,-100,4,2,0,50,0,0
98141,-100,4,1,0,50,0,0
98338,-100,4,2,0,50,0,0
99719,-100,4,1,0,50,0,0
99916,-100,4,2,0,61,0,0
100312,-100,4,1,0,60,0,0
100509,-100,4,2,0,50,0,0
100805,-100,4,1,0,61,0,0
107812,-100,4,2,0,61,0,0
108009,-100,4,1,0,61,0,0
108206,-100,4,2,0,61,0,0
108403,-100,4,1,0,61,0,0
108600,-100,4,2,0,61,0,0
108797,-100,4,1,0,61,0,0
108994,-100,4,2,0,61,0,0
109191,-100,4,1,0,61,0,0
109388,-100,4,2,0,61,0,0
109585,-100,4,1,0,61,0,0
109782,-100,4,2,0,61,0,0
109979,-100,4,1,0,61,0,0
110176,-100,4,2,0,61,0,0
110373,-100,4,1,0,61,0,0
110570,-100,4,2,0,61,0,0
110767,-100,4,1,0,61,0,0

[Colours]
Combo1 : 128,0,255
Combo2 : 0,255,128
Combo3 : 0,128,128
Combo4 : 128,0,128

[HitObjects]
136,152,12976,2,0,B|160:192|136:232,1,85,4|2
216,296,13371,2,0,B|256:272|296:296,1,85,8|2
376,232,13766,2,0,B|352:192|376:152,1,85,0|2
296,88,14160,2,0,B|256:112|216:88,1,85,8|2
120,64,14555,6,0,B|64:0,1,85,0|2
96,144,14950,2,0,B|13:123,1,85,8|2
96,224,15344,2,0,B|16:254,1,85,0|2
120,304,15739,2,0,B|72:374,1,85,8|2
176,240,16134,5,0
472,72,16726,1,2
160,208,17318,1,0
456,40,17713,2,0,B|264:40,1,170,2|8
56,40,18502,2,0,B|248:40,1,170,2|8
120,168,19292,6,0,B|168:176|176:232,1,85,4|2
312,312,19687,2,0,B|289:268|233:278,1,85,8|2
88,328,20081,2,0,B|134:342|166:296,1,85,0|2
88,240,20476,1,8
392,216,20871,6,0,B|344:208|336:152,1,85,4|2
200,72,21266,2,0,B|222:115|278:105,1,85,8|2
424,56,21660,2,0,B|377:41|345:87,1,85,0|2
424,144,22055,1,8
304,304,22450,6,0,B|392:264,1,85,4|2
256,240,22844,2,0,B|305:156,1,85,8|2
176,224,23239,2,0,B|168:127,1,85,0|2
104,240,23634,2,0,B|42:165,1,85,8|2
200,304,24029,5,6
336,200,24423,1,2
160,112,24818,1,2
368,24,25213,1,2
480,192,25608,6,0,B|416:232|456:320,2,127.5,6|2|0
449,303,26397,2,0,B|376:272|304:344,2,127.5,2|2|0
376,232,27187,2,2,B|240:112,1,170,2|0
232,104,27680,1,0
216,88,27779,1,0
200,72,27877,1,0
184,56,27976,2,0,B|-8:56,1,170
32,192,28766,6,0,B|96:232|56:320,2,127.5,2|2|0
62,303,29555,2,0,B|136:272|208:344,2,127.5,2|2|0
136,232,30345,2,2,B|272:112,1,170,2|0
280,104,30838,1,0
296,88,30937,1,0
312,72,31035,1,0
328,56,31134,2,0,B|520:56,1,170
498,56,31726,1,0
498,56,31923,6,0,B|464:144,1,85,4|2
498,328,32318,2,0,B|464:240,1,85,0|2
432,80,32713,2,0,B|398:168,1,85,0|2
432,304,33108,2,0,B|398:216,1,85,4|2
110,224,33502,6,0,B|80:304,1,85,0|2
110,159,33897,2,0,B|80:80,1,85,0|2
44,248,34292,2,0,B|14:328,1,85,0|2
44,135,34687,2,0,B|14:56,1,85,4|2
80,192,35081,5,0
96,192,35180,1,0
112,192,35279,1,0
128,192,35377,1,0
144,192,35476,1,0
160,192,35575,1,0
176,192,35673,1,0
192,192,35772,1,0
208,184,35871,6,0,B|256:160,3,42.5
208,200,36266,2,0,B|256:224,3,42.5
256,192,36660,8,4,38239
168,112,38634,5,0
344,272,39029,1,0
260,73,39423,1,0
251,310,39818,1,0
350,119,40213,1,0
161,264,40608,1,0
344,272,40805,6,0,B|368:224|344:176,1,85,2|0
168,112,41200,2,0,B|144:160|168:208,1,85,2|0
240,160,41594,6,0,B|264:112|240:64,1,85,2|0
272,224,41989,2,0,B|248:272|272:320,1,85,2|0
320,160,42384,6,0,B|372:147|393:98,1,85,2|0
192,224,42779,2,0,B|139:236|118:285,1,85,2|0
125,272,43173,2,0,B|24:264,1,85,2|0
184,192,43568,2,0,B|82:183,1,85,2|0
240,112,43963,2,0,B|138:103,1,85
56,96,44358,1,0
24,192,44555,6,0,B|208:192,1,170,4|0
208,296,45147,2,0,B|152:368,1,85
304,296,45542,2,0,B|360:368,1,85
318,192,45937,1,0
318,192,46134,6,0,B|488:192,1,170,4|0
304,88,46726,2,0,B|360:16,1,85
208,88,47121,2,0,B|152:16,1,85
194,192,47516,1,0
96,176,47713,5,4
88,192,47812,1,0
80,208,47910,1,0
72,224,48009,1,0
64,240,48108,1,0
160,280,48305,5,0
176,288,48404,1,0
192,296,48502,1,4
208,304,48601,1,0
224,312,48700,1,0
240,320,48798,1,0
256,328,48897,1,0
344,272,49094,5,0
352,256,49193,1,0
360,240,49291,1,4
368,224,49390,1,0
376,208,49489,1,0
384,192,49587,1,0
392,176,49686,1,0
256,192,49884,8,4,50871
32,200,51265,6,0,B|16:288,1,85,0|2
112,192,51660,2,0,B|158:268,1,85,0|2
168,128,52055,2,0,B|252:156,1,85,0|2
168,48,52450,2,0,B|352:48,2,170
96,88,53437,1,0
56,160,53634,1,0
112,224,53831,1,0
154,151,54029,6,0,B|242:162,1,85,0|2
368,216,54423,2,0,B|279:227,1,85,0|2
152,280,54818,2,0,B|240:291,1,85,0|2
368,344,55213,2,0,B|279:355,1,85,0|2
236,290,55608,2,0,B|236:110,2,170
152,280,56594,1,0
152,280,56693,1,0
152,280,56792,1,0
120,200,56989,1,0
136,112,57187,5,0
200,56,57384,1,0
288,56,57581,2,0,B|336:112|256:176|320:240,2,170
248,128,58568,1,0
256,216,58766,1,0
304,288,58963,1,0
368,216,59160,2,0,B|320:160|400:96|336:32,2,170
408,296,60147,1,0
416,208,60344,5,0
400,200,60443,1,0
384,208,60542,1,0
368,200,60641,1,0
352,208,60739,1,0
336,200,60838,1,0
320,208,60937,1,0
304,200,61035,1,0
288,208,61134,6,0,B|248:184,3,42.5
251,186,61529,2,0,B|215:215,3,42.5
216,216,61923,5,4
128,56,62318,1,2
216,216,62713,1,2
32,216,63108,1,2
128,160,63305,1,2
128,160,63404,1,0
128,160,63502,6,0,B|168:136|224:168,1,85,0|2
272,232,63897,2,0,B|296:272|264:328,1,85,0|2
200,368,64292,2,0,B|160:392|104:360,1,85,0|2
48,304,64687,2,0,B|24:264|56:208,1,85,0|2
128,264,65081,6,0,B|168:288|224:256,1,85,0|2
272,192,65476,2,0,B|296:152|264:96,1,85,0|2
200,56,65871,2,0,B|160:32|104:64,1,85,0|2
48,120,66266,2,0,B|24:160|56:216,1,85,0|2
160,160,66660,5,0
352,160,67055,1,0
352,344,67450,1,0
160,344,67844,1,0
324,245,68239,5,0
256,312,68634,1,0
192,245,69029,1,0
261,178,69423,1,0
352,160,69621,1,0
416,232,69818,5,4
256,32,70213,1,0
96,232,70608,1,0
256,32,71002,1,0
120,96,71397,6,0,B|200:152,1,85,4|0
322,144,71792,2,0,B|392:96,1,85
256,112,72187,1,0
256,272,72581,1,0
88,272,72976,6,0,B|64:176,1,85,4|0
120,88,73371,2,0,B|144:176,1,85
168,256,73766,2,0,B|272:288|328:192,1,170
328,112,74358,1,0
144,336,74752,6,0,B|136:288,2,42.5
256,280,75147,2,0,B|256:224,2,42.5
368,336,75542,2,0,B|376:288,2,42.5
256,144,76134,5,4
104,288,76726,1,0
48,224,76923,1,2
104,160,77121,1,0
104,160,77713,5,0
104,160,78305,1,0
152,88,78502,1,2
72,56,78700,1,0
72,56,79292,5,0
72,56,79884,1,0
152,88,80081,1,2
216,32,80279,1,0
216,32,80871,5,0
216,32,81463,1,0
248,112,81660,1,2
328,88,81858,1,0
328,88,82450,6,0,B|400:152|368:256,1,170,0|2
371,242,83437,1,0
371,242,84029,6,0,B|360:136|472:104,1,170,0|2
453,110,85016,1,0
453,110,85608,6,0,B|312:88,1,127.5,0|2
272,144,86397,1,0
224,80,86594,1,0
280,32,86792,1,2
328,88,86989,1,0
272,144,87187,6,0,B|160:232,1,127.5,0|2
176,296,87976,1,0
96,288,88173,1,0
96,208,88371,1,0
168,224,88568,1,2
176,296,88766,6,0,B|224:280|232:232,1,85,4|2
336,248,89160,2,0,B|288:232|280:184,1,85,8|2
168,184,89555,2,0,B|216:168|224:120,1,85,0|2
328,136,89949,2,0,B|280:120|272:72,1,85,8|2
152,104,90344,6,0,B|104:104|80:168,1,85,0|2
87,151,90739,2,0,B|0:160,1,85,8|2
177,257,91134,2,0,B|130:267|93:209,1,85,0|2
103,223,91529,2,0,B|16:233,1,85,8|2
160,176,91923,6,0,B|336:160,1,170,0|8
432,152,92516,1,2
440,256,92713,1,0
336,264,92910,1,2
328,160,93108,2,0,B|312:104|328:64,1,85,8|2
384,208,93502,6,0,B|208:224,1,170,0|8
112,232,94095,1,2
104,128,94292,1,0
208,120,94489,1,2
216,224,94687,2,0,B|232:280|216:320,1,85,8|2
120,336,95081,6,0,B|24:352,1,85,4|2
146,175,95476,2,0,B|216:224,1,85,8|2
296,224,95871,2,0,B|376:168,1,85,0|2
392,336,96266,2,0,B|488:352,1,85,8|2
424,256,96660,6,0,B|456:224|456:168,1,85,4|2
296,224,97055,2,0,B|311:181|287:130,1,85,8|2
176,248,97450,2,0,B|172:202|129:166,1,85,0|2
96,328,97844,2,0,B|73:288|19:274,1,85,8|2
30,277,98239,6,0,B|24:96,2,170,4|8|0
128,264,99226,1,2
216,216,99423,1,8
256,120,99621,1,2
240,24,99818,5,4
160,88,100016,1,2
160,88,100114,1,0
160,88,100213,2,0,B|64:112,1,85,8|0
168,176,100608,1,2
168,176,100706,1,0
168,176,100805,2,0,B|72:200,2,85
232,120,101397,5,4
232,120,101594,1,0
304,72,101792,1,0
304,72,101989,1,0
376,120,102187,1,0
376,120,102384,1,0
344,200,102581,1,0
256,200,102779,1,0
304,144,102976,2,0,B|400:176|392:288,3,170
392,273,104358,1,0
280,264,104555,5,0
280,264,104752,1,0
208,312,104950,1,0
208,312,105147,1,0
136,264,105345,1,0
136,264,105542,1,0
168,184,105739,1,0
256,184,105937,1,0
208,240,106134,6,0,B|112:208|120:96,1,170
238,320,106923,2,0,B|270:224|382:232,1,170
368,232,107516,1,0
368,232,107614,1,0
368,232,107713,6,0,B|328:152,1,85,4|2
320,32,108108,2,0,B|256:88,1,85,0|2
255,87,108502,2,0,B|192:32,1,85,0|2
182,155,108897,2,0,B|144:232,1,85,4|2
144,232,109292,6,0,B|120:272|144:320,1,85,0|2
368,320,109687,2,0,B|392:280|368:232,1,85,0|2
256,88,110081,2,0,B|232:128|256:176,1,85,0|2
480,176,110476,2,0,B|504:136|480:88,1,85,4|2
28,94,111068,5,0
28,94,111265,1,0
112,168,111463,1,0
112,168,111660,1,0
144,272,111858,1,0
144,272,112055,1,0
152,384,112252,6,0,B|360:360,1,170,4|0
304,256,112844,1,0
296,144,113042,1,0
296,144,113239,1,0
360,56,113437,1,0
360,56,113535,1,0
360,56,113634,1,0
232,312,114029,1,4
