osu file format v9

[General]
AudioFilename: 03 - DROP.mp3
AudioLeadIn: 0
PreviewTime: 50476
Countdown: 0
SampleSet: Soft
StackLeniency: 0.7
Mode: 0
LetterboxInBreaks: 1

[Editor]
DistanceSpacing: 0.7
BeatDivisor: 2
GridSize: 16

[Metadata]
Title:DROP
Artist:dj TAKA feat.Kanako Hoshino
Creator:Sharp
Version:Beginner
Source:BeatmaniaIIDX 17 SIRIUS
Tags:Natteke lepidopodus

[Difficulty]
HPDrainRate:0
CircleSize:3
OverallDifficulty:0
ApproachRate:3
SliderMultiplier:1.3
SliderTickRate:1

[Events]
//Background and Video events
0,0,"wallpaper-566284.jpg"
//Break Periods
//Storyboard Layer 0 (Background)
//Storyboard Layer 1 (Fail)
//Storyboard Layer 2 (Pass)
//Storyboard Layer 3 (Foreground)
//Storyboard Sound Samples
//Background Colour Transformations
3,100,163,162,255

[TimingPoints]
345,394.736842105263,4,2,0,80,1,0

[Colours]
Combo1 : 128,0,255
Combo2 : 0,255,128
Combo3 : 0,128,128
Combo4 : 128,0,128

[HitObjects]
176,336,12976,5,2
256,304,13371,1,0
336,272,13766,1,2
480,192,14555,5,2
400,160,14950,1,0
320,128,15344,1,2
160,112,16134,5,2
224,224,16726,1,2
288,112,17318,1,2
384,112,17713,2,2,B|448:224,3,130
448,320,19292,5,4
176,320,20476,6,2,B|128:272|176:176,1,130
304,192,21463,2,2,B|368:64|224:16,1,195
160,32,22450,1,2
256,192,24029,5,4
256,192,24423,1,4
256,192,24818,1,4
352,32,25608,6,2,B|256:32,2,97.5
384,64,26397,2,2,B|496:64,2,97.5
352,96,27187,2,2,B|352:224,1,130,2|4
80,192,28766,6,2,B|80:80,2,97.5
112,224,29555,2,2,B|112:336,2,97.5
144,192,30344,2,2,B|272:192,1,130,2|4
272,288,31923,6,2,B|208:272|144:208,1,130
160,136,32713,2,0,B|96:104,2,65,2|0|4
240,96,33502,2,2,B|304:112|368:176,1,130
352,248,34292,2,0,B|416:280,2,65,2|0|4
256,192,35081,12,2,36660
208,240,38239,6,0,B|128:240,2,65,2|0|2
304,240,39029,2,0,B|448:240,1,130,2|4
432,144,39818,6,0,B|432:80,2,65,0|0|2
336,144,40608,2,0,B|336:80,2,65,0|0|2
240,160,41397,2,2,B|128:224|128:224|240:288|240:288|112:352,1,390
48,288,42976,5,0
48,192,43371,1,2
48,96,43766,1,0
144,96,44160,1,4
240,96,44555,6,0,B|368:96,2,130
256,272,46134,6,0,B|96:272,2,130
352,272,47318,1,0
352,176,47713,6,0,B|352:96|272:64,1,130
192,80,48502,2,0,B|192:160|272:192,1,130
256,192,49292,12,4,50476
144,224,50871,6,0,B|160:288|224:320,1,130,0|8
320,320,51660,2,0,B|384:288|400:224,1,130,0|8
400,128,52450,1,0
312,96,52844,1,8
224,128,53239,1,0
136,96,53634,1,8
144,272,54423,6,0,B|160:192|240:192,1,130,8|0
320,192,55213,1,8
320,96,55608,2,0,B|384:112|416:176,1,130,0|8
416,272,56397,1,0
320,272,56792,2,0,B|192:272,1,130,8|4
160,192,58766,5,4
352,192,60344,5,2
353,107,60739,1,2
434,82,61134,1,2
482,151,61529,1,2
432,219,61923,1,4
256,256,62713,5,0
256,256,63108,1,0
160,256,63502,6,0,B|104:152|176:64|272:40|352:72|384:136,1,390,4|2
384,216,65081,2,2,B|304:264|256:248|240:152|240:64|152:0|64:120,1,390
80,176,66660,5,2
224,64,67450,1,2
352,192,68239,5,0
288,256,68634,1,2
224,192,69029,1,0
160,256,69423,2,0,B|64:160,1,130,2|4
256,96,71397,5,4
256,288,72976,5,4
352,192,74555,6,2,B|512:192,2,130
176,224,76134,5,4
304,96,76923,1,0
240,256,77713,5,4
368,128,78502,1,0
304,288,79292,5,4
432,160,80081,1,0
368,320,80871,5,4
496,192,81660,1,0
432,352,82450,5,4
304,336,83042,2,0,B|176:304,1,130
48,304,84029,5,4
176,288,84621,2,0,B|304:256,1,130
432,256,85608,5,4
304,240,86200,2,0,B|176:208,1,130
48,208,87187,5,4
176,192,87779,2,0,B|304:160,1,130
432,192,88766,5,4
304,256,89358,2,0,B|304:320,2,65
384,144,90344,5,4
256,208,90937,2,0,B|256:272,2,65
128,144,91923,5,4
256,80,92516,2,0,B|368:80,2,65
176,192,93502,5,4
304,128,94094,2,0,B|384:128,2,65
160,128,95081,5,0
240,176,95476,1,0
320,224,95871,1,0
400,272,96266,1,0
320,320,96660,5,0
240,272,97055,1,0
160,224,97450,1,0
80,176,97844,1,0
256,192,98239,12,4,99818
208,160,100608,5,0
256,240,101002,1,0
304,160,101397,1,4
256,192,101594,12,0,104160
144,160,104555,6,0,B|192:32|288:16|384:80|368:176|352:240,1,390,0|2
256,224,106134,1,2
160,224,106529,1,2
160,320,106923,2,0,B|304:320,1,130,2|2
384,320,107713,5,4
384,224,108108,1,2
384,128,108502,2,0,B|384:64,1,65,2|2
288,64,109094,1,2
208,112,109489,5,2
144,176,109884,1,2
208,240,110279,1,2
272,176,110673,1,2
256,192,110871,12,4,112450
256,192,114029,5,4
