osu file format v12

[General]
AudioFilename: TrueBlue.mp3
AudioLeadIn: 0
PreviewTime: 33347
Countdown: 1
SampleSet: Soft
StackLeniency: 0.7
Mode: 0
LetterboxInBreaks: 1
WidescreenStoryboard: 0

[Editor]
DistanceSpacing: 0.5
BeatDivisor: 4
GridSize: 4
TimelineZoom: 1

[Metadata]
Title:True Blue
TitleUnicode:True Blue
Artist:dj TAKA feat.AiMEE
ArtistUnicode:dj TAKA feat.AiMEE
Creator:Scorpiour
Version:Extreme
Source:jubeat saucer
Tags:
BeatmapID:425615
BeatmapSetID:176758

[Difficulty]
HPDrainRate:7
CircleSize:4
OverallDifficulty:8
ApproachRate:9
SliderMultiplier:1.6
SliderTickRate:1

[Events]
//Background and Video events
0,0,"bg.jpg",0,0
//Break Periods
//Storyboard Layer 0 (Background)
//Storyboard Layer 1 (Fail)
//Storyboard Layer 2 (Pass)
//Storyboard Layer 3 (Foreground)
//Storyboard Sound Samples
//Background Colour Transformations
3,100,0,0,0

[TimingPoints]
421,365.853658536585,4,2,1,35,1,0
421,-166.666666666667,4,2,1,35,0,0
10664,-125,4,2,1,35,0,0
12128,-100,4,2,1,35,0,0
20908,-90.9090909090909,4,2,1,35,0,0
23835,-83.3333333333333,4,2,1,35,0,0
26762,-76.9230769230769,4,2,1,35,0,0
29689,-71.4285714285714,4,2,1,35,0,0
32616,-66.6666666666667,4,2,1,35,0,0

[Colours]
Combo1 : 85,255,255
Combo2 : 191,255,255

[HitObjects]
427,299,421,6,0,P|369:263|277:267,1,143.999995605469
108,306,1152,2,0,P|187:344|253:322,1,143.999995605469
298,164,1884,6,0,P|316:116|326:58,1,95.9999970703126
143,115,2433,1,0,0:0:0:0:
453,185,2707,1,0,0:0:0:0:
309,47,2981,1,0,0:0:0:0:
298,164,3164,2,0,P|297:223|228:270,1,143.999995605469
21,97,4262,1,0,0:0:0:0:
109,59,4445,2,0,L|110:24,1,23.9999992675781
155,146,4628,2,0,P|211:176|299:159,1,143.999995605469
367,109,5360,1,0,0:0:0:0:
467,104,5542,2,0,L|499:175,1,71.9999978027344
436,268,5908,2,0,L|404:197,1,71.9999978027344
381,348,6274,6,0,P|290:360|214:295,1,191.999994140625
350,90,7189,1,0,0:0:0:0:
367,190,7372,1,0,0:0:0:0:
314,277,7555,1,0,0:0:0:0:
216,236,7738,2,0,L|114:203,1,95.9999970703126
255,146,8286,1,0,0:0:0:0:
367,190,8469,2,0,L|474:224,1,95.9999970703126
296,57,9018,1,0,0:0:0:0:
164,112,9201,6,0,L|58:125,1,95.9999970703126
166,199,9750,2,0,P|230:169|245:82,1,143.999995605469
164,112,10481,2,0,L|86:102,1,71.9999978027344
39,310,11030,6,0,P|81:329|128:323,1,96
203,227,11396,2,0,P|246:206|294:210,1,96
401,265,11762,2,0,P|448:258|482:213,1,96
444,137,12128,5,0,0:0:0:0:
334,160,12311,2,0,L|288:140,2,40
270,253,12677,2,0,P|203:268|110:224,1,160
216,109,13225,1,0,0:0:0:0:
256,192,13408,12,0,14689,0:0:0:0:
66,197,15055,5,0,0:0:0:0:
179,232,15238,1,0,0:0:0:0:
254,141,15420,1,0,0:0:0:0:
362,189,15603,2,0,P|419:204|476:189,1,120
477,76,15969,2,0,P|419:60|362:75,1,120
272,230,16335,2,0,B|246:293|246:293|207:328|116:322|95:228,1,240
68,122,17067,1,0,0:0:0:0:
76,108,17158,1,0,0:0:0:0:
84,94,17250,2,0,P|143:90|203:95,1,120
272,230,17616,2,0,P|313:233|386:228,1,80
313,66,17981,5,0,0:0:0:0:
184,120,18164,1,0,0:0:0:0:
272,230,18347,1,0,0:0:0:0:
402,180,18530,2,0,P|401:237|394:309,1,120
395,299,18896,1,0,0:0:0:0:
293,147,19079,2,0,L|254:161,2,40
189,202,19353,2,0,P|144:183|19:203,1,160
25,210,19811,2,0,L|36:303,1,80
276,346,20177,6,0,L|268:232,1,80
189,202,20451,2,0,L|200:108,1,80
266,77,20725,2,0,L|260:30,1,40
272,156,20908,5,0,0:0:0:0:
