osu file format v7

[General]
AudioFilename: 42 - MOON.mp3
AudioLeadIn: 0
PreviewTime: 64960
Countdown: 0
SampleSet: Soft
StackLeniency: 0.7
Mode: 0
LetterboxInBreaks: 1

[Editor]
DistanceSpacing: 1.20000004768372
BeatDivisor: 4
GridSize: 8

[Metadata]
Title:MOON
Artist:dj TAKA feat. Erika Mochizuki
Creator:Gabi
Version:Hyper
Source:Beatmania IIDX
Tags:Alace youngdow

[Difficulty]
HPDrainRate:5
CircleSize:4
OverallDifficulty:7
SliderMultiplier:1.6
SliderTickRate:1

[Events]
//Background and Video events
0,0,"ws_Moon_Light_1024x768.jpg"
//Break Periods
//Storyboard Layer 0 (Background)
//Storyboard Layer 1 (Fail)
//Storyboard Layer 2 (Pass)
//Storyboard Layer 3 (Foreground)
Sprite,Foreground,Centre,"Name\Alace 01.png",320,240 F,0,13998,14191,0.03040002,0.3190021 M,0,13998,20152,93,133,274,133 F,0,14191,20152,0.3190021,0.3184 F,0,20152,20248,0.3184,0
Sprite,Foreground,Centre,"Name\Alace 01.png",320,240 F,0,13998,14191,0,0.2735998 M,0,13998,20152,573,351,427,351 F,0,14191,20152,0.2735998,0.2928 F,0,20152,20345,0.2928,0
Sprite,Foreground,Centre,"Name\Alace 02.png",320,240 M,0,20152,,488,376 S,0,20152,,0.4367999 F,0,20152,20537,0,0.4624002 F,0,20537,20921,0.4624002,1 F,0,20921,117075,1 F,0,117075,118229,1,0
Sprite,Foreground,Centre,"Name\Ring.png",320,240 M,0,20152,,508,385 S,0,20152,20345,0.6928,1.1024 F,0,20152,21306,1,0 S,0,20345,21306,1.1024,1.2944
//Storyboard Sound Samples
//Background Colour Transformations
3,100,0,0,0

[TimingPoints]
7845,384.615384615385,4,1,1,50,1,0
8037,-100,4,2,1,64,0,0
8421,-100,4,1,1,50,0,0
8902,-100,4,2,1,64,0,0
9191,-100,4,1,1,50,0,0
9575,-100,4,2,1,66,0,0
9960,-100,4,1,1,50,0,0
10441,-100,4,2,1,64,0,0
10729,-100,4,1,1,50,0,0
11114,-100,4,2,1,65,0,0
11498,-100,4,1,1,50,0,0
11979,-100,4,2,1,65,0,0
12268,-100,4,1,1,70,0,0
13133,-100,4,2,1,70,0,0
13998,-100,4,2,1,50,0,0
14191,-100,4,2,1,45,0,0
14479,-100,4,2,1,41,0,0
14671,-100,4,2,0,60,0,0
15441,-100,4,2,0,79,0,0
16234,-100,4,2,0,60,0,0
18518,-100,4,2,0,70,0,0
20056,-100,4,2,0,50,0,0
20248,-100,4,2,0,60,0,0
21691,-100,4,2,0,70,0,0
23133,-100,4,2,0,60,0,0
26306,-100,4,2,0,50,0,0
26498,-100,4,2,0,45,0,0
26787,-100,4,2,0,40,0,0
26979,-100,4,2,0,60,0,0
27748,-100,4,2,0,80,0,0
28518,-100,4,2,0,60,0,0
30825,-100,4,2,0,70,0,0
32364,-100,4,2,0,50,0,0
32556,-100,4,2,0,60,0,0
33998,-100,4,2,0,70,0,0
35441,-100,4,2,0,60,0,0
38806,-100,4,2,0,50,0,0
76595,-100,4,1,0,35,0,0
77075,-100,4,2,0,50,0,0
91595,-100,4,2,0,70,0,0
92460,-100,4,2,0,50,0,0
92652,-100,4,2,0,45,0,0
92941,-100,4,2,0,41,0,0
93133,-100,4,2,0,61,0,0
93998,-100,4,2,0,80,0,0
94671,-100,4,2,0,61,0,0
96979,-100,4,2,0,70,0,0
98518,-100,4,2,0,50,0,0
98710,-100,4,2,0,61,0,0
100152,-100,4,2,0,70,0,0
101595,-100,4,2,0,61,0,0
104768,-100,4,2,0,51,0,0
104960,-100,4,2,0,46,0,0
105248,-100,4,2,0,40,0,0
105441,-100,4,2,0,61,0,0
106306,-100,4,2,0,80,0,0
106979,-100,4,2,0,61,0,0
109287,-100,4,2,0,70,0,0
110825,-100,4,2,0,50,0,0
111018,-100,4,2,0,61,0,0
112460,-100,4,2,0,70,0,0
113902,-100,4,2,0,61,0,0

[Colours]
Combo1 : 128,128,255
Combo2 : 255,255,255

[HitObjects]
126,354,7845,2,0,B|214:378|262:274,1,160,4|8
256,288,8518,1,0
256,288,8614,2,0,B|318:346,2,80,0|0|8
440,224,9383,6,0,B|352:248|304:144,1,160,0|8
310,157,10056,1,0
310,157,10152,2,0,B|247:215,2,80,0|0|8
118,90,10921,6,0,B|206:114|254:10,1,160,0|8
248,24,11595,1,0
248,24,11691,2,0,B|310:82,2,80,0|0|8
352,184,12460,5,0
256,304,12748,1,0
160,184,13037,1,0
256,200,13229,2,0,B|256:152,7,40
256,120,13998,5,4
360,56,14287,1,4
256,120,14575,1,4
336,128,14768,2,0,B|392:192,3,80,0|2|0|2
288,232,15537,5,0
204,320,15825,1,0
288,232,16114,1,0
208,244,16306,2,0,B|137:196,3,80,0|2|0|2
120,48,17075,6,0,B|40:88,1,80,0|2
144,168,17460,2,0,B|224:128,1,80,0|2
312,24,17845,2,0,B|232:64,1,80,0|2
336,144,18229,2,0,B|416:104,1,80,0|2
432,240,18614,5,2
256,312,18998,1,2
128,168,19383,1,2
144,168,19479,1,0
160,168,19575,1,2
176,168,19671,1,0
192,160,19768,1,2
208,152,19864,1,0
224,144,19960,1,2
288,64,20152,5,4
336,144,20345,1,2
288,64,20537,1,0
336,144,20729,1,2
376,232,20921,2,0,B|400:288,7,40,0|0|2|0|0|0|2|0
408,304,21691,5,2
288,304,21979,1,2
408,304,22268,1,2
408,304,22652,1,2
344,248,22845,2,0,B|344:200,2,40,2|0|2
344,248,23229,6,0,B|424:208,1,80,0|2
320,128,23614,2,0,B|240:168,1,80,0|2
152,272,23998,2,0,B|232:232,1,80,0|2
128,152,24383,2,0,B|48:192,1,80,0|2
48,40,24768,5,2
63,44,24864,1,0
78,48,24960,1,2
94,52,25056,1,0
109,56,25152,2,0,B|201:80,1,80,2|0
296,136,25537,2,0,B|241:121,7,40,2|2|2|2|2|2|2|2
216,112,26306,5,4
75,73,26595,1,4
114,208,26883,1,4
114,208,27075,2,0,B|33:247,1,80,0|2
112,208,27460,2,0,B|162:282,1,80,0|2
296,272,27845,5,0
437,311,28133,1,0
398,176,28421,1,0
398,176,28614,2,0,B|478:136,1,80,0|2
400,176,28998,2,0,B|349:101,1,80,0|2
264,280,29383,6,0,B|264:328|312:336,1,80,0|2
312,208,29768,2,0,B|312:160|264:152,1,80,0|2
136,176,30152,2,0,B|136:224|184:232,1,80,0|2
184,104,30537,2,0,B|184:56|136:48,1,80,0|2
48,144,30921,5,2
176,288,31306,1,2
296,136,31691,1,2
280,136,31787,1,0
264,136,31883,1,2
248,136,31979,1,0
232,144,32075,1,2
216,152,32171,1,0
200,160,32268,1,2
264,232,32460,5,4
360,232,32652,1,2
432,168,32845,1,0
488,88,33037,1,2
392,64,33229,2,0,B|344:48,7,40,0|0|2|0|0|0|2|0
312,72,33998,5,2
168,72,34287,1,2
24,72,34575,1,2
24,72,34960,1,2
96,136,35152,2,0,B|96:192,2,40,2|0|2
208,208,35537,6,0,B|187:251|140:238,1,80,0|2
194,122,35921,2,0,B|214:78|261:91,1,80,0|2
367,167,36306,2,0,B|346:210|299:197,1,80,0|2
354,82,36691,2,0,B|374:38|421:51,1,80,0|2
464,192,37075,5,4
256,264,37364,1,4
48,192,37652,1,4
256,32,38037,1,4
256,32,38229,1,4
80,304,38614,6,0,B|128:216|216:240,1,160,4|8
264,288,39191,1,0
320,336,39383,2,0,B|416:312|408:208,1,160,0|8
408,220,39960,1,2
408,220,40345,1,2
264,96,40537,5,8
192,112,40729,2,0,B|152:192,1,80,2|0
104,128,41114,2,0,B|64:208,1,80,2|8
68,199,41498,1,2
68,199,41883,1,2
280,160,42075,6,0,B|192:192,1,80,8|2
264,240,42460,2,0,B|176:272,1,80,0|2
112,288,42844,1,8
32,312,43037,1,2
32,312,43421,1,2
128,152,43614,5,8
187,204,43806,1,2
264,208,43998,2,0,B|352:208,1,80,0|2
312,280,44383,2,0,B|408:280,1,80,8|2
312,104,44768,6,0,B|336:176|432:160,1,120,4|0
432,192,45152,2,0,B|472:224|464:280,1,80,8|2
392,280,45537,2,0,B|312:280,2,80,0|2|8
184,256,46114,6,0,B|136:232|152:176,1,80,2|0
328,128,46498,2,0,B|376:152|360:208,1,80,2|8
184,256,46883,2,0,B|144:168|192:88,1,160,2|2
272,264,47460,2,0,B|296:304|264:352,1,80,8|2
271,340,48037,1,2
312,184,48229,6,0,B|384:128,1,80,8|2
448,264,48614,2,0,B|376:320,1,80,0|2
312,184,48998,1,8
448,264,49191,1,2
272,336,49383,5,4
80,232,49768,1,4
144,176,49960,1,4
416,184,50344,1,4
344,136,50537,1,4
296,64,50729,1,4
144,176,50921,6,0,B|216:256|296:184,1,160,4|8
296,64,51498,2,0,B|224:-16|144:56,1,160,2|2
144,176,52075,1,8
296,64,52268,1,2
288,192,52460,6,0,B|336:216|360:176,3,80,0|2|8|2
392,256,53229,2,0,B|440:232|464:272,3,80,0|2|8|2
336,184,53998,6,0,B|290:86|192:131,1,160,0|8
157,246,54575,2,0,B|202:343|300:298,1,160,2|2
336,184,55152,1,8
157,246,55344,1,2
280,280,55537,6,0,B|320:320|280:360,1,80,0|2
104,352,55921,2,0,B|64:312|104:272,1,80,8|2
184,176,56306,2,0,B|224:216|184:256,1,80,0|2
8,248,56691,2,0,B|-32:208|8:168,1,80,8|2
101,183,57075,6,0,B|114:76|221:89,1,160,4|8
291,186,57652,2,0,B|278:293|171:280,1,160,2|2
101,183,58229,1,8
291,186,58421,1,2
184,257,58614,6,0,B|158:307|209:333,1,80,0|2
374,271,58998,2,0,B|399:220|349:195,1,80,8|2
243,128,59383,2,0,B|218:179|268:204,1,80,0|2
433,142,59768,2,0,B|459:92|408:66,1,80,8|2
418,72,60344,5,2
360,112,60537,1,8
296,88,60729,1,2
240,128,60921,1,0
176,104,61114,1,2
120,144,61306,1,8
56,120,61498,1,2
48,264,61691,5,4
192,32,62075,1,4
264,64,62268,1,4
320,312,62652,1,4
392,272,62844,1,4
448,216,63037,1,4
464,136,63229,1,4
104,256,63998,5,0
200,256,64191,1,0
296,232,64383,1,0
384,192,64575,1,0
464,136,64768,1,4
264,64,65152,6,0,B|304:144,1,80,8|2
448,336,65537,2,0,B|408:256,1,80,0|2
416,80,65921,1,8
256,240,66114,2,0,B|352:240|384:152,1,160,2|2
381,158,66691,1,8
381,158,66883,1,2
216,80,67075,6,0,B|296:120,1,80,0|2
176,184,67460,2,0,B|96:144,1,80,8|2
104,148,68037,1,2
248,320,68229,6,0,B|208:240,1,80,8|2
64,48,68614,2,0,B|104:128,1,80,0|2
96,304,68998,1,8
256,144,69191,2,0,B|160:144|128:232,1,160,2|2
130,225,69768,1,8
130,225,69960,1,2
296,256,70152,6,0,B|344:272|368:200,1,80,0|2
216,128,70537,2,0,B|168:112|144:184,1,80,8|2
312,168,70921,2,0,B|344:128|312:88,1,80,4|2
200,216,71306,2,0,B|168:256|200:296,1,80,8|2
96,256,71691,5,2
96,256,71787,1,2
96,256,71883,2,0,B|64:160,1,80,2|8
112,24,72268,2,0,B|160:184,1,160,2|2
157,177,72844,1,8
288,328,73037,2,0,B|240:168,1,160,2|2
242,174,73614,1,8
242,174,73806,1,2
418,312,74191,5,2
360,272,74383,1,8
296,296,74575,1,2
240,256,74768,1,0
176,280,74960,1,0
120,240,75152,1,8
56,264,75344,1,2
64,96,75537,5,4
248,56,75921,1,4
320,88,76114,1,4
280,304,76498,1,4
344,256,76691,2,0,B|384:224,4,40,0|0|0|0|4
344,256,77460,6,0,B|272:216,1,80,8|2
144,96,77844,2,0,B|216:136,1,80,0|2
213,134,78229,1,8
168,264,78421,2,0,B|96:216|96:216|16:216,1,160,2|2
21,216,78998,1,8
21,216,79191,1,2
168,144,79383,6,0,L|128:144|80:112,1,80,0|2
248,224,79768,2,0,L|208:224|160:256,1,80,8|2
174,246,80344,1,2
200,48,80537,6,0,B|241:119,1,80,8|2
286,286,80921,2,0,B|244:214,1,80,0|2
246,219,81306,1,8
352,131,81498,2,0,B|388:209|388:209|457:250,1,160,2|2
452,247,82075,1,8
452,247,82268,1,2
384,352,82460,6,0,B|336:280,1,80,0|2
128,200,82844,2,0,B|176:272,1,80,8|2
376,216,83229,2,0,B|304:176,1,80,4|2
112,320,83614,2,0,B|184:360,1,80,8|2
256,224,83998,5,2
256,224,84094,1,2
256,224,84191,2,0,B|256:312,1,80,2|8
328,176,84575,2,0,B|328:96|328:96|376:24,1,160,2|2
372,28,85152,1,8
408,136,85344,2,0,B|408:216|408:216|360:288,1,160,2|2
363,283,85921,1,8
363,283,86114,1,2
27,303,86498,5,2
96,330,86691,1,8
169,320,86883,1,2
228,274,87075,1,0
256,204,87268,1,2
245,130,87460,1,8
200,72,87652,1,2
312,32,87844,6,0,B|304:128|376:176,1,160,0|8
440,208,88421,2,0,B|448:304|376:352,1,160,2|2
312,304,88998,1,8
248,352,89191,1,2
168,352,89383,5,4
72,192,89768,1,8
168,352,90152,1,0
72,192,90537,1,8
368,192,90921,5,4
256,40,91210,1,4
144,192,91498,1,4
256,208,91691,2,0,B|256:168,7,40
256,120,92460,5,4
400,120,92748,1,4
256,120,93037,1,4
328,184,93229,2,0,B|328:232,7,40,0|0|2|0|0|0|2|0
328,272,93998,5,0
184,272,94287,1,0
328,272,94575,1,0
256,208,94768,2,0,B|256:160,7,40,0|0|2|0|0|0|2|0
256,120,95537,5,0
232,112,95633,1,0
208,120,95729,1,2
184,112,95825,1,0
160,120,95921,1,0
136,112,96018,6,0,B|80:112,5,40,0|2|0|0|0|2
128,200,96691,1,0
128,112,96883,1,2
208,40,97075,5,2
304,344,97460,1,2
40,192,97844,1,2
56,192,97941,1,0
72,192,98037,1,2
88,192,98133,1,0
104,184,98229,1,2
120,176,98325,1,0
136,168,98421,1,2
208,120,98614,5,4
280,184,98806,1,2
352,120,98998,1,0
424,184,99191,1,2
496,120,99383,2,0,B|496:72,7,40,0|0|2|0|0|0|2|0
496,32,100152,5,2
256,128,100441,1,2
16,32,100729,1,2
256,272,101114,1,2
256,200,101306,1,2
256,200,101402,1,0
256,200,101498,1,2
368,272,101691,6,0,B|392:320,3,40,0|0|2|0
408,264,102075,6,0,B|384:216,3,40,0|0|2|0
424,192,102460,6,0,B|448:240,3,40,0|0|2|0
464,184,102844,6,0,B|440:136,3,40,0|0|2|0
432,104,103229,5,2
400,104,103325,1,0
368,104,103421,1,2
344,120,103518,1,0
320,144,103614,1,2
432,280,103998,5,2
400,280,104094,1,2
368,280,104191,1,2
336,280,104287,1,2
304,280,104383,1,2
280,256,104479,1,2
256,232,104575,1,2
232,208,104671,1,2
208,184,104768,5,4
64,184,105056,1,4
136,64,105344,1,4
136,160,105537,2,0,B|136:208,7,40,0|0|2|0|0|0|2|0
136,248,106306,5,0
280,248,106594,1,0
208,368,106883,1,0
208,272,107075,2,0,B|208:224,7,40,0|0|2|0|0|0|2|0
208,192,107844,5,0
232,184,107941,1,0
256,192,108037,1,2
280,184,108133,1,0
304,192,108229,1,0
328,184,108325,6,0,B|376:184,5,40,0|2|0|0|0|2
432,112,108998,1,0
496,184,109191,1,2
400,288,109383,5,2
112,96,109768,1,2
472,192,110152,1,2
456,192,110248,1,0
440,192,110344,1,2
424,192,110441,1,0
408,184,110537,1,2
392,176,110633,1,0
376,168,110729,1,2
304,120,110921,5,4
232,184,111114,1,2
160,120,111306,1,0
88,184,111498,1,2
16,120,111691,2,0,B|16:72,7,40,0|0|2|0|0|0|2|0
16,32,112460,5,2
256,128,112748,1,2
496,32,113037,1,2
256,272,113421,1,2
256,200,113614,1,2
256,200,113710,1,0
256,200,113806,1,2
144,272,113998,6,0,B|120:320,3,40,0|0|2|0
104,264,114383,6,0,B|128:216,3,40,0|0|2|0
88,192,114768,6,0,B|64:240,3,40,0|0|2|0
48,184,115152,6,0,B|72:136,3,40,0|0|2|0
80,104,115537,5,4
256,256,115825,1,4
432,104,116114,1,4
256,192,116402,12,4,117075
