osu file format v14

[General]
AudioFilename: audio.mp3
AudioLeadIn: 0
PreviewTime: 13066
Countdown: 0
SampleSet: Soft
StackLeniency: 0.5
Mode: 0
LetterboxInBreaks: 0
WidescreenStoryboard: 1

[Editor]
DistanceSpacing: 1.4
BeatDivisor: 4
GridSize: 4
TimelineZoom: 1.3

[Metadata]
Title:quaver
TitleUnicode:quaver ♪
Artist:dj TAKA
ArtistUnicode:dj TAKA
Creator:Nelliel
Version:Hard
Source:REFLEC BEAT limelight
Tags:beatmania IIDX 19 Lincle jubeat saucer jukebeat KONAMI music pack 25 pop'n music Sunny Park plus MUSIC PACK 29 + ポップンリズミン パック1 MUSIC PACK 19 nevo rolniczy xenon- yugu milan-
BeatmapID:1799135
BeatmapSetID:859843

[Difficulty]
HPDrainRate:4
CircleSize:4
OverallDifficulty:5
ApproachRate:6.5
SliderMultiplier:1.2
SliderTickRate:1

[Events]
//Background and Video events
0,0,"quaver.jpg",0,0
//Break Periods
//Storyboard Layer 0 (Background)
//Storyboard Layer 1 (Fail)
//Storyboard Layer 2 (Pass)
//Storyboard Layer 3 (Foreground)
//Storyboard Sound Samples

[TimingPoints]
1198,329.67032967033,4,2,1,40,1,0
5813,-100,4,1,1,40,0,0
6472,-100,4,2,1,40,0,0
11747,-100,4,3,1,40,0,0
13066,326.086956521739,4,2,1,40,1,0
37848,322.58064516129,4,2,1,40,1,0
48170,-100,4,2,2,40,0,0
48251,-100,4,2,1,40,0,0
49460,-100,4,2,2,40,0,0
49541,-100,4,2,1,40,0,0
50751,-100,4,2,2,40,0,0
50831,-100,4,2,1,40,0,0
52041,-100,4,2,2,40,0,0
52122,-100,4,2,1,40,0,0
52686,-100,4,2,2,40,0,0
52767,-100,4,2,1,40,0,0
53331,-100,4,2,2,40,0,0
53412,-100,4,2,1,40,0,0
54622,-100,4,2,2,40,0,0
54702,-100,4,2,1,40,0,0
55912,-100,4,2,2,40,0,0
55993,-100,4,2,1,40,0,0
56557,-100,4,2,2,40,0,0
56638,-100,4,2,1,40,0,0
57202,-100,4,2,2,40,0,0
57283,-100,4,2,1,40,0,0
57847,-100,4,2,2,40,0,0
57928,-100,4,2,1,40,0,0
58493,-100,4,2,2,40,0,0
58573,-100,4,2,1,40,0,0
60751,-100,4,2,1,5,0,0

[Colours]
Combo1 : 226,45,124
Combo2 : 255,255,0
Combo3 : 37,185,239
Combo4 : 23,209,116

[HitObjects]
203,126,1198,6,0,L|263:128,2,60,2|0|0,0:0|0:0|0:0,0:0:0:0:
130,83,1692,1,2,0:0:0:0:
61,325,2187,1,2,0:0:0:0:
219,271,2516,6,0,L|279:273,1,60,2|0,0:0|0:0,0:0:0:0:
356,307,2846,1,0,0:0:0:0:
436,284,3011,1,2,0:0:0:0:
366,41,3505,1,2,0:0:0:0:
213,112,3835,6,0,L|211:172,2,60,2|0|0,0:0|0:0|0:0,0:0:0:0:
162,44,4329,2,0,P|132:68|37:60,1,120,2|0,0:0|0:0,0:0:0:0:
53,69,4824,1,2,0:0:0:0:
49,237,5154,6,0,L|109:239,1,60,2|0,0:0|0:0,0:0:0:0:
187,270,5483,2,0,L|247:268,1,60,2|0,0:0|0:0,0:0:0:0:
322,306,5813,2,0,L|314:352,2,30,8|0|8,0:3|0:0|0:3,0:0:0:0:
374,239,6143,1,8,0:3:0:0:
365,155,6307,1,4,0:3:0:0:
315,86,6472,6,0,L|231:88,1,60,6|0,0:0|0:0,0:0:0:0:
184,40,6802,2,0,L|100:38,1,60,0|0,0:0|0:0,0:0:0:0:
56,89,7132,2,0,L|54:173,1,60,2|0,0:0|0:0,0:0:0:0:
102,220,7462,2,0,L|104:304,1,60,0|0,0:0|0:0,0:0:0:0:
164,337,7791,6,0,P|194:342|224:339,1,60,2|0,0:0|0:0,0:0:0:0:
282,278,8121,2,0,P|311:274|341:277,1,60,0|0,0:0|0:0,0:0:0:0:
423,294,8450,2,0,P|430:264|444:238,1,60,2|0,0:0|0:0,0:0:0:0:
491,167,8780,1,0,0:0:0:0:
462,87,8945,1,8,0:3:0:0:
378,78,9110,6,0,L|230:76,1,120,6|0,0:0|0:0,0:0:0:0:
173,76,9604,1,8,0:3:0:0:
212,150,9769,2,0,L|331:151,1,120,6|0,0:0|0:0,0:0:0:0:
416,152,10263,1,8,0:3:0:0:
377,226,10428,6,0,B|383:279|383:279|366:303|366:303|371:348,1,120,6|2,0:0|0:0,0:0:0:0:
287,360,10923,1,0,0:0:0:0:
219,309,11088,2,0,P|189:302|144:306,2,60,2|0|2,0:0|0:0|0:0,0:0:0:0:
256,192,11747,12,2,12736,0:0:0:0:
191,69,13066,6,0,L|271:70,1,60,6|0,1:0|0:0,0:0:0:0:
328,36,13392,2,0,L|387:35,1,60,2|0,1:0|0:0,0:0:0:0:
458,81,13718,2,0,P|453:124|456:152,1,60,2|0,1:0|0:0,0:0:0:0:
509,204,14044,2,0,P|514:247|511:275,1,60,2|0,1:0|0:0,0:0:0:0:
466,333,14370,5,2,1:0:0:0:
384,314,14533,1,0,0:0:0:0:
302,333,14696,2,0,L|226:330,1,60,2|0,1:0|0:0,0:0:0:0:
173,282,15022,1,2,1:0:0:0:
89,290,15185,1,0,0:0:0:0:
26,233,15348,2,0,L|29:157,1,60,2|0,1:0|0:0,0:0:0:0:
36,87,15674,6,0,P|104:87|160:50,1,120,2|2,1:2|1:2,0:0:0:0:
203,3,16163,1,2,0:0:0:0:
232,81,16326,2,0,P|225:120|225:155,1,60,2|2,1:2|0:0,0:0:0:0:
249,220,16652,2,0,P|256:259|256:294,1,60,2|2,1:2|0:0,0:0:0:0:
197,339,16979,6,0,P|138:325|78:282,1,120,2|2,1:2|1:2,0:0:0:0:
101,209,17468,1,0,0:0:0:0:
162,151,17631,2,0,P|200:143|235:142,1,60,8|4,1:3|1:3,0:0:0:0:
304,163,17957,1,8,1:3:0:0:
386,147,18120,1,4,1:3:0:0:
386,147,18283,6,0,P|416:173|446:191,1,60,6|0,1:0|0:0,0:0:0:0:
492,125,18609,2,0,P|499:86|500:51,1,60,2|0,1:0|0:0,0:0:0:0:
420,46,18935,2,0,P|382:58|351:75,1,60,2|0,1:0|0:0,0:0:0:0:
281,81,19261,2,0,P|243:68|212:51,1,60,8|4,1:3|1:3,0:0:0:0:
141,63,19587,5,2,1:2:0:0:
87,127,19750,1,2,0:0:0:0:
141,191,19913,2,0,L|137:268,1,60,2|2,1:2|0:0,0:0:0:0:
185,319,20239,1,2,1:2:0:0:
185,319,20402,1,8,0:3:0:0:
268,330,20565,2,0,L|264:270,1,60,0|4,1:2|0:3,0:0:0:0:
350,251,20892,6,0,L|356:124,1,120,6|2,1:0|1:0,0:0:0:0:
329,51,21381,1,0,0:0:0:0:
245,55,21544,2,0,P|186:58|116:25,1,120,2|2,1:0|1:0,0:0:0:0:
53,2,22033,1,4,1:3:0:0:
25,81,22196,6,0,B|27:133|27:133|19:155|19:155|21:217,1,120,0|2,0:0|1:0,0:0:0:0:
7,282,22685,1,0,0:0:0:0:
74,332,22848,2,0,B|106:345|139:332|139:332|173:323|210:335,1,120,8|8,1:3|1:3,0:0:0:0:
271,356,23337,1,2,0:0:0:0:
339,306,23500,6,0,L|338:228,1,60,6|0,1:0|0:0,0:0:0:0:
390,180,23826,2,0,L|391:102,1,60,2|0,1:0|0:0,0:0:0:0:
331,60,24152,2,0,P|296:71|255:72,1,60,2|0,1:0|0:0,0:0:0:0:
200,29,24479,2,0,P|165:18|124:17,1,60,2|0,1:0|0:0,0:0:0:0:
68,56,24805,5,2,1:0:0:0:
98,134,24968,1,0,0:0:0:0:
68,212,25131,2,0,L|66:284,1,60,2|0,1:0|0:0,0:0:0:0:
36,350,25457,1,2,1:0:0:0:
119,354,25620,1,0,0:0:0:0:
202,356,25783,2,0,L|274:358,1,60,2|0,1:0|0:0,0:0:0:0:
340,329,26109,6,0,P|319:267|327:207,1,120,2|2,1:2|1:2,0:0:0:0:
354,135,26598,1,2,0:0:0:0:
382,56,26761,2,0,P|341:59|310:53,1,60,2|2,1:2|0:0,0:0:0:0:
248,16,27087,2,0,P|207:13|176:19,1,60,2|2,1:2|0:0,0:0:0:0:
117,60,27413,6,0,P|122:119|101:175,1,120,2|2,1:2|1:2,0:0:0:0:
45,237,27902,1,0,0:0:0:0:
37,321,28066,2,0,P|66:324|96:321,1,60,8|4,1:3|1:3,0:0:0:0:
180,341,28392,1,8,1:3:0:0:
261,361,28555,1,4,1:3:0:0:
261,361,28718,6,0,P|302:364|332:358,1,60,6|0,1:0|0:0,0:0:0:0:
363,289,29044,2,0,P|345:251|324:228,1,60,2|0,1:0|0:0,0:0:0:0:
269,182,29370,2,0,P|286:144|307:121,1,60,2|0,1:0|0:0,0:0:0:0:
233,74,29696,2,0,P|215:50|204:22,1,60,8|4,1:3|1:3,0:0:0:0:
120,13,30022,5,2,1:2:0:0:
36,23,30185,1,2,0:0:0:0:
6,101,30348,2,0,P|15:129|17:159,1,60,2|2,1:2|0:0,0:0:0:0:
50,236,30674,1,2,1:2:0:0:
50,236,30837,1,8,0:3:0:0:
86,311,31000,2,0,P|115:305|141:291,1,60,0|4,1:2|0:3,0:0:0:0:
225,292,31326,6,0,P|286:304|342:333,1,120,6|2,1:0|1:0,0:0:0:0:
410,370,31815,1,0,0:0:0:0:
474,315,31979,2,0,L|467:196,1,120,2|2,1:0|1:0,0:0:0:0:
457,111,32468,1,0,0:0:0:0:
375,89,32631,6,0,B|311:97|311:97|238:86,1,120,8|8,1:3|1:3,0:0:0:0:
177,57,33120,1,4,1:3:0:0:
116,115,33283,2,0,B|124:179|124:179|113:252,1,120,8|8,1:3|1:3,0:0:0:0:
93,314,33772,1,4,1:3:0:0:
164,358,33935,6,0,L|238:362,1,60,8|4,1:3|1:3,0:0:0:0:
321,282,34261,2,0,L|262:286,1,60,8|4,1:3|1:3,0:0:0:0:
153,363,34587,2,0,L|237:367,1,60,8|4,1:3|1:3,0:0:0:0:
332,277,34913,2,0,L|264:281,1,60,8|4,1:3|1:3,0:0:0:0:
200,238,35239,6,0,P|207:191|202:163,1,60,8|4,1:3|1:3,0:0:0:0:
146,65,35565,2,0,P|140:95|141:125,1,60,8|4,1:3|1:3,0:0:0:0:
205,255,35892,2,0,P|213:198|210:177,1,60,8|4,1:3|1:3,0:0:0:0:
141,48,36218,2,0,P|133:83|134:119,1,60,8|4,1:3|1:3,0:0:0:0:
141,48,37848,6,0,P|133:83|134:119,1,60,6|0,1:0|0:0,0:0:0:0:
192,165,38170,2,0,P|199:194|200:223,1,60,2|0,1:0|0:0,0:0:0:0:
167,301,38493,1,2,1:0:0:0:
244,333,38654,1,0,0:0:0:0:
322,303,38815,2,0,P|357:311|393:310,1,60,2|0,1:0|0:0,0:0:0:0:
388,227,39138,6,0,P|353:219|317:220,1,60,2|0,1:0|0:0,0:0:0:0:
264,164,39460,2,0,P|229:172|193:171,1,60,2|0,1:0|0:0,0:0:0:0:
121,181,39783,1,2,1:0:0:0:
82,106,39944,1,0,0:0:0:0:
126,34,40106,2,0,P|155:35|184:42,1,60,2|0,1:0|0:0,0:0:0:0:
259,81,40428,6,0,L|317:72,1,60,2|2,1:2|0:0,0:0:0:0:
389,27,40751,2,0,L|447:35,1,60,2|2,1:2|0:0,0:0:0:0:
498,102,41073,1,2,1:2:0:0:
498,102,41235,1,2,0:0:0:0:
469,180,41396,1,2,1:2:0:0:
469,180,41557,1,2,0:0:0:0:
496,259,41718,6,0,L|487:317,1,60,2|0,1:2|0:0,0:0:0:0:
418,368,42041,2,0,L|371:330,1,60,2|0,1:2|0:0,0:0:0:0:
313,269,42364,2,0,L|257:290,1,60,8|4,1:3|1:3,0:0:0:0:
196,348,42686,1,8,1:3:0:0:
118,315,42847,1,4,1:3:0:0:
45,271,43009,6,0,L|54:211,1,60,6|0,1:0|0:0,0:0:0:0:
111,150,43331,2,0,L|101:90,1,60,2|0,1:0|0:0,0:0:0:0:
143,17,43654,2,0,L|202:7,1,60,2|0,1:0|0:0,0:0:0:0:
278,43,43977,2,0,L|337:52,1,60,8|4,1:3|1:3,0:0:0:0:
374,127,44299,6,0,P|375:167|382:204,2,60,2|2|2,1:2|0:0|1:2,0:0:0:0:
424,59,44783,1,2,0:0:0:0:
462,133,44944,2,0,P|465:162|465:192,2,60,2|8|0,1:2|0:3|1:2,0:0:0:0:
424,59,45428,1,4,0:3:0:0:
337,52,45589,6,0,L|278:43,1,60,6|0,1:0|0:0,0:0:0:0:
211,94,45912,2,0,L|152:103,1,60,2|0,1:0|0:0,0:0:0:0:
111,177,46235,2,0,L|170:186,1,60,2|0,1:0|0:0,0:0:0:0:
236,237,46557,2,0,L|295:228,1,60,2|0,1:0|0:0,0:0:0:0:
370,188,46880,5,8,1:3:0:0:
427,248,47041,1,4,1:3:0:0:
396,325,47202,2,0,L|337:334,1,60,8|4,1:3|1:3,0:0:0:0:
252,327,47525,1,8,1:3:0:0:
252,327,47686,1,4,1:3:0:0:
172,353,47847,2,0,L|113:344,1,60,8|4,1:3|1:3,0:0:0:0:
55,281,48170,6,0,P|73:232|71:207,1,60,6|0,1:2|0:0,0:0:0:0:
52,143,48493,2,0,P|34:94|36:69,1,60,2|0,1:0|0:0,0:0:0:0:
96,31,48815,1,2,1:0:0:0:
166,76,48977,1,0,0:0:0:0:
239,35,49138,2,0,P|288:17|313:19,1,60,2|0,1:0|0:0,0:0:0:0:
358,72,49460,6,0,P|407:90|432:88,1,60,2|0,1:2|0:0,0:0:0:0:
449,166,49783,2,0,P|408:199|398:222,1,60,2|0,1:0|0:0,0:0:0:0:
369,281,50106,1,2,1:0:0:0:
305,335,50267,1,0,0:0:0:0:
238,283,50428,2,0,P|208:287|181:301,1,60,2|0,1:0|0:0,0:0:0:0:
102,330,50751,6,0,L|103:264,1,60,2|2,1:2|0:0,0:0:0:0:
59,198,51073,1,2,1:2:0:0:
59,198,51235,1,2,0:0:0:0:
92,121,51396,1,2,1:2:0:0:
92,121,51557,1,2,0:0:0:0:
75,38,51718,2,0,L|134:37,1,60,2|2,1:2|0:0,0:0:0:0:
200,90,52041,6,0,L|259:90,1,60,2|0,1:2|0:0,0:0:0:0:
328,42,52364,2,0,L|387:41,1,60,2|0,1:2|0:0,0:0:0:0:
452,94,52686,1,2,1:2:0:0:
431,175,52847,1,4,1:3:0:0:
449,257,53009,2,0,L|449:316,1,60,8|4,1:3|1:3,0:0:0:0:
373,351,53331,6,0,L|331:357,15,30,6|0|0|0|0|0|0|0|2|0|0|0|0|0|0|0,1:2|0:0|0:0|0:0|0:0|0:0|0:0|0:0|1:2|0:0|0:0|0:0|0:0|0:0|0:0|0:0,0:0:0:0:
311,326,54622,6,0,L|281:321,15,30,2|0|0|0|0|0|0|0|2|0|4|0|8|0|4|0,1:2|0:0|0:0|0:0|0:0|0:0|0:0|0:0|1:2|0:0|1:3|0:0|1:3|0:0|1:3|0:0,0:0:0:0:
244,301,55912,6,0,L|214:305,3,30,6|0|0|0,0:0|0:0|0:0|0:0,0:0:0:0:
188,271,56235,2,0,L|190:197,1,60,0|8,0:0|0:3,0:0:0:0:
229,137,56557,2,0,L|258:132,3,30,2|0|0|0,0:0|0:0|0:0|0:0,0:0:0:0:
276,93,56880,2,0,P|305:89|335:91,1,60,0|8,0:0|0:3,0:0:0:0:
391,153,57202,6,0,L|420:157,3,30,6|0|0|0,1:2|0:0|0:0|0:0,0:0:0:0:
453,184,57525,2,0,L|451:243,1,60,0|0,0:0|0:0,0:0:0:0:
418,320,57847,2,0,L|373:318,3,30,2|0|0|0,1:2|0:0|0:0|0:0,0:0:0:0:
357,348,58170,2,0,P|327:350|297:346,1,60,0|0,0:0|0:0,0:0:0:0:
222,307,58493,6,0,P|224:277|220:247,1,60,2|4,1:2|0:3,0:0:0:0:
157,191,58815,2,0,P|154:161|158:131,1,60,8|4,0:3|0:3,0:0:0:0:
213,67,59138,1,8,0:3:0:0:
213,67,59299,1,4,0:3:0:0:
295,81,59460,1,8,0:3:0:0:
295,81,59622,1,4,0:0:0:0:
256,192,59783,12,0,60751,2:0:0:0:
