osu file format v13

[General]
AudioFilename: 05. dj TAKA - ZZ.mp3
AudioLeadIn: 0
PreviewTime: 52857
Countdown: 0
SampleSet: Soft
StackLeniency: 0.3
Mode: 0
LetterboxInBreaks: 0
WidescreenStoryboard: 1

[Editor]
Bookmarks: 13506
DistanceSpacing: 0.6
BeatDivisor: 4
GridSize: 4
TimelineZoom: 1.3

[Metadata]
Title:ZZ
TitleUnicode:ZZ
Artist:dj TAKA
ArtistUnicode:dj TAKA
Creator:Scorpiour
Version:Antares
Source:
Tags:
BeatmapID:522128
BeatmapSetID:223527

[Difficulty]
HPDrainRate:7
CircleSize:5
OverallDifficulty:8
ApproachRate:9
SliderMultiplier:1.08
SliderTickRate:1

[Events]
//Background and Video events
0,0,"bg.jpg",0,0
//Break Periods
//Storyboard Layer 0 (Background)
//Storyboard Layer 1 (Fail)
//Storyboard Layer 2 (Pass)
//Storyboard Layer 3 (Foreground)
//Storyboard Sound Samples
//Background Colour Transformations
3,100,0,0,0

[TimingPoints]
1039,389.61038961039,4,2,1,40,1,0

[Colours]
Combo1 : 248,223,255
Combo2 : 255,232,223
Combo3 : 223,248,255
Combo4 : 232,255,223

[HitObjects]
51,275,1039,5,0,0:0:0:0:
245,275,1233,1,0,0:0:0:0:
156,237,1428,2,0,L|157:203,1,27
284,189,1720,1,0,0:0:0:0:
434,130,1915,2,0,L|435:95,1,27
363,197,2207,1,0,0:0:0:0:
363,213,2305,1,0,0:0:0:0:
363,229,2402,1,0,0:0:0:0:
363,245,2500,1,0,0:0:0:0:
363,260,2597,5,0,0:0:0:0:
183,334,2792,1,0,0:0:0:0:
251,242,2987,2,0,L|252:203,1,27
129,205,3279,1,0,0:0:0:0:
7,169,3474,2,0,L|8:130,1,27
52,233,3766,1,0,0:0:0:0:
52,249,3863,1,0,0:0:0:0:
52,265,3961,1,0,0:0:0:0:
52,281,4058,1,0,0:0:0:0:
52,297,4155,5,0,0:0:0:0:
251,242,4350,1,0,0:0:0:0:
171,337,4545,2,0,L|172:303,1,27
322,311,4837,1,0,0:0:0:0:
465,278,5032,2,0,L|465:249,1,27
352,174,5324,1,0,0:0:0:0:
352,190,5422,1,0,0:0:0:0:
352,207,5520,1,0,0:0:0:0:
352,224,5617,1,0,0:0:0:0:
352,241,5714,5,0,0:0:0:0:
190,210,5909,1,0,0:0:0:0:
41,277,6103,2,0,L|41:238,1,27
116,207,6396,5,0,0:0:0:0:
256,291,6590,1,0,0:0:0:0:
242,153,6785,2,0,L|242:120,1,27
382,348,7077,1,0,0:0:0:0:
382,210,7272,5,0,0:0:0:0:
507,291,7467,1,0,0:0:0:0:
256,291,7662,2,0,L|254:246,1,27
177,180,7954,1,0,0:0:0:0:
97,70,8149,2,0,L|97:22,1,27
17,180,8441,1,0,0:0:0:0:
17,196,8539,1,0,0:0:0:0:
17,212,8636,1,0,0:0:0:0:
17,228,8733,1,0,0:0:0:0:
17,244,8831,5,0,0:0:0:0:
117,336,9026,1,0,0:0:0:0:
256,291,9220,2,0,L|256:246,1,27
410,235,9513,1,0,0:0:0:0:
333,87,9707,2,0,L|333:41,1,27
333,264,10000,1,0,0:0:0:0:
333,280,10097,1,0,0:0:0:0:
333,296,10194,1,0,0:0:0:0:
333,312,10292,1,0,0:0:0:0:
333,328,10389,5,0,0:0:0:0:
125,268,10584,1,0,0:0:0:0:
218,359,10779,2,0,L|218:317,1,27
242,183,11071,1,0,0:0:0:0:
419,252,11266,2,0,L|419:225,1,27
