osu file format v5

[General]
AudioFilename: V2.mp3
AudioLeadIn: 0
PreviewTime: -1
Countdown: 0
SampleSet: Soft
StackLeniency: 0.7
Mode: 0
LetterboxInBreaks: 1

[Editor]
Bookmarks: 40370,41970,54370,62770,72370,102770,126770
DistanceSpacing: 0.899999976158142
BeatDivisor: 4
GridSize: 8

[Metadata]
Title:V2
Artist:dj TAKA
Creator:Mystearica
Version:Hyper
Source:IIDX16
Tags:beatmania iidx 16 empress megamanexe

[Difficulty]
HPDrainRate:8
CircleSize:5
OverallDifficulty:6
SliderMultiplier:1.4
SliderTickRate:1

[Events]
//Background and Video events
0,0,"V2.jpg"
//Break Periods
2,62970,71320
//Storyboard Layer 0 (Background)
//Storyboard Layer 1 (Fail)
//Storyboard Layer 2 (Pass)
//Storyboard Layer 3 (Foreground)
//Storyboard Sound Samples
//Background Colour Transformations
3,100,0,0,0

[TimingPoints]
3570,400,4,2,0,100,1,0
6370,-100,4,2,0,60,0,0
6470,-100,4,2,0,100,0,0
9570,-100,4,2,0,60,0,0
9670,-100,4,2,0,100,0,0
12770,-100,4,2,0,60,0,0
12870,-100,4,2,0,100,0,0
13570,-100,4,2,0,60,0,0
13770,-100,4,2,0,100,0,0
14370,-100,4,2,0,80,0,0
14570,-100,4,2,0,100,0,0
20970,-100,4,2,0,70,0,0
21070,-100,4,2,0,100,0,0
22770,-100,4,2,0,49,0,0
23170,-100,4,2,0,70,0,0
23270,-100,4,2,0,100,0,0
27970,-100,4,2,0,80,0,0
28070,-100,4,2,0,100,0,0
33170,-100,4,2,0,60,0,0
33270,-100,4,2,0,100,0,0
34770,-100,4,2,0,60,0,0
34870,-100,4,2,0,100,0,0
35570,-100,4,2,0,60,0,0
35670,-100,4,2,0,100,0,0
37170,-100,4,2,0,70,0,0
37770,-100,4,2,0,60,0,0
37970,-100,4,2,0,80,0,0
38670,-100,4,2,0,100,0,0
40370,-100,4,2,0,60,0,0
40770,-100,4,2,0,80,0,0
41170,-100,4,2,0,100,0,0
42770,-100,4,2,0,80,0,0
42870,-100,4,2,0,100,0,0
54770,-100,4,1,0,50,0,0
56070,-100,4,2,0,100,0,0
72370,-100,4,2,0,80,0,0
72470,-100,4,2,0,100,0,0
73970,-100,4,2,0,80,0,0
74070,-100,4,2,0,100,0,0
75570,-100,4,2,0,70,0,0
75670,-100,4,2,0,100,0,0
77170,-100,4,2,0,80,0,0
77270,-100,4,2,0,100,0,0
78770,-100,4,1,0,40,0,0
78870,-100,4,2,0,100,0,0
85170,-100,4,1,0,40,0,0
85270,-100,4,2,0,100,0,0
88370,-100,4,1,0,50,0,0
88470,-100,4,2,0,100,0,0
91570,-100,4,2,0,60,0,0
91670,-100,4,2,0,100,0,0
94770,-100,4,2,0,50,0,0
95170,-100,4,2,0,80,0,0
95570,-100,4,2,0,60,0,0
95670,-100,4,2,0,100,0,0
96370,-100,4,2,0,50,0,0
96770,-100,4,2,0,80,0,0
97170,-100,4,2,0,60,0,0
97270,-100,4,2,0,100,0,0
97970,-100,4,2,0,40,0,0
98070,-100,4,2,0,100,0,0
104370,-100,4,2,0,50,0,0
104470,-100,4,2,0,100,0,0
107570,-100,4,2,0,50,0,0
107670,-100,4,2,0,100,0,0
110770,-100,4,2,0,50,0,0
110870,-100,4,2,0,100,0,0
113970,-100,4,2,0,70,0,0
114070,-100,4,2,0,100,0,0
115570,-100,4,2,0,70,0,0
115670,-100,4,2,0,100,0,0
117170,-100,4,2,0,70,0,0
117270,-100,4,2,0,100,0,0
118770,-100,4,2,0,60,0,0
118870,-100,4,2,0,100,0,0
119570,-100,4,2,0,70,0,0
119770,-100,4,2,0,80,0,0
119970,-100,4,2,0,90,0,0
120170,-100,4,2,0,100,0,0
120370,-100,4,2,0,70,0,0
120470,-100,4,2,0,100,0,0
121170,-100,4,2,0,70,0,0
121370,-100,4,2,0,80,0,0
121570,-100,4,2,0,90,0,0
121770,-100,4,2,0,100,0,0
121970,-100,4,2,0,70,0,0
122070,-100,4,2,0,100,0,0
122770,-100,4,2,0,70,0,0
122970,-100,4,2,0,80,0,0
123170,-100,4,2,0,90,0,0
123370,-100,4,2,0,100,0,0
123670,-100,4,1,0,70,0,0
123970,-100,4,1,0,50,0,0
124770,-100,4,1,0,30,0,0
125570,-100,4,1,0,10,0,0
126370,-100,4,1,0,0,0,0

[Colours]
Combo1 : 218,218,224
Combo2 : 118,199,248
Combo3 : 164,183,232

[HitObjects]
320,120,3570,1,2
384,88,3770,1,2
448,120,3970,1,2
448,256,4370,1,2
384,288,4570,1,2
320,256,4770,1,2
208,192,5170,5,0
144,192,5370,2,0,L|104:192,6,35
200,224,6170,1,0
200,160,6370,1,4
96,88,6770,5,2
128,32,6970,1,2
192,16,7170,1,2
320,16,7570,1,2
384,32,7770,1,2
416,88,7970,1,2
256,120,8370,5,0
272,176,8570,2,0,L|312:176,6,35
208,176,9370,1,0
208,176,9570,1,4
104,248,9970,5,2
104,312,10170,1,2
160,280,10370,1,2
288,280,10770,1,2
344,248,10970,1,2
344,312,11170,1,2
464,280,11570,5,0
464,216,11770,2,0,L|520:216,6,35
464,152,12570,1,0
464,88,12770,1,4
344,40,13170,6,0,L|288:96,1,70,0|0
294,89,13570,1,4
176,32,13970,2,0,L|112:96,1,70
126,81,14370,1,4
48,192,14770,6,0,L|48:144,4,35,2|0|2|0|2
160,192,15570,2,0,L|160:232,4,35,2|0|2|0|2
272,192,16370,2,0,L|272:136,4,35,2|0|2|0|2
384,192,17170,6,0,L|384:232,4,35,2|0|2|0|2
440,208,17770,2,0,L|504:272,2,70
440,272,18370,1,0
440,336,18570,1,2
408,328,18670,1,0
376,336,18770,1,2
312,336,18970,1,2
280,344,19070,1,0
248,336,19170,1,2
184,336,19370,2,0,L|144:336|104:312,4,70,2|2|2|2|2
216,280,20370,2,0,L|248:248,6,35,0|0|0|0|0|0|4
176,192,21170,6,0,L|96:192,2,70,2|0|2
328,192,21970,2,0,L|408:192,2,70,2|0|2
256,64,22770,6,4,L|256:216,1,140
224,320,23570,5,2
320,168,23970,1,0
176,280,24370,1,2
344,224,24770,1,0
168,224,25170,1,2
336,280,25570,1,0
192,168,25970,1,2
288,320,26370,1,0
256,192,26770,6,0,L|256:240,4,35,0|0|0|0|0
128,80,27570,6,0,L|40:80,2,70,0|0|4
240,24,28370,5,2
432,24,28770,1,0
304,168,29170,1,2
104,168,29570,1,0
240,312,29970,1,2
432,312,30370,1,0
280,328,30770,6,2,L|120:328,1,140
32,264,31570,2,2,L|136:160,1,140
224,80,32370,2,2,L|344:200,1,140
256,288,33170,5,8
256,192,33370,1,0
256,96,33570,1,0
152,40,33970,6,0,L|40:152,1,140
160,192,34770,5,8
256,192,34970,1,0
352,192,35170,1,0
288,304,35570,6,0,L|428:304,1,140,4|0
227,304,36370,2,0,L|87:304,1,140
24,212,37170,5,2
40,184,37270,1,0
56,157,37370,1,2
72,129,37470,1,0
88,101,37570,1,2
120,46,37770,5,4
152,104,37970,1,2
168,132,38070,1,0
184,159,38170,1,2
200,187,38270,1,0
216,215,38370,1,2
248,270,38570,5,4
280,216,38770,2,0,L|336:88|400:232,1,280
232,104,40370,6,0,L|192:64,7,35,2|0|2|0|2|0|2|0
232,104,41170,2,0,L|264:72,7,35,2|0|2|0|2|0|2|0
232,104,41970,2,0,L|152:216|56:88,1,280,0|4
168,296,43570,6,0,L|208:336,7,35,2|0|2|0|2|0|2|0
168,296,44370,2,0,L|136:328,7,35,2|0|2|0|2|0|2|0
168,296,45170,2,0,L|248:184|344:312,1,280,0|4
464,136,46770,6,0,L|504:96,7,35,2|0|2|0|2|0|2|0
464,136,47570,2,0,L|424:96,7,35,2|0|2|0|2|0|2|0
464,136,48370,2,0,L|416:184|360:128,1,140,0|4
239,133,49170,2,0,L|191:85|135:141,1,140
56,208,49970,6,0,L|24:176,4,35,2|0|2|0|2
96,256,50570,1,0
56,304,50770,2,0,L|16:344,4,35,2|0|2|0|2
96,256,51370,1,0
160,256,51570,2,0,L|304:256,2,140
32,256,52770,1,2
64,136,53170,6,4,L|192:304|328:120,1,420
399,295,54770,5,0
489,204,55170,1,0
399,114,55570,1,0
308,204,55970,1,0
168,152,56370,6,0,L|168:72,1,70
128,192,56770,2,2,L|48:192,1,70,2|2
168,232,57170,2,0,L|168:312,1,70,0|0
208,192,57570,2,2,L|296:192,1,70,2|2
344,192,57970,5,0
392,232,58170,2,0,L|464:304,2,70,2|2|0
344,192,58770,1,0
296,232,58970,2,0,L|232:296,2,70,2|2|0
344,192,59570,1,0
296,152,59770,2,0,L|240:96,2,70,2|2|0
344,192,60370,1,0
392,152,60570,2,0,L|456:88,2,70,2|2|0
303,96,61170,6,0,L|224:96,1,70
176,64,61570,2,0,L|176:136,1,70,2|2
208,192,61970,2,0,L|136:192,1,70
80,160,62370,2,0,L|80:232,1,70,0|2
80,296,62770,1,4
56,288,72370,5,4
112,320,72570,1,2
112,288,72670,1,2
112,256,72770,1,2
168,288,72970,1,0
224,320,73170,2,0,L|224:240,1,70
280,288,73570,1,2
472,192,73970,5,4
416,224,74170,1,2
416,192,74270,1,2
416,160,74370,1,2
360,192,74570,1,0
304,224,74770,2,0,L|304:144,1,70
248,192,75170,1,2
307,68,75570,5,4
243,68,75770,1,2
212,71,75870,1,0
184,87,75970,1,2
135,127,76170,1,2
104,180,76370,1,2
107,243,76570,1,2
107,243,76770,1,2
203,322,77170,5,4
267,322,77370,1,2
298,319,77470,1,0
326,303,77570,1,2
375,263,77770,1,2
406,210,77970,1,2
404,148,78170,1,2
404,148,78370,1,2
256,80,78770,5,4
152,192,79170,1,0
256,304,79570,1,0
360,192,79970,1,0
208,144,80370,6,0,L|168:104,2,35
208,240,80770,2,0,L|168:280,2,35,2|0|2
304,240,81170,2,0,L|344:280,2,35
304,144,81570,2,0,L|344:104,2,35,2|0|2
352,232,81970,6,0,L|272:232,1,70,0|0
160,192,82370,2,0,L|240:192,1,70,2|2
352,152,82770,2,0,L|256:152,1,70,0|0
160,104,83170,2,0,L|248:104,1,70,2|2
232,24,83570,5,0
264,24,83670,1,0
296,24,83770,1,0
360,24,83970,2,2,L|304:80,1,70
376,72,84370,1,0
408,72,84470,1,0
440,72,84570,1,0
504,72,84770,2,2,L|448:128,1,70
496,167,85170,6,0,L|439:224,3,70,4|0|2|2
405,258,85970,2,0,L|349:201,3,70,0|0|0|2
313,249,86770,2,0,L|245:317,3,70,0|0|2|2
221,339,87570,2,0,L|170:288,3,70,0|0|2|2
128,192,88370,6,0,L|48:192,2,70,4|0|0
256,88,89170,2,0,L|256:-8,2,70,0|0|0
384,192,89970,2,0,L|472:192,2,70
256,304,90770,2,0,L|256:392,2,70
256,176,91570,5,4
200,144,91770,2,0,L|120:144,2,70,0|0|0
256,176,92370,1,2
312,208,92570,2,0,L|408:208,2,70
256,176,93170,1,2
200,208,93370,2,0,L|104:208,2,70
256,176,93970,1,2
312,144,94170,2,0,L|392:144,2,70
280,72,94770,6,4,L|136:72,1,140,4|0
40,152,95570,1,8
104,152,95770,1,0
168,152,95970,1,0
224,312,96370,6,0,L|368:312,1,140,4|0
464,232,97170,1,8
400,232,97370,1,0
336,232,97570,1,0
256,312,97970,5,4
144,120,98770,1,0
368,120,99570,5,0
256,88,99970,1,0
256,200,100370,1,2
312,200,100570,1,2
283,248,100770,1,2
227,248,100970,1,2
197,200,101170,2,0,L|133:200,8,35
229,154,102170,1,2
257,105,102370,1,2
282,154,102570,1,2
400,96,102770,6,0,L|480:128,1,70,0|0
456,184,103170,2,2,L|376:152,1,70
376,216,103570,2,0,L|456:248,1,70,0|0
432,304,103970,2,2,L|352:272,1,70
310,254,104370,1,4
272,304,104570,5,2
240,298,104670,1,0
208,304,104770,1,2
176,308,104870,1,0
144,303,104970,1,2
113,297,105070,1,0
82,302,105170,1,2
16,304,105370,2,0,L|-16:232,2,70
80,200,105970,5,0
32,160,106170,1,0
80,120,106370,2,2,L|168:120,1,70
216,120,106770,1,0
168,80,106970,1,0
216,40,107170,2,2,L|288:40,1,70
352,40,107570,1,4
352,104,107770,5,2
348,135,107870,1,0
356,165,107970,1,2
350,196,108070,1,0
356,226,108170,1,2
351,257,108270,1,0
355,288,108370,1,2
352,352,108570,2,0,L|432:352,2,70
256,304,109170,6,0,L|160:304,3,70,0|0|2|2
128,336,109970,2,0,L|128:264,3,70,0|0|2|2
128,200,110770,1,4
129,134,110970,5,2
153,158,111070,1,0
177,182,111170,1,2
201,206,111270,1,0
225,182,111370,1,2
249,158,111470,1,0
273,134,111570,1,2
336,136,111770,1,2
336,136,111970,1,2
392,272,112370,6,0,L|352:312,6,35
456,272,113170,2,0,L|488:304,6,35,0|0|0|0|0|0|0
424,216,113970,5,4
360,216,114170,1,2
329,210,114270,1,0
296,216,114370,1,2
265,211,114470,1,0
232,216,114570,1,2
168,216,114770,2,0,L|80:216,3,70
80,152,115570,5,4
144,152,115770,1,2
175,146,115870,1,0
208,152,115970,1,2
239,147,116070,1,0
272,152,116170,1,2
336,152,116370,2,0,L|424:152,3,70
431,86,117170,5,4
367,86,117370,1,2
336,80,117470,1,0
303,86,117570,1,2
272,81,117670,1,0
239,86,117770,1,2
175,86,117970,2,0,L|87:86,3,70
12,153,118770,5,4
12,217,118970,1,0
16,248,119070,1,0
25,278,119170,1,0
42,304,119270,1,0
68,321,119370,1,0
97,333,119470,1,0
128,331,119570,5,2
188,313,119770,1,2
223,261,119970,1,2
228,198,120170,1,2
152,223,120370,5,4
152,159,120570,1,0
156,128,120670,1,0
165,98,120770,1,0
182,72,120870,1,0
208,55,120970,1,0
237,43,121070,1,0
268,45,121170,5,2
328,63,121370,1,2
363,115,121570,1,2
368,178,121770,1,2
292,161,121970,5,4
292,225,122170,1,0
296,256,122270,1,0
305,286,122370,1,0
322,312,122470,1,0
348,329,122570,1,0
377,341,122670,1,0
408,339,122770,5,2
468,321,122970,1,2
503,269,123170,1,2
508,206,123370,1,2
400,80,123770,5,4
256,192,123970,12,0,126370
