osu file format v5

[General]
AudioFilename: 1.05.mp3
AudioLeadIn: 0
PreviewTime: -1
Countdown: 1
SampleSet: Soft
StackLeniency: 0.7
Mode: 0
LetterboxInBreaks: 1

[Metadata]
Title:V -conclusion-
Artist:dj TAKA
Creator:Alace
Version:Cold Winter
Source:
Tags:

[Difficulty]
HPDrainRate:5
CircleSize:6
OverallDifficulty:5
SliderMultiplier:0.9
SliderTickRate:1

[Events]
//Background and Video events
0,0,"happysky.png"
//Break Periods
2,62845,68045
//Storyboard Layer 0 (Background)
//Storyboard Layer 1 (Failing)
//Storyboard Layer 2 (Passing)
//Storyboard Layer 3 (Foreground)
//Storyboard Sound Samples
//Background Colour Transformations
3,100,0,0,0

[TimingPoints]
8445,400,4,2,0,100,1
27245,400,4,1,0,100,0
37245,400,4,2,0,100,0
40445,200,4,2,0,100,1
42045,400,4,1,0,100,1
45245,400,4,2,0,43,0
48445,100,4,2,0,100,1
50045,400,4,1,0,100,1
53245,400,4,2,0,100,0
54845,400,4,2,0,57,0
56445,200,4,2,0,100,1
58045,400,4,2,0,51,1
58845,400,4,2,0,100,0
70845,200,4,2,0,100,1
72445,400,4,1,0,100,1
74045,200,4,2,0,100,1
75645,400,4,1,0,100,1
77245,100,4,2,0,100,1
78845,400,4,1,0,100,1
80445,100,4,2,0,100,1
82045,400,4,1,0,100,1
83645,400,4,2,0,100,0
104445,400,4,1,0,100,0
106045,200,4,1,0,100,1
107645,200,4,2,0,53,0
109245,200,4,1,0,100,0
110845,200,4,2,0,51,0
112445,200,4,1,0,100,0
114045,200,4,2,0,50,0
115645,200,4,1,0,100,0
117245,400,4,2,0,100,1
118845,100,4,2,0,100,1

[Colours]
Combo1 : 192,163,254
Combo2 : 85,190,247
Combo3 : 177,235,169
Combo4 : 247,204,115
Combo5 : 255,113,184

[HitObjects]
32,64,8445,1,0
95,158,8845,1,2
171,241,9245,1,0
247,324,9645,1,2
246,325,10045,1,0
320,239,10445,1,2
398,156,10845,1,0
463,63,11245,1,2
463,176,11645,5,0
464,289,12045,1,0
379,212,12445,1,0
334,316,12845,1,8
282,214,13245,1,0
231,315,13645,1,0
189,209,14045,1,0
75,210,14445,1,8
23,185,14645,5,4
72,157,14845,1,4
167,95,15245,5,2
199,48,15445,1,2
227,97,15645,1,2
337,122,16045,1,2
379,84,16245,1,2
393,139,16445,1,2
387,252,16845,1,2
339,220,17045,1,2
336,276,17245,1,2
237,332,17645,1,0
126,304,18045,5,4
46,222,18445,1,0
124,139,18845,1,2
167,103,19045,1,2
177,160,19245,1,2
221,268,19645,1,4
332,302,20045,1,0
369,191,20445,1,2
415,227,20645,1,2
428,169,20845,1,2
387,59,21245,6,2,L|101:58,1,270
57,159,22845,5,2
120,257,23245,1,2
236,263,23645,2,2,L|326:264,1,90
326,263,24245,5,4
384,263,24445,1,4
427,154,24845,6,4,L|380:116,2,45
311,133,25645,2,4,L|246:161,2,45
194,131,26445,2,4,L|137:90,2,45
51,29,27445,5,4
48,96,27645,1,4
50,212,28045,1,0
166,209,28445,1,0
282,213,28845,1,0
395,242,29245,1,0
389,125,29645,1,0
296,52,30045,1,0
293,168,30445,5,2
205,89,30845,6,2,L|13:89|13:89|13:185,1,270
44,279,32445,5,2
79,232,32645,1,0
111,280,32845,1,2
144,232,33045,1,0
177,280,33245,1,2
209,231,33445,1,0
236,282,33645,1,2
266,231,33845,1,0
298,279,34045,6,8,L|362:279,7,45,8|0|8|8|8|0|8|8
256,192,35645,12,4,37245
160,256,37645,5,2
64,192,38045,1,2
160,128,38445,1,2
160,128,38645,6,0,L|192:96|192:96|224:128|224:128|256:96|256:96|288:128|288:128|320:96|320:96|352:128|352:128|384:128|384:128|384:160|384:160|384:192,1,360
386,187,40445,6,0,L|386:237,15,45
386,232,42045,5,2
290,301,42445,1,0
260,351,42645,1,0
227,302,42845,1,0
110,302,43245,1,8
109,185,43645,1,2
109,68,44045,1,0
157,35,44245,1,0
204,69,44445,1,0
264,168,44845,1,8
256,192,45245,12,0,46645
256,192,46845,12,0,48245
256,192,48445,6,0,L|256:224|288:224|288:192,15,90
288,198,50045,5,0
195,126,50445,1,2
75,130,50845,2,8,L|75:226,1,90
76,336,51645,1,0
192,336,52045,1,2
309,336,52445,2,8,L|405:336,1,90
400,218,53245,6,0,L|432:219,14,22.5
256,192,54845,12,0,55545
256,192,55645,12,0,56345
253,190,56445,6,0,L|254:135,15,45
256,192,58045,12,0,58645
253,186,58845,5,0
164,263,59245,1,0
45,261,59645,1,0
41,144,60045,1,0
37,27,60445,1,0
137,86,60845,1,0
253,89,61245,5,4
255,147,61445,1,0
255,205,61645,1,4
255,146,61845,1,0
256,204,62045,1,4
314,206,62245,1,0
372,209,62445,1,4
430,209,62645,1,0
55,184,69245,5,4
90,137,69445,1,4
112,190,69645,1,4
140,241,69845,1,4
174,193,70045,1,4
206,241,70245,1,4
235,190,70445,1,4
269,236,70645,1,4
302,186,70845,5,0
302,186,71045,6,0,L|288:96|288:96|352:96|352:96|448:96|448:96|480:96,1,270
466,96,71845,5,0
466,96,72045,1,0
466,96,72245,1,0
448,160,72445,5,0
448,160,72645,1,0
450,218,72845,1,0
450,218,73045,1,0
452,276,73245,1,0
452,276,73445,1,0
393,278,73645,1,0
338,277,73845,1,0
338,277,74045,5,0
334,280,74245,6,0,L|282:313|282:313|239:313|239:313|201:306|201:306|171:276|171:276|144:244|144:244|129:201,1,270
130,203,75045,5,0
130,203,75245,1,0
130,203,75445,1,0
126,145,75645,6,0,L|173:86,1,45
204,80,76045,2,0,L|245:113,1,45
282,146,76445,2,0,L|320:110,1,45
364,84,76845,2,0,L|414:132,1,45
397,114,77245,5,0
397,114,77445,6,0,L|397:146|397:146|397:178|397:178|429:178,6,90
397,114,78245,5,0
397,114,78445,1,0
397,114,78645,1,0
363,164,78845,5,0
396,212,79045,1,0
348,246,79245,2,0,L|300:200,1,45
260,233,79645,1,0
206,256,79845,1,0
206,197,80045,2,0,L|160:155,1,45
173,166,80445,5,0
174,167,80645,6,0,L|187:123|175:135|211:121,6,90
173,166,81445,5,0
173,166,81645,1,0
173,166,81845,1,0
229,153,82045,5,0
273,191,82245,1,0
241,239,82445,1,0
196,277,82645,1,0
157,234,82845,5,0
130,222,82945,1,0
77,196,83145,1,0
50,182,83245,1,0
45,67,83645,6,0,L|353:65,1,270
404,140,85245,2,0,L|478:195|478:195|420:268|420:268|335:203,1,270
236,225,86845,5,0
119,210,87245,6,0,L|69:175|50:150|60:123|103:99|187:85,1,247.5
178,86,88445,6,0,L|209:40|223:14|245:28|256:61|264:99|305:89|329:40|359:32|370:32|381:46,1,337.5
378,43,90045,6,0,L|426:56|470:61|491:72|459:87|422:95|379:97|383:123|428:138|462:145|457:174,1,360
374,243,92045,5,4
315,244,92245,1,4
256,244,92445,1,4
139,208,92845,5,4
246,162,93245,1,2
129,160,93645,1,4
238,118,94045,1,2
121,113,94445,1,4
232,74,94845,1,2
283,48,95045,5,0
316,95,95245,1,2
345,44,95445,1,0
376,93,95645,1,2
346,42,95845,1,0
316,95,96045,1,2
347,144,96245,1,0
382,190,96445,1,2
309,281,96845,5,4
309,281,97045,1,4
309,281,97245,1,4
192,283,97645,5,4
143,250,97845,1,0
98,211,98045,2,2,L|99:180,2,22.5
133,163,98445,5,4
174,122,98645,1,0
218,83,98845,5,4
218,83,99045,1,0
276,81,99245,1,4
334,81,99445,1,0
392,81,99645,1,4
392,81,99845,1,0
426,128,100045,1,4
459,175,100245,1,0
461,233,100445,1,4
461,233,100645,1,8
426,280,100845,1,8
367,281,101045,1,8
308,283,101245,6,4,L|259:283,1,45
263,283,101645,2,2,L|217:245,1,45
228,254,102045,2,4,L|230:206,1,45
229,209,102445,2,2,L|197:176,1,45
197,176,102845,2,4,L|233:141,1,45
229,144,103245,2,2,L|189:114,1,45
193,117,103645,2,4,L|238:76,1,45
226,86,104045,2,2,L|277:85,1,45
329,84,104445,5,0
435,132,104845,1,0
381,235,105245,1,0
267,207,105645,5,2
267,207,105745,1,2
267,207,105845,1,2
267,207,105945,1,2
267,207,106045,6,0,L|267:144,15,45
256,192,107645,12,8,109045
256,195,109245,6,0,L|257:243,15,45
256,192,110845,12,8,112245
254,189,112445,6,0,L|309:190,15,45
256,192,114045,12,8,115445
258,190,115645,6,0,L|198:192,15,45
213,191,117245,5,2
123,266,117645,1,2
32,191,118045,1,2
120,114,118445,1,2
232,186,118845,6,2,B|232:180|234:176|240:177|243:178|248:180|254:186|260:180|263:189|255:198|258:206|264:212|260:215|252:214|246:212|241:212|236:212|235:205|228:203|223:197,32,90
