osu file format v13

[General]
AudioFilename: Tomorrow Perfume (tpz Despair Remix)SDVX.mp3
AudioLeadIn: 0
PreviewTime: -1
Countdown: 1
SampleSet: None
StackLeniency: 0.7
Mode: 0
LetterboxInBreaks: 1
WidescreenStoryboard: 1

[Editor]
DistanceSpacing: 1.2
BeatDivisor: 4
GridSize: 4
TimelineZoom: 1

[Metadata]
Title:Tomorrow Perfume (tpz Despair Remix)
TitleUnicode:Tomorrow Perfume (tpz Despair Remix)
Artist:dj TAKA
ArtistUnicode:dj TAKA
Creator:BluOxy
Version:EXHAUST
Source:SOUND VOLTEX
Tags:arrange techno t+pazolite tomorrow perfume
BeatmapID:440564
BeatmapSetID:183956

[Difficulty]
HPDrainRate:7
CircleSize:4
OverallDifficulty:7
ApproachRate:9
SliderMultiplier:1.8
SliderTickRate:1

[Events]
//Background and Video events
0,0,"327aeb04.jpg",0,0
//Break Periods
2,46298,51145
//Storyboard Layer 0 (Background)
//Storyboard Layer 1 (Fail)
//Storyboard Layer 2 (Pass)
//Storyboard Layer 3 (Foreground)
//Storyboard Sound Samples
//Background Colour Transformations
3,100,163,162,255

[TimingPoints]
922,352.941176470588,4,2,2,75,1,0
12216,-100,4,2,2,50,0,0
22098,-100,4,2,2,70,0,0
23510,-80,4,2,2,75,0,1
34804,-80,4,2,2,60,0,0
40451,-80,4,2,2,70,0,0
57392,-66.6666666666667,4,2,2,75,0,1
79980,-100,4,2,2,75,0,0
91274,-200,4,2,2,75,0,1
91627,-80,4,2,2,75,0,1
102569,-66.6666666666667,4,2,2,75,0,1
115804,-66.6666666666667,4,2,2,75,0,0

[Colours]
Combo1 : 57,0,0
Combo2 : 0,36,0
Combo3 : 0,0,51
Combo4 : 64,0,64
Combo5 : 57,57,0

[HitObjects]
200,136,921,6,0,P|152:160|96:136,2,90,4|0|0,0:0|0:0|0:0,0:0:0:0:
368,72,1451,2,0,L|320:96,1,45
440,120,1716,1,0,0:0:0:0:
420,160,1804,2,0,P|376:180|348:216,1,90
395,280,2157,6,0,L|440:280,1,45
312,332,2421,2,0,L|352:352,1,45
256,192,2686,1,0,0:0:0:0:
185,244,2863,2,0,L|207:282,1,45
104,200,3127,1,0,0:0:0:0:
92,244,3216,2,0,P|100:292|132:336,1,90
68,132,3569,1,0,0:0:0:0:
232,316,3745,6,0,P|280:292|328:292,1,90,8|0,0:0|0:0,0:0:0:0:
404,312,4098,1,0,0:0:0:0:
436,144,4274,1,0,0:0:0:0:
448,164,4363,1,0,0:0:0:0:
452,188,4451,1,0,0:0:0:0:
448,208,4539,1,0,0:0:0:0:
436,228,4627,1,0,0:0:0:0:
352,80,4804,1,0,0:0:0:0:
284,184,4980,6,0,L|348:152,1,45
164,244,5245,2,0,L|240:256,1,45
80,188,5510,2,0,P|64:146|66:102,1,90
148,64,5774,1,0,0:0:0:0:
156,60,5863,1,0,0:0:0:0:
164,56,5951,2,0,L|240:68,1,45
256,140,6127,2,0,L|211:132,1,45
316,80,6392,1,0,0:0:0:0:
400,240,6569,6,0,P|452:256|480:316,2,90,12|0|8,0:0|0:0|0:0,0:0:0:0:
328,296,7098,1,0,0:0:0:0:
308,304,7186,1,0,0:0:0:0:
284,308,7274,1,8,0:0:0:0:
260,304,7363,2,0,P|244:304|208:288,1,45
164,336,7539,2,0,P|136:304|136:292,1,45,0|8,0:0|0:0,0:0:0:0:
132,132,7804,6,0,L|76:172,1,45
260,68,7980,1,8,0:0:0:0:
260,68,8069,2,0,L|208:60,1,45
380,132,8333,2,0,P|416:184|416:228,1,90,8|0,0:0|0:0,0:0:0:0:
336,248,8598,2,0,L|376:280,1,45,0|8,0:0|0:0,0:0:0:0:
316,348,8774,2,0,L|372:348,1,45
132,132,9039,2,0,P|96:184|96:228,1,90,8|0,0:0|0:0,0:0:0:0:
112,296,9392,5,12,0:0:0:0:
192,336,9569,1,8,0:0:0:0:
208,248,9745,1,8,0:0:0:0:
288,292,9921,1,8,0:0:0:0:
468,276,10098,5,8,0:0:0:0:
464,96,10274,1,8,0:0:0:0:
308,188,10451,1,8,0:0:0:0:
312,8,10627,1,8,0:0:0:0:
168,116,10804,5,12,0:0:0:0:
36,352,11069,1,8,0:0:0:0:
36,352,11157,1,8,0:0:0:0:
212,312,11333,1,8,0:0:0:0:
388,348,11510,2,8,L|436:336,1,45
432,240,11686,2,8,L|460:200,1,45
396,140,11863,1,8,0:0:0:0:
388,140,12039,1,8,0:0:0:0:
276,108,12216,6,0,P|294:67|336:40,2,90,12|0|0,0:0|0:0|0:0,0:0:0:0:
220,212,12745,2,0,L|176:176,1,45
84,324,13098,2,2,L|80:280,2,45
276,108,13451,1,2,0:0:0:0:
356,180,13627,5,8,0:0:0:0:
356,180,13716,1,0,0:0:0:0:
356,180,13804,2,0,P|392:154|441:151,1,90
255,242,14157,2,0,L|234:188,1,45
81,271,14510,2,2,L|99:230,2,45
356,180,14863,1,2,0:0:0:0:
392,280,15039,5,8,0:0:0:0:
392,280,15127,1,0,0:0:0:0:
392,280,15216,2,0,P|436:276|480:297,1,90
273,283,15569,2,0,L|282:226,1,45
108,221,15921,2,2,L|144:195,2,45
392,280,16274,1,2,0:0:0:0:
108,220,16451,5,8,0:0:0:0:
108,220,16539,1,0,0:0:0:0:
108,220,16627,2,0,P|63:216|19:237,1,90
227,223,16980,2,0,L|217:166,1,45
392,161,17245,1,0,0:0:0:0:
388,152,17333,1,0,0:0:0:0:
384,144,17421,1,0,0:0:0:0:
380,136,17510,1,8,0:0:0:0:
108,220,17686,1,0,0:0:0:0:
156,116,17863,5,8,0:0:0:0:
156,116,17951,1,0,0:0:0:0:
156,116,18039,2,0,P|119:90|70:87,1,90
257,178,18392,2,0,L|277:124,1,45
431,207,18745,2,2,L|412:166,2,45
156,116,19098,1,2,0:0:0:0:
260,68,19274,6,0,P|241:27|200:0,2,90,8|0|0,0:0|0:0|0:0,0:0:0:0:
316,172,19804,2,0,L|360:136,1,45
452,284,20157,2,2,L|456:240,2,45
260,68,20510,1,2,0:0:0:0:
132,196,20686,6,0,P|92:177|64:136,2,90,8|0|0,0:0|0:0|0:0,0:0:0:0:
316,172,21216,2,0,L|360:136,1,45
452,284,21569,2,2,L|456:240,2,45
260,316,21921,1,2,0:0:0:0:
76,88,22098,6,0,L|32:52,1,45,8|0,0:0|0:0,0:0:0:0:
188,88,22274,2,0,L|167:34,1,45,8|8,0:0|0:0,0:0:0:0:
280,148,22451,2,0,L|289:91,1,45,8|0,0:0|0:0,0:0:0:0:
320,244,22627,2,0,L|368:224,1,45,8|0,0:0|0:0,0:0:0:0:
296,344,22804,1,8,0:0:0:0:
456,128,23069,1,8,0:0:0:0:
188,88,23333,1,8,0:0:0:0:
56,272,23510,6,0,P|104:312|160:324,1,112.5,12|0,0:0|0:0,0:0:0:0:
296,324,23863,1,8,0:0:0:0:
404,128,24039,2,0,L|444:188,1,56.25
220,112,24216,1,8,0:0:0:0:
220,112,24304,2,0,L|284:96,1,56.25
404,128,24480,2,0,L|444:188,1,56.25,0|8,0:0|0:0,0:0:0:0:
128,240,24745,2,0,L|152:180,1,56.25
220,112,24921,6,0,L|284:96,1,56.25,8|0,0:0|0:0,0:0:0:0:
404,128,25098,2,0,L|444:188,2,56.25,0|0|8,0:0|0:0|0:0,0:0:0:0:
224,264,25451,2,0,L|156:296,1,56.25
284,312,25627,2,0,L|328:352,1,56.25,8|0,0:0|0:0,0:0:0:0:
308,236,25804,2,0,L|328:176,2,56.25,0|0|8,0:0|0:0|0:0,0:0:0:0:
164,64,26157,2,0,L|136:136,1,56.25
64,196,26333,6,0,L|132:196,1,56.25,8|0,0:0|0:0,0:0:0:0:
188,288,26510,2,0,L|248:288,1,56.25
304,196,26686,1,8,0:0:0:0:
440,56,26863,2,0,L|472:108,1,56.25
248,72,27039,1,8,0:0:0:0:
248,72,27127,1,0,0:0:0:0:
248,72,27216,2,0,P|224:136|164:176,1,112.5,0|8,0:0|0:0,0:0:0:0:
116,80,27569,1,0,0:0:0:0:
92,188,27745,6,0,L|64:256,1,56.25,8|0,0:0|0:0,0:0:0:0:
164,304,27921,2,0,L|184:252,2,56.25,0|0|8,0:0|0:0|0:0,0:0:0:0:
388,272,28274,2,0,L|360:328,1,56.25
452,228,28451,1,8,0:0:0:0:
452,228,28539,2,0,P|464:160|448:116,1,112.5
376,36,28804,2,0,L|232:48,1,112.5,10|2,0:0|0:0,0:0:0:0:
116,80,29157,5,12,0:0:0:0:
8,276,29333,1,0,0:0:0:0:
232,256,29510,1,8,0:0:0:0:
20,184,29686,1,0,0:0:0:0:
76,180,29774,1,0,0:0:0:0:
132,176,29863,1,8,0:0:0:0:
188,172,29951,1,0,0:0:0:0:
244,168,30039,2,0,B|312:164|360:164|360:168,1,112.5,0|8,0:0|0:0,0:0:0:0:
412,264,30392,2,0,P|448:268|476:268,1,56.25
344,308,30569,6,0,P|340:336|344:364,2,56.25,8|0|0,0:0|0:0|0:0,0:0:0:0:
216,124,30921,1,8,0:0:0:0:
52,280,31098,1,0,0:0:0:0:
108,288,31186,2,0,P|176:300|232:296,1,112.5
244,248,31451,2,0,P|312:236|368:240,1,112.5,0|8,0:0|0:0,0:0:0:0:
448,172,31804,1,0,0:0:0:0:
360,100,31980,6,0,L|292:112,1,56.25,8|0,0:0|0:0,0:0:0:0:
224,28,32157,2,0,L|168:72,1,56.25,8|0,0:0|0:0,0:0:0:0:
92,132,32333,1,8,0:0:0:0:
212,332,32510,2,0,P|248:352|272:364,1,56.25,8|0,0:0|0:0,0:0:0:0:
292,248,32686,2,0,L|316:288|328:308,1,56.25,8|0,0:0|0:0,0:0:0:0:
408,228,32863,2,0,L|408:288,2,56.25,8|0|8,0:0|0:0|0:0,0:0:0:0:
160,48,33216,5,8,0:0:0:0:
104,76,33304,1,0,0:0:0:0:
72,128,33392,1,8,0:0:0:0:
76,196,33480,1,0,0:0:0:0:
120,264,33569,1,8,0:0:0:0:
200,296,33657,1,0,0:0:0:0:
288,304,33745,1,8,0:0:0:0:
428,192,33921,6,2,L|464:120,1,56.25,10|2,0:0|0:0,0:0:0:0:
268,72,34186,1,10,0:0:0:0:
92,216,34363,1,2,0:0:0:0:
112,236,34451,1,10,0:0:0:0:
136,252,34539,1,2,0:0:0:0:
164,264,34627,1,10,0:0:0:0:
352,312,34804,6,0,B|360:284|360:284|368:312|368:312|376:284|376:284|384:308|384:308|388:284|388:284|392:304|392:304|408:288,1,168.75,4|0,0:0|0:0,0:0:0:0:
372,220,35333,1,0,0:0:0:0:
256,240,35598,1,0,0:0:0:0:
136,176,35863,1,8,0:0:0:0:
284,148,36127,1,0,0:0:0:0:
416,40,36392,1,0,0:0:0:0:
232,72,36657,1,0,0:0:0:0:
104,192,36921,5,10,0:0:0:0:
256,272,37186,1,2,0:0:0:0:
404,192,37451,1,2,0:0:0:0:
388,116,37627,5,8,0:0:0:0:
256,84,37892,1,0,0:0:0:0:
112,132,38157,1,0,0:0:0:0:
120,300,38421,1,0,0:0:0:0:
300,352,38686,1,8,0:0:0:0:
444,208,38951,1,0,0:0:0:0:
296,44,39216,1,0,0:0:0:0:
68,104,39480,1,0,0:0:0:0:
192,328,39745,5,10,0:0:0:0:
400,184,40010,1,2,0:0:0:0:
168,88,40274,1,2,0:0:0:0:
336,92,40451,5,8,0:0:0:0:
108,268,40716,1,8,0:0:0:0:
396,268,40980,1,8,0:0:0:0:
164,96,41245,1,8,0:0:0:0:
256,368,41510,5,8,0:0:0:0:
364,84,41774,1,8,0:0:0:0:
84,292,42039,1,8,0:0:0:0:
428,296,42304,1,8,0:0:0:0:
136,80,42569,5,8,0:0:0:0:
340,176,42745,1,8,0:0:0:0:
136,80,42921,1,10,0:0:0:0:
340,176,43098,1,10,0:0:0:0:
364,84,43274,6,0,P|424:136|432:200,1,112.5,8|0,0:0|0:0,0:0:0:0:
408,276,43539,1,0,0:0:0:0:
408,276,43627,2,0,L|280:292,1,112.5,8|0,0:0|0:0,0:0:0:0:
248,188,43892,1,0,0:0:0:0:
248,188,43980,2,0,P|172:224|156:272,1,112.5,8|0,0:0|0:0,0:0:0:0:
68,312,44245,1,0,0:0:0:0:
68,312,44333,2,0,L|56:176,1,112.5,8|0,0:0|0:0,0:0:0:0:
124,56,44686,5,8,0:0:0:0:
160,36,44774,1,0,0:0:0:0:
200,32,44863,1,8,0:0:0:0:
236,44,44951,1,0,0:0:0:0:
260,76,45039,1,8,0:0:0:0:
292,100,45127,1,0,0:0:0:0:
328,116,45216,1,8,0:0:0:0:
364,100,45304,1,0,0:0:0:0:
388,68,45392,5,8,0:0:0:0:
424,56,45480,1,0,0:0:0:0:
460,72,45569,1,8,0:0:0:0:
484,104,45657,1,0,0:0:0:0:
496,140,45745,1,8,0:0:0:0:
492,180,45833,1,0,0:0:0:0:
464,208,45921,1,8,0:0:0:0:
424,216,46010,1,8,0:0:0:0:
408,252,46098,5,12,0:0:0:0:
88,72,51745,6,0,L|208:64,1,112.5,8|0,0:0|0:0,0:0:0:0:
255,58,52010,1,0,0:0:0:0:
312,52,52098,1,8,0:0:0:0:
284,160,52274,2,0,L|364:152,1,56.25
396,148,52451,1,0,0:0:0:0:
312,320,52627,1,0,0:0:0:0:
284,324,52716,1,0,0:0:0:0:
256,328,52804,1,8,0:0:0:0:
228,224,52980,1,0,0:0:0:0:
200,228,53069,1,0,0:0:0:0:
172,232,53157,6,0,P|144:184|152:64,2,168.75,8|2|2,0:0|0:0|0:0,0:0:0:0:
340,152,53863,2,2,P|368:200|360:320,2,168.75,10|2|2,0:0|0:0|0:0,0:0:0:0:
264,68,54569,5,8,0:0:0:0:
236,72,54657,1,0,0:0:0:0:
208,84,54745,1,0,0:0:0:0:
188,104,54833,1,0,0:0:0:0:
140,76,54921,5,8,0:0:0:0:
124,100,55010,1,0,0:0:0:0:
112,124,55098,1,0,0:0:0:0:
112,152,55186,1,0,0:0:0:0:
60,172,55274,5,8,0:0:0:0:
60,200,55363,1,0,0:0:0:0:
72,224,55451,1,0,0:0:0:0:
92,244,55539,1,0,0:0:0:0:
116,256,55627,2,0,L|176:272,2,56.25,8|0|8,0:0|0:0|0:0,0:0:0:0:
332,264,55980,6,0,B|388:276|388:276|420:240|404:200,1,112.5,8|0,0:0|0:0,0:0:0:0:
409,209,56245,1,0,0:0:0:0:
409,192,56333,1,8,0:0:0:0:
408,80,56510,1,0,0:0:0:0:
408,80,56686,6,0,B|356:52|356:52|332:104,1,112.5,8|0,0:0|0:0,0:0:0:0:
104,304,57039,2,2,B|156:332|156:332|180:280,1,112.5
220,156,57392,5,8,0:0:0:0:
304,260,57657,1,0,0:0:0:0:
364,140,57921,1,0,0:0:0:0:
248,72,58098,5,8,0:0:0:0:
400,208,58363,1,0,0:0:0:0:
204,260,58627,1,0,0:0:0:0:
328,100,58804,5,8,0:0:0:0:
88,108,58980,2,0,L|56:172,2,67.5000025749208,0|0|8,0:0|0:0|0:0,0:0:0:0:
172,292,59333,1,0,0:0:0:0:
376,116,59510,5,8,0:0:0:0:
56,208,59686,2,0,L|92:276,2,67.5000025749208,0|0|8,0:0|0:0|0:0,0:0:0:0:
280,360,60039,1,0,0:0:0:0:
256,200,60216,5,8,0:0:0:0:
424,116,60392,2,0,L|456:176,2,67.5000025749208,0|0|8,0:0|0:0|0:0,0:0:0:0:
136,268,60745,1,0,0:0:0:0:
340,92,60921,5,8,0:0:0:0:
454,215,61098,2,0,L|424:276,2,67.5000025749208,0|0|8,0:0|0:0|0:0,0:0:0:0:
184,284,61451,1,0,0:0:0:0:
308,124,61627,5,8,0:0:0:0:
112,176,61892,1,0,0:0:0:0:
264,312,62157,1,8,0:0:0:0:
148,244,62333,5,10,0:0:0:0:
208,124,62598,1,2,0:0:0:0:
292,228,62863,1,10,0:0:0:0:
104,328,63039,6,0,P|176:312|240:320,1,135.000005149842,8|0,0:0|0:0,0:0:0:0:
304,332,63304,1,0,0:0:0:0:
372,320,63392,2,0,P|408:264|400:176,1,135.000005149842,8|0,0:0|0:0,0:0:0:0:
236,216,63745,2,0,P|304:180|328:116,1,135.000005149842,8|0,0:0|0:0,0:0:0:0:
316,64,64010,1,0,0:0:0:0:
256,32,64098,2,0,L|120:88,1,135.000005149842,8|0,0:0|0:0,0:0:0:0:
128,216,64451,5,8,0:0:0:0:
312,300,64716,1,0,0:0:0:0:
312,300,64804,1,8,0:0:0:0:
304,100,64980,1,0,0:0:0:0:
160,56,65157,5,8,0:0:0:0:
188,336,65421,1,0,0:0:0:0:
188,336,65510,1,8,0:0:0:0:
432,192,65686,1,0,0:0:0:0:
88,168,65863,5,8,0:0:0:0:
108,144,65951,1,0,0:0:0:0:
128,168,66039,1,0,0:0:0:0:
148,192,66127,1,0,0:0:0:0:
168,168,66216,1,10,0:0:0:0:
184,144,66304,1,2,0:0:0:0:
208,168,66392,1,2,0:0:0:0:
228,192,66480,1,2,0:0:0:0:
248,168,66569,2,0,B|312:136|320:208|440:196|460:156,1,202.500007724762,10|2,0:0|0:0,0:0:0:0:
444,172,67098,1,0,0:0:0:0:
256,192,67274,12,8,67980,0:0:0:0:
408,176,68333,6,2,P|376:96|304:160,1,202.500007724762
288,232,68686,5,8,0:0:0:0:
208,124,68951,1,0,0:0:0:0:
208,124,69039,1,0,0:0:0:0:
148,244,69216,1,0,0:0:0:0:
264,312,69392,5,8,0:0:0:0:
112,176,69657,1,0,0:0:0:0:
112,176,69745,1,0,0:0:0:0:
308,124,69921,1,0,0:0:0:0:
184,284,70098,5,8,0:0:0:0:
424,276,70274,1,0,0:0:0:0:
424,276,70363,1,0,0:0:0:0:
424,276,70451,1,8,0:0:0:0:
340,92,70627,1,0,0:0:0:0:
136,268,70804,5,8,0:0:0:0:
456,176,70980,1,0,0:0:0:0:
456,176,71069,1,0,0:0:0:0:
456,176,71157,1,8,0:0:0:0:
232,24,71333,1,0,0:0:0:0:
280,360,71510,5,8,0:0:0:0:
87,267,71686,1,0,0:0:0:0:
87,267,71774,1,0,0:0:0:0:
87,267,71863,1,0,0:0:0:0:
376,116,72039,1,0,0:0:0:0:
172,292,72216,5,8,0:0:0:0:
57,168,72392,1,0,0:0:0:0:
57,168,72480,1,0,0:0:0:0:
57,168,72569,1,0,0:0:0:0:
328,100,72745,1,0,0:0:0:0:
204,260,72921,5,8,0:0:0:0:
400,208,73186,1,0,0:0:0:0:
400,208,73274,1,8,0:0:0:0:
248,72,73451,1,0,0:0:0:0:
364,140,73627,5,10,0:0:0:0:
304,260,73892,1,2,0:0:0:0:
304,260,73980,1,8,0:0:0:0:
220,156,74157,1,2,0:0:0:0:
156,60,74333,6,0,P|92:104|72:172,1,135.000005149842,8|0,0:0|0:0,0:0:0:0:
44,220,74598,1,0,0:0:0:0:
76,280,74686,2,0,L|220:280,1,135.000005149842,8|0,0:0|0:0,0:0:0:0:
420,321,75039,2,0,P|393:260|336:228,1,135.000005149842,8|0,0:0|0:0,0:0:0:0:
392,128,75304,1,0,0:0:0:0:
392,128,75392,2,0,L|256:92,1,135.000005149842,8|0,0:0|0:0,0:0:0:0:
136,320,75745,5,10,0:0:0:0:
200,24,76010,1,2,0:0:0:0:
440,208,76274,1,10,0:0:0:0:
28,124,76451,5,10,0:0:0:0:
412,0,76716,1,2,0:0:0:0:
312,376,76980,1,10,0:0:0:0:
252,256,77157,5,10,0:0:0:0:
220,248,77245,1,2,0:0:0:0:
200,220,77333,1,2,0:0:0:0:
208,188,77421,1,2,0:0:0:0:
236,168,77510,1,8,0:0:0:0:
268,172,77598,1,0,0:0:0:0:
288,200,77686,1,0,0:0:0:0:
284,232,77774,1,0,0:0:0:0:
252,256,77863,6,2,P|188:336|72:288,1,202.500007724762,10|2,0:0|0:0,0:0:0:0:
44,124,78392,1,2,0:0:0:0:
260,127,78569,6,0,P|317:50|413:63,1,202.500007724762,10|2,0:0|0:0,0:0:0:0:
468,260,79098,1,2,0:0:0:0:
200,8,79274,5,10,0:0:0:0:
100,384,79539,1,2,0:0:0:0:
484,260,79804,1,0,0:0:0:0:
200,136,79980,6,0,P|152:160|96:136,2,90,8|0|0,0:0|0:0|0:0,0:0:0:0:
368,72,80510,2,0,L|320:96,1,45
440,120,80774,1,0,0:0:0:0:
420,160,80863,2,0,P|376:180|348:216,1,90
395,280,81216,6,0,L|440:280,1,45
312,332,81480,2,0,L|352:352,1,45
256,192,81745,1,0,0:0:0:0:
185,244,81921,2,0,L|207:282,1,45
104,200,82186,1,0,0:0:0:0:
92,244,82274,2,0,P|100:292|132:336,1,90
68,132,82627,1,0,0:0:0:0:
232,316,82804,6,0,P|280:292|328:292,1,90,8|0,0:0|0:0,0:0:0:0:
404,312,83157,1,0,0:0:0:0:
436,144,83333,1,0,0:0:0:0:
416,184,83421,1,0,0:0:0:0:
376,204,83510,1,0,0:0:0:0:
336,188,83598,1,0,0:0:0:0:
308,152,83686,1,0,0:0:0:0:
364,80,83863,1,0,0:0:0:0:
216,104,84039,6,0,L|280:72,1,45
156,196,84216,1,8,0:0:0:0:
156,196,84304,2,0,L|232:208,1,45
64,228,84569,2,0,P|48:186|50:142,1,90
148,64,84833,1,0,0:0:0:0:
156,60,84921,1,8,0:0:0:0:
164,56,85010,2,0,L|240:68,1,45
244,144,85186,2,0,L|289:152,1,45
380,84,85451,1,0,0:0:0:0:
112,144,85627,6,0,P|60:128|32:68,2,90,8|0|8,0:0|0:0|0:0,0:0:0:0:
184,88,86157,1,0,0:0:0:0:
224,68,86245,1,0,0:0:0:0:
268,68,86333,1,8,0:0:0:0:
312,80,86421,2,0,P|336:96|344:124,1,45
432,112,86598,2,0,P|452:152|440:184,1,45,0|8,0:0|0:0,0:0:0:0:
380,252,86863,6,0,L|436:212,1,45
252,316,87039,1,8,0:0:0:0:
252,316,87127,2,0,L|304:324,1,45
132,252,87392,2,0,P|96:200|96:156,1,90,8|0,0:0|0:0,0:0:0:0:
176,136,87657,2,0,L|136:104,1,45,0|8,0:0|0:0,0:0:0:0:
196,36,87833,2,0,L|140:36,1,45
380,252,88098,2,0,P|416:200|416:156,1,90,8|0,0:0|0:0,0:0:0:0:
400,88,88451,5,8,0:0:0:0:
304,40,88627,1,8,0:0:0:0:
292,148,88804,1,8,0:0:0:0:
196,100,88980,1,8,0:0:0:0:
44,108,89157,5,8,0:0:0:0:
40,320,89333,1,8,0:0:0:0:
208,176,89510,1,8,0:0:0:0:
236,384,89686,1,8,0:0:0:0:
380,252,89863,5,8,0:0:0:0:
476,32,90127,1,2,0:0:0:0:
476,32,90216,1,2,0:0:0:0:
228,88,90392,1,2,0:0:0:0:
96,56,90569,2,8,L|48:68,1,45
80,156,90745,2,8,L|52:196,1,45
128,276,90921,1,8,0:0:0:0:
228,316,91098,1,8,0:0:0:0:
340,292,91274,6,2,L|392:292,1,45,10|0,0:0|0:0,0:0:0:0:
428,292,91627,1,8,0:0:0:0:
292,172,91804,2,0,L|340:208,1,56.25
428,60,92069,2,0,L|436:120,3,56.25,0|0|0|8,0:0|0:0|0:0|0:0,0:0:0:0:
236,276,92510,1,0,0:0:0:0:
248,164,92686,5,0,0:0:0:0:
192,156,92774,1,0,0:0:0:0:
156,204,92863,2,0,P|120:230|48:232,1,112.5,0|8,0:0|0:0,0:0:0:0:
257,142,93216,2,0,L|280:200,1,56.25,0|0,0:0|0:0,0:0:0:0:
431,113,93480,2,0,L|412:168,3,56.25,0|0|0|8,0:0|0:0|0:0|0:0,0:0:0:0:
156,204,93921,1,0,0:0:0:0:
224,116,94098,5,0,0:0:0:0:
176,84,94186,1,0,0:0:0:0:
120,104,94274,2,0,P|76:108|12:72,1,112.5,0|8,0:0|0:0,0:0:0:0:
239,101,94627,2,0,L|228:160,1,56.25
404,164,94892,2,0,L|356:200,3,56.25,0|0|0|8,0:0|0:0|0:0|0:0,0:0:0:0:
120,104,95333,1,0,0:0:0:0:
292,140,95510,5,8,0:0:0:0:
348,152,95598,1,0,0:0:0:0:
404,164,95686,2,0,P|449:168|504:128,1,112.5,0|8,0:0|0:0,0:0:0:0:
285,161,96039,2,0,L|300:220,1,56.25
120,223,96304,1,0,0:0:0:0:
140,276,96392,1,0,0:0:0:0:
176,320,96480,1,0,0:0:0:0:
228,344,96569,1,8,0:0:0:0:
404,164,96745,1,8,0:0:0:0:
292,184,96921,5,8,0:0:0:0:
304,240,97010,1,0,0:0:0:0:
356,268,97098,2,0,P|393:294|464:300,1,112.5,0|8,0:0|0:0,0:0:0:0:
255,206,97451,2,0,L|232:264,1,56.25
81,177,97716,2,0,L|104:232,3,56.25,0|0|0|8,0:0|0:0|0:0|0:0,0:0:0:0:
356,268,98157,1,0,0:0:0:0:
252,316,98333,6,0,P|271:357|336:384,2,112.5,8|0|8,0:0|0:0|0:0,0:0:0:0:
196,212,98863,2,0,L|152:248,1,56.25
60,100,99127,2,0,L|52:164,3,56.25,0|0|0|8,0:0|0:0|0:0|0:0,0:0:0:0:
252,316,99569,1,0,0:0:0:0:
380,188,99745,6,0,P|420:207|456:264,2,112.5,8|8|8,0:0|0:0|0:0,0:0:0:0:
196,172,100274,2,0,L|144:128,2,56.25
376,112,100539,1,0,0:0:0:0:
416,196,100627,2,0,L|444:252,1,56.25
484,332,100892,1,0,0:0:0:0:
484,332,100980,1,8,0:0:0:0:
484,332,101069,1,8,0:0:0:0:
480,332,101157,6,0,L|436:296,1,56.25,8|0,0:0|0:0,0:0:0:0:
332,336,101333,2,0,L|314:282,1,56.25,0|8,0:0|0:0,0:0:0:0:
200,276,101510,2,0,L|209:220,1,56.25
128,144,101686,2,0,L|179:120,1,56.25,8|0,0:0|0:0,0:0:0:0:
224,16,101863,1,2,0:0:0:0:
292,16,101951,1,2,0:0:0:0:
356,32,102039,1,2,0:0:0:0:
416,64,102127,1,2,0:0:0:0:
464,112,102216,2,2,P|480:192|476:232,1,112.5,10|2,0:0|0:0,0:0:0:0:
428,276,102569,6,0,L|296:328,1,135.000005149842,8|0,0:0|0:0,0:0:0:0:
292,164,102921,1,8,0:0:0:0:
160,316,103098,1,0,0:0:0:0:
124,244,103186,1,0,0:0:0:0:
88,172,103274,2,0,L|48:92,1,67.5000025749208,8|0,0:0|0:0,0:0:0:0:
188,96,103451,2,0,L|212:32,1,67.5000025749208
316,108,103627,1,8,0:0:0:0:
342,282,103804,2,0,L|400:248,1,67.5000025749208
236,261,103980,6,2,P|266:245|288:220,1,67.5000025749208,10|2,0:0|0:0,0:0:0:0:
208,136,104157,2,2,P|178:151|156:177,1,67.5000025749208,10|2,0:0|0:0,0:0:0:0:
296,264,104333,6,2,P|325:248|347:222,1,67.5000025749208,10|2,0:0|0:0,0:0:0:0:
152,144,104510,2,2,P|122:159|100:185,1,67.5000025749208,10|2,0:0|0:0,0:0:0:0:
100,264,104686,5,10,0:0:0:0:
152,324,104774,1,0,0:0:0:0:
228,352,104863,1,0,0:0:0:0:
308,340,104951,1,0,0:0:0:0:
376,296,105039,2,0,P|432:236|448:172,1,135.000005149842,8|0,0:0|0:0,0:0:0:0:
344,60,105392,6,0,L|200:72,1,135.000005149842,8|0,0:0|0:0,0:0:0:0:
72,156,105745,1,8,0:0:0:0:
72,156,105833,1,0,0:0:0:0:
152,324,106010,1,0,0:0:0:0:
212,272,106098,2,0,L|232:204,1,67.5000025749208,8|0,0:0|0:0,0:0:0:0:
272,92,106274,2,0,L|300:184,1,67.5000025749208
340,268,106451,2,0,P|368:196|376:124,1,135.000005149842,8|0,0:0|0:0,0:0:0:0:
152,44,106804,6,0,L|136:120,1,67.5000025749208,8|0,0:0|0:0,0:0:0:0:
120,188,106980,2,0,L|106:254,1,67.5000025749208
88,332,107157,1,8,0:0:0:0:
276,220,107333,1,0,0:0:0:0:
252,268,107421,1,0,0:0:0:0:
272,320,107510,1,8,0:0:0:0:
316,348,107598,1,0,0:0:0:0:
368,340,107686,1,0,0:0:0:0:
400,296,107774,1,0,0:0:0:0:
376,240,107863,2,0,P|368:168|408:104,1,135.000005149842,10|2,0:0|0:0,0:0:0:0:
308,52,108216,6,0,P|268:44|232:52,1,67.5000025749208,8|0,0:0|0:0,0:0:0:0:
192,64,108392,2,0,L|92:176,1,135.000005149842,0|8,0:0|0:0,0:0:0:0:
112,272,108745,2,0,L|192:240,1,67.5000025749208
204,328,108921,2,0,L|268:352,1,67.5000025749208,8|0,0:0|0:0,0:0:0:0:
300,280,109098,2,0,L|368:304,1,67.5000025749208
408,228,109274,2,0,L|476:204,2,67.5000025749208,8|0|0,0:0|0:0|0:0,0:0:0:0:
292,84,109627,6,0,L|220:60,1,67.5000025749208,8|0,0:0|0:0,0:0:0:0:
212,156,109804,2,0,L|156:192,1,67.5000025749208
316,188,109980,1,8,0:0:0:0:
404,96,110157,2,0,L|320:72,1,67.5000025749208
196,40,110333,2,0,L|208:108,1,67.5000025749208,8|0,0:0|0:0,0:0:0:0:
228,252,110510,1,0,0:0:0:0:
404,252,110686,1,8,0:0:0:0:
96,144,110863,1,0,0:0:0:0:
444,80,111039,5,8,0:0:0:0:
208,304,111216,1,8,0:0:0:0:
172,8,111392,1,8,0:0:0:0:
456,276,111569,1,8,0:0:0:0:
24,164,111745,1,8,0:0:0:0:
480,60,111921,1,8,0:0:0:0:
424,56,112010,1,0,0:0:0:0:
376,80,112098,1,8,0:0:0:0:
348,124,112186,1,8,0:0:0:0:
348,176,112274,2,8,L|376:240,1,67.5000025749208
420,308,112451,5,8,0:0:0:0:
260,332,112627,1,0,0:0:0:0:
180,312,112716,1,8,0:0:0:0:
124,256,112804,1,8,0:0:0:0:
244,148,112980,1,0,0:0:0:0:
112,52,113157,1,8,0:0:0:0:
424,56,113333,1,2,0:0:0:0:
424,56,113421,1,10,0:0:0:0:
180,312,113598,1,2,0:0:0:0:
180,312,113686,1,10,0:0:0:0:
56,156,113863,5,8,0:0:0:0:
464,156,114127,1,8,0:0:0:0:
112,352,114392,1,8,0:0:0:0:
256,36,114657,1,8,0:0:0:0:
372,352,114921,1,8,0:0:0:0:
208,252,115098,1,8,0:0:0:0:
56,156,115274,1,8,0:0:0:0:
464,156,115539,1,8,0:0:0:0:
112,352,115804,1,12,0:0:0:0:
