osu file format v5

[General]
AudioFilename: Snow Storm.mp3
AudioLeadIn: 0
PreviewTime: -1
Countdown: 1
SampleSet: Soft
StackLeniency: 0.7
Mode: 0
LetterboxInBreaks: 1
EditorDistanceSpacing: 1

[Metadata]
Title:Snow Storm
Artist:dj TAKA
Creator:Alace
Version:Normal
Source:Beatmania IIDX Gold
Tags:video game

[Difficulty]
HPDrainRate:3
CircleSize:4
OverallDifficulty:5
SliderMultiplier:1.4
SliderTickRate:0.5

[Events]
//Background and Video events
0,0,"Snow.png"
Video,-320,"#movie.avi"
//Break Periods
2,54603,59704
2,100741,101203
//Storyboard Layer 0 (Background)
//Storyboard Layer 1 (Fail)
//Storyboard Layer 2 (Pass)
//Storyboard Layer 3 (Foreground)
//Storyboard Sound Samples
//Background Colour Transformations
3,100,0,0,0

[TimingPoints]
1438,413.793103448276,4,2,1,70,1,0
4438,-100,4,2,1,82,0,0
4955,-100,4,2,1,71,0,0
7748,-100,4,2,1,80,0,0
8265,-100,4,2,1,70,0,0
11058,-100,4,2,1,81,0,0
11575,-100,4,2,1,70,0,0
12732,-100,4,2,1,60,0,0
13127,-100,4,2,1,70,0,0
13541,-100,4,2,1,80,0,0
13955,-100,4,2,1,89,0,0
14472,-100,4,2,1,59,0,0
14782,-100,4,2,1,50,0,0
14989,-100,4,2,1,70,0,0
15610,-100,4,2,1,51,0,0
15817,-100,4,2,1,70,0,0
16438,-100,4,2,1,50,0,0
16644,-100,4,2,1,70,0,0
17265,-100,4,2,1,51,0,0
17472,-100,4,2,1,70,0,0
17679,-100,4,2,1,81,0,0
18093,-100,4,2,1,51,0,0
18300,-100,4,2,1,70,0,0
18920,-100,4,2,1,49,0,0
19127,-100,4,2,1,70,0,0
19438,-100,4,2,1,90,0,0
21506,-100,4,1,1,50,0,0
21817,-100,4,2,1,59,0,0
22334,-100,4,1,1,50,0,0
22644,-100,4,2,1,62,0,0
23162,-100,4,1,1,50,0,0
23472,-100,4,2,1,61,0,0
23989,-100,4,1,1,50,0,0
24300,-100,4,2,1,69,0,0
24713,-100,4,2,1,81,0,0
24920,-100,4,1,1,48,0,0
25231,-100,4,2,1,81,0,0
25748,-100,4,1,1,49,0,0
26058,-100,4,2,1,49,0,0
27713,-100,4,2,1,50,0,0
28127,-100,4,2,1,81,0,0
39196,-100,4,2,1,70,0,0
39610,-100,4,2,1,81,0,0
40024,-100,4,2,1,89,0,0
40334,-100,4,1,1,41,0,0
40438,-100,4,1,1,50,0,0
40644,-100,4,1,1,60,0,0
40851,-100,4,1,1,71,0,0
41058,-100,4,2,1,55,0,0
41369,-100,4,2,1,81,0,0
54403,-100,4,2,1,61,0,0
60610,-100,4,2,1,41,0,0
62472,-100,4,2,1,59,0,0
63300,-100,4,2,1,81,0,0
64231,-100,4,2,1,68,0,0
72196,-100,4,2,1,81,0,0
73231,-100,4,2,1,100,0,0
74058,-100,4,2,1,49,0,0
74575,-100,4,1,1,49,0,0
75713,-100,4,2,1,81,0,0
76231,-100,4,1,1,49,0,0
77369,-100,4,2,1,79,0,0
77886,-100,4,1,1,49,0,0
78196,-100,4,2,1,82,0,0
78506,-100,4,1,1,49,0,0
79024,-100,4,2,1,80,0,0
79541,-100,4,1,1,49,0,0
79851,-100,4,2,1,80,0,0
80162,-100,4,1,1,49,0,0
80679,-100,4,2,1,49,0,0
81093,-100,4,2,1,79,0,0
85748,-100,4,1,1,49,0,0
86472,-100,4,1,1,59,0,0
86886,-100,4,1,1,18,0,0
86989,-100,4,1,1,59,0,0
87196,-100,4,1,1,19,0,0
87300,-100,4,1,1,70,0,0
87403,-100,4,2,1,81,0,0
87713,-100,4,1,1,61,0,0
88127,-100,4,2,1,79,0,0
88541,-100,4,1,1,61,0,0
88955,-100,4,2,1,80,0,0
89369,-100,4,1,1,61,0,0
89782,-100,4,2,1,81,0,0
90196,-100,4,1,1,61,0,0
90610,-100,4,2,1,81,0,0
91127,-100,4,1,1,61,0,0
91438,-100,4,2,1,80,0,0
91955,-100,4,1,1,61,0,0
92265,-100,4,2,1,80,0,0
92782,-100,4,1,1,61,0,0
93093,-100,4,1,1,49,0,0
93506,-100,4,1,1,19,0,0
93610,-100,4,1,1,49,0,0
93817,-100,4,1,1,20,0,0
93920,-100,4,1,1,70,0,0
94024,-100,4,2,1,69,0,0
97334,-100,4,1,1,42,0,0
97748,-100,4,1,1,56,0,0
98162,-100,4,1,1,73,0,0
98575,-100,4,1,1,77,0,0
99300,-100,4,1,1,71,0,0
99506,-100,4,1,1,69,0,0
99713,-100,4,1,1,60,0,0
99920,-100,4,1,1,51,0,0
100127,-100,4,1,1,36,0,0
100334,-100,4,1,1,31,0,0
101989,-100,4,2,1,80,0,0
108093,-100,4,2,1,61,0,0
108920,-100,4,2,1,80,0,0
115438,-100,4,2,1,61,0,0
115748,-100,4,2,1,90,0,0
117920,-100,4,2,1,61,0,0
118851,-100,4,2,1,90,0,0
125472,-100,4,2,1,61,0,0
128162,-100,4,1,1,39,0,0
128782,-100,4,2,1,62,0,0

[Colours]
Combo1 : 32,143,255
Combo2 : 179,217,255
Combo3 : 132,193,255

[HitObjects]
216,152,1438,2,0,B|96:64,1,140,0|2
216,232,2265,2,0,B|96:320,1,140,0|2
296,232,3093,2,0,B|416:320,1,140,0|2
296,152,3920,2,0,B|416:64,1,140,0|2
480,72,4541,6,0,B|480:128,2,35
336,72,5162,1,2
192,72,5575,1,0
128,48,5782,1,0
64,72,5989,1,2
128,192,6403,1,0
264,192,6817,1,2
200,320,7231,1,0
264,336,7438,1,0
328,320,7644,1,2
392,336,7851,6,0,B|432:320,2,35
456,216,8472,1,2
392,88,8886,1,0
344,32,9093,1,0
320,104,9300,1,2
184,64,9713,1,0
64,136,10127,1,2
184,200,10541,1,0
120,240,10748,1,0
184,272,10955,1,2
232,320,11162,6,0,B|264:360,2,35
368,304,11782,1,2
472,208,12196,1,0
456,64,12610,1,2
384,64,12817,6,0,B|392:112,2,35,0|0|0
312,64,13231,2,0,B|320:112,2,35,0|0|0
240,64,13644,2,0,B|248:112,2,35
168,64,14058,2,0,B|176:112,2,35,0|0|0
56,144,14679,6,0,B|32:224,2,70,4|2|2
128,264,15506,2,0,B|152:184,2,70,0|2|2
256,200,16334,2,0,B|232:280,2,70,0|2|2
328,320,17161,2,0,B|352:240,2,70,0|2|2
400,336,17782,6,0,B|416:296,2,35
328,320,18196,1,2
256,336,18403,1,2
128,280,18817,1,0
72,232,19024,1,2
72,160,19231,1,2
224,216,19644,6,0,B|272:160|320:208|352:152,3,140,0|0|0|0
480,120,21300,5,0
352,64,21713,1,0
280,80,21920,2,0,B|232:88,2,35,0|2|2
144,128,22541,1,0
208,152,22748,2,0,B|256:160,2,35,0|2|2
344,192,23369,1,0
280,224,23575,2,0,B|232:232,2,35,0|2|2
144,272,24196,1,0
208,296,24403,2,0,B|256:304,2,35,2|2|2
144,272,24817,5,0
144,272,25024,1,0
256,192,25438,1,0
256,192,25644,1,0
256,192,25851,1,0
256,192,26058,12,0,27506
120,280,27920,5,4
256,296,28334,1,2
392,280,28748,1,0
328,152,29162,1,2
184,152,29575,1,0
256,272,29989,1,2
184,152,30403,1,0
328,152,30817,1,2
256,120,31024,6,0,B|256:72,2,35
120,168,31644,1,2
24,272,32058,1,0
56,336,32265,1,0
128,344,32472,1,2
256,296,32886,1,0
384,344,33300,1,2
456,224,33713,1,0
472,152,33920,1,0
432,88,34127,1,2
400,160,34334,6,0,B|352:168,2,35
336,288,34955,1,2
200,312,35369,2,0,B|120:312|104:224,1,140,0|2
200,72,36196,2,0,B|120:72|104:160,1,140,0|2
304,192,37024,2,0,B|152:192,1,140,0|2
96,192,37644,6,0,B|48:192,2,35
168,192,38058,1,0
240,192,38265,1,2
376,192,38679,1,0
440,224,38886,1,0
440,152,39093,1,2
376,120,39300,6,0,B|352:88,2,35
312,152,39713,2,0,B|296:192,2,35
248,120,40127,2,0,B|224:80,2,35
184,152,40541,1,0
112,152,40748,1,0
40,152,40955,1,0
40,152,41162,5,4
112,272,41575,1,2
240,320,41989,2,0,B|320:336,1,70
376,344,42403,1,2
296,224,42817,1,0
416,160,43231,1,2
320,56,43644,2,0,B|240:88,1,70
200,128,44058,1,2
136,96,44265,6,0,B|96:80,2,35
32,192,44886,1,2
88,232,45093,2,0,B|128:256,2,35
208,160,45713,1,2
240,296,46127,6,0,B|312:336|376:296,3,140,0|2|0|2
464,192,47782,6,0,B|464:48,1,140,0|2
360,192,48610,2,0,B|360:336,1,140,0|2
256,192,49438,2,0,B|256:48,1,140,0|2
152,192,50265,2,0,B|152:344,1,140,0|2
224,328,50886,6,0,B|224:280,2,35
296,328,51300,1,0
368,328,51506,1,2
368,184,51920,1,0
296,184,52127,1,0
224,184,52334,1,2
256,192,52748,12,4,54403
32,192,61024,6,0,B|136:80|168:320|272:192,1,280
268,195,62265,5,0
408,192,62679,5,0
336,72,63093,1,0
264,192,63506,1,0
264,192,63713,1,0
336,192,63920,1,0
336,192,64127,1,0
408,192,64334,1,0
408,192,64541,1,0
480,192,64748,1,0
480,192,64955,1,0
480,120,65162,6,0,B|456:96|456:96|424:120|424:120|392:96|392:96|368:120|368:120|336:96|336:96|312:120|312:120|288:96|288:96|264:120,1,280
56,112,66610,2,0,B|56:160,2,35
176,176,67231,1,0
256,64,67644,5,0
256,344,68472,1,0
40,96,69300,1,0
472,288,70127,1,0
40,192,70955,1,0
472,192,71782,1,0
192,192,72610,5,0
256,64,73024,1,0
312,192,73438,1,0
256,320,73851,1,0
392,320,74265,5,4
456,288,74472,1,0
472,216,74679,2,0,B|488:112|376:32,1,210
312,40,75506,1,0
168,56,75920,1,2
96,72,76127,1,0
48,128,76334,2,0,B|8:240|112:312,1,210
176,328,77162,1,0
256,216,77575,6,0,B|328:264,2,70,2|0|0
136,136,78403,2,0,B|64:88,2,70,2|0|0
272,136,79231,2,0,B|344:88,2,70,2|0|0
152,216,80058,2,0,B|80:264,2,70,2|0|0
224,336,80886,5,4
360,360,81300,1,2
496,328,81713,1,0
440,200,82127,1,2
296,200,82541,1,0
368,80,82955,1,2
440,200,83368,1,0
296,200,83782,1,2
176,120,84196,6,0,B|176:48,1,70,2|0
104,144,84610,2,0,B|32:96,1,70,2|0
104,240,85024,2,0,B|32:288,1,70,2|0
176,264,85438,2,0,B|176:336,1,70,2|0
176,192,85851,2,0,B|320:192,1,140
456,192,86679,6,0,B|504:192,6,35
456,120,87506,6,0,B|312:120,1,140,2|0
432,200,88334,2,0,B|280:200,1,140,2|0
408,280,89162,2,0,B|256:280,1,140,2|0
384,360,89989,2,0,B|232:360,1,140,2|0
104,336,90817,5,2
64,272,91024,1,0
136,272,91231,1,0
256,208,91644,1,2
216,144,91851,1,0
288,144,92058,1,0
416,88,92472,1,2
376,24,92679,1,0
448,24,92886,1,0
416,160,93300,2,0,B|416:216,6,35
344,160,94127,6,0,B|344:240,3,70,2|0|2|0
272,224,94955,2,0,B|208:272|128:184|64:216,1,210,2|0
64,144,95782,2,0,B|64:72,3,70,2|0|2|0
136,72,96610,2,0,B|200:120|280:32|344:64,1,210,2|0
408,64,97438,5,0
472,96,97644,1,0
408,136,97851,1,0
472,168,98058,1,0
408,208,98265,1,0
472,240,98472,1,0
408,280,98679,1,0
472,312,98886,1,0
416,352,99093,2,0,B|360:352,14,35
72,296,102403,5,0
200,344,102817,1,2
336,328,103231,2,0,B|408:296,3,70,0|2|2|0
464,272,104058,1,0
464,128,104472,1,2
368,24,104886,2,0,B|304:56,3,70,0|2|2|0
248,96,105713,6,0,B|200:112,4,35,0|0|0|0|2
256,232,106541,2,0,B|296:256,4,35,0|0|0|0|2
392,192,107369,1,2
376,120,107575,1,0
304,112,107782,1,2
256,168,107989,1,0
320,208,108196,2,0,B|304:256,6,35,2|0|2|0|2|0|2
344,144,109024,5,0
208,112,109438,1,2
88,176,109851,1,0
40,304,110265,1,2
176,304,110679,6,0,B|256:304,1,70,2|0
224,232,111093,2,0,B|296:232,1,70,2|0
272,160,111506,2,0,B|344:160,1,70,2|0
320,88,111920,2,0,B|392:88,1,70,2|0
456,88,112334,6,0,B|496:152|456:224,3,140,0|2|0|2
320,224,113989,2,0,B|280:160|320:88,3,140,0|2|0|2
432,168,115644,5,4
464,232,115851,1,0
432,296,116058,1,2
256,320,116472,1,0
256,248,116679,1,0
256,176,116886,1,2
80,296,117300,1,0
48,232,117507,1,0
80,168,117714,1,2
256,176,118127,2,0,B|256:136,6,35,2|0|2|0|2|0|2
256,248,118955,5,0
376,320,119369,1,2
432,192,119782,1,0
352,72,120196,1,2
160,72,120610,1,0
80,192,121024,1,2
136,320,121437,1,0
256,248,121851,1,2
256,104,122265,5,2
256,104,122472,1,0
256,104,122679,1,2
256,104,122886,1,0
256,104,123093,2,0,B|360:56|464:104,1,210,2|0
456,168,123920,1,2
456,168,124127,1,0
456,168,124334,1,2
456,168,124541,1,0
456,168,124748,2,0,B|352:216|248:168,1,210,2|0
256,96,125575,6,0,B|256:56,6,35,4|0|0|0|0|0|0
208,152,126403,2,0,B|184:184,6,35,4|0|0|0|0|0|0
304,152,127231,2,0,B|328:184,6,35,4|0|0|0|0|0|0
256,88,128058,5,4
256,88,128265,1,0
256,88,128472,1,0
256,88,128679,1,0
256,88,128886,5,0
