osu file format v5

[General]
AudioFilename: Snow Storm.mp3
AudioLeadIn: 0
PreviewTime: -1
Countdown: 1
SampleSet: Soft
StackLeniency: 0.6
Mode: 0
LetterboxInBreaks: 1
EditorDistanceSpacing: 1

[Metadata]
Title:Snow Storm
Artist:dj TAKA
Creator:Alace
Version:Hyper
Source:Beatmania IIDX Gold
Tags:video game

[Difficulty]
HPDrainRate:6
CircleSize:4
OverallDifficulty:6
SliderMultiplier:1.6
SliderTickRate:0.5

[Events]
//Background and Video events
0,0,"Snow.png"
Video,-320,"#movie.avi"
//Break Periods
2,54603,59704
2,100844,101353
//Storyboard Layer 0 (Background)
//Storyboard Layer 1 (Fail)
//Storyboard Layer 2 (Pass)
//Storyboard Layer 3 (Foreground)
//Storyboard Sound Samples
//Background Colour Transformations
3,100,0,0,0

[TimingPoints]
1438,413.793103448276,4,2,1,70,1,0
4438,-100,4,2,1,82,0,0
4955,-100,4,2,1,71,0,0
7748,-100,4,2,1,80,0,0
8265,-100,4,2,1,70,0,0
11058,-100,4,2,1,81,0,0
11575,-100,4,2,1,70,0,0
12732,-100,4,2,1,60,0,0
13127,-100,4,2,1,70,0,0
13541,-100,4,2,1,80,0,0
13851,-100,4,1,1,51,0,0
14575,-100,4,2,1,59,0,0
14782,-100,4,2,1,50,0,0
14989,-100,4,2,1,70,0,0
15610,-100,4,2,1,51,0,0
15817,-100,4,2,1,70,0,0
16438,-100,4,2,1,50,0,0
16644,-100,4,2,1,70,0,0
17265,-100,4,2,1,51,0,0
17472,-100,4,2,1,70,0,0
17679,-100,4,2,1,81,0,0
18093,-100,4,2,1,51,0,0
18300,-100,4,2,1,70,0,0
18920,-100,4,2,1,49,0,0
19127,-100,4,2,1,70,0,0
19438,-100,4,2,1,90,0,0
21506,-100,4,2,1,50,0,0
21610,-100,4,1,1,68,0,0
21817,-100,4,2,1,59,0,0
22334,-100,4,2,1,50,0,0
22438,-100,4,1,1,71,0,0
22644,-100,4,2,1,62,0,0
23162,-100,4,2,1,50,0,0
23265,-100,4,1,1,71,0,0
23472,-100,4,2,1,61,0,0
23989,-100,4,2,1,50,0,0
24093,-100,4,1,1,70,0,0
24300,-100,4,2,1,69,0,0
24713,-100,4,2,1,50,0,0
24920,-100,4,1,1,69,0,0
25231,-100,4,2,1,76,0,0
25541,-100,4,2,1,51,0,0
25748,-100,4,1,1,67,0,0
26058,-100,4,2,1,49,0,0
27713,-100,4,2,1,50,0,0
28127,-100,4,2,1,81,0,0
39196,-100,4,2,1,70,0,0
39610,-100,4,2,1,81,0,0
40024,-100,4,2,1,89,0,0
40438,-100,4,2,1,100,0,0
41162,-100,4,2,1,55,0,0
41369,-100,4,2,1,81,0,0
54403,-100,4,2,1,61,0,0
60610,-100,4,2,1,41,0,0
62472,-100,4,2,1,59,0,0
63300,-100,4,2,1,81,0,0
64231,-100,4,2,1,68,0,0
72196,-100,4,2,1,81,0,0
73231,-100,4,2,1,100,0,0
74058,-100,4,2,1,49,0,0
74369,-100,4,2,1,78,0,0
74679,-100,4,1,1,61,0,0
74989,-100,4,2,1,80,0,0
75196,-100,4,1,1,49,0,0
75713,-100,4,2,1,81,0,0
76334,-100,4,1,1,61,0,0
76644,-100,4,2,1,81,0,0
76851,-100,4,1,1,49,0,0
77369,-100,4,2,1,79,0,0
77886,-100,4,1,1,49,0,0
78196,-100,4,2,1,82,0,0
78506,-100,4,1,1,49,0,0
79024,-100,4,2,1,80,0,0
79541,-100,4,1,1,49,0,0
79851,-100,4,2,1,80,0,0
80782,-100,4,2,1,49,0,0
81093,-100,4,2,1,79,0,0
85748,-100,4,2,1,79,0,0
86679,-100,4,1,1,69,0,0
87403,-100,4,2,1,81,0,0
93300,-100,4,1,1,71,0,0
94024,-100,4,2,1,69,0,0
97334,-100,4,1,1,42,0,0
97748,-100,4,1,1,56,0,0
98162,-100,4,1,1,73,0,0
98575,-100,4,1,1,77,0,0
99300,-100,4,1,1,71,0,0
99506,-100,4,1,1,69,0,0
99713,-100,4,1,1,60,0,0
99920,-100,4,1,1,51,0,0
100127,-100,4,1,1,36,0,0
100334,-100,4,1,1,31,0,0
101989,-100,4,2,1,80,0,0
108093,-100,4,2,1,79,0,0
108920,-100,4,2,1,80,0,0
114713,-100,4,1,1,61,0,0
115644,-100,4,2,1,61,0,0
115748,-100,4,2,1,90,0,0
117920,-100,4,2,1,61,0,0
118851,-100,4,2,1,90,0,0
125472,-100,4,2,1,61,0,0
127955,-100,4,1,1,60,0,0
128782,-100,4,2,1,62,0,0

[Colours]
Combo1 : 32,143,255
Combo2 : 179,217,255
Combo3 : 132,193,255

[HitObjects]
48,64,1438,1,0
136,192,1851,1,2
192,40,2265,1,0
256,88,2472,1,0
320,40,2679,1,2
464,64,3093,1,0
368,192,3506,1,2
328,344,3920,1,0
256,304,4127,1,0
184,344,4334,1,2
256,304,4541,5,0
256,304,4644,1,0
256,304,4748,1,0
256,224,4955,1,0
256,144,5162,1,2
408,192,5575,2,0,B|496:192,2,80,0|0|2
256,144,6403,2,0,B|256:56,2,80,0|0|2
104,192,7231,2,0,B|16:192,2,80,0|0|2
184,192,7851,5,0
184,192,7955,1,0
184,192,8058,1,0
264,192,8265,1,0
344,192,8472,1,2
208,104,8886,2,0,B|144:40,2,80,0|0|2
344,192,9713,2,0,B|432:192,2,80,0|0|2
208,272,10541,2,0,B|144:336,2,80,0|0|2
256,192,11162,5,0
256,192,11265,1,0
256,192,11369,1,0
336,192,11575,2,0,B|424:192,1,80,0|2
496,192,11989,1,0
496,112,12196,2,0,B|408:112,1,80
336,112,12610,1,2
256,112,12817,6,0,B|240:72,2,40,0|0|0
184,152,13231,2,0,B|168:192,2,40,0|0|0
112,112,13644,1,0
112,112,13748,1,0
112,112,13851,5,0
32,112,14058,1,0
32,192,14265,1,0
112,192,14472,1,0
72,264,14679,6,0,B|144:312,1,80,4|0
208,344,15093,1,2
208,344,15196,1,0
208,344,15300,1,0
272,296,15506,2,0,B|288:216,1,80,0|0
296,136,15920,1,2
296,136,16024,1,0
296,136,16127,1,0
224,168,16334,2,0,B|144:144,1,80,0|0
64,128,16748,1,2
64,128,16851,1,0
64,128,16955,1,0
112,64,17162,2,0,B|184:48|224:72|280:64,1,160,0|2
352,72,17782,5,0
352,72,17886,1,0
352,72,17989,2,0,B|416:136|416:136|432:216,1,160,0|2
360,240,18610,1,0
360,240,18713,1,0
360,240,18817,2,0,B|272:264|272:264|200:208,1,160,0|2
144,184,19438,1,0
144,184,19541,1,0
144,184,19644,2,0,B|192:96|192:96|264:88,3,160,0|2|0|2
328,88,21093,1,0
408,104,21300,5,2
456,168,21506,1,2
440,248,21713,2,0,B|464:328|400:352,1,120
402,350,22127,1,2
360,280,22334,1,2
288,320,22541,2,0,B|240:264|304:216,1,120
301,217,22955,1,2
376,192,23162,1,2
320,136,23369,2,0,B|192:136,1,120
200,136,23782,1,2
120,136,23989,1,2
40,136,24196,1,0
80,208,24403,5,0
80,208,24506,1,0
80,208,24610,1,2
32,272,24817,1,2
72,336,25024,1,0
432,176,25438,5,2
480,112,25644,1,2
440,48,25852,1,0
256,192,26265,12,0,27506
48,80,27920,5,4
208,80,28334,1,2
64,152,28748,1,0
224,144,29162,1,2
80,224,29575,1,0
240,216,29989,1,2
104,296,30403,1,0
264,288,30817,1,2
344,288,31024,5,0
384,288,31127,1,0
424,288,31231,2,0,B|480:216|480:216|448:144,1,160,0|2
344,32,32058,2,0,B|168:32,1,160,0|2
320,112,32886,2,0,B|144:112,1,160,0|2
296,192,33713,2,0,B|120:192,1,160,0|2
168,264,34334,5,0
168,264,34438,1,0
168,264,34541,2,0,B|344:264,1,160,0|2
376,200,35162,1,0
296,184,35369,2,0,B|128:184,1,160,0|2
80,120,35989,1,0
160,104,36196,2,0,B|328:104,1,160,0|2
368,40,36817,1,0
288,24,37024,2,0,B|120:24,1,160,0|2
56,64,37644,5,0
56,64,37748,1,0
56,64,37851,1,0
456,64,38265,1,2
456,320,38679,1,0
56,320,39093,1,2
136,320,39300,5,0
160,320,39403,1,0
184,320,39506,1,0
168,240,39713,1,0
192,240,39817,1,0
216,240,39920,1,0
200,160,40127,1,0
224,160,40230,1,0
248,160,40334,1,0
232,80,40540,1,0
256,80,40644,1,0
280,80,40748,1,0
360,80,40955,1,0
360,80,41058,1,0
360,80,41162,5,4
424,128,41369,1,0
480,184,41575,1,2
152,304,41989,1,0
88,256,42196,1,0
32,200,42402,1,2
256,48,42817,1,0
320,96,43024,1,0
384,48,43231,1,2
256,336,43644,1,0
192,288,43851,1,0
128,336,44058,1,2
64,288,44265,5,0
64,288,44369,1,0
64,288,44472,1,0
64,208,44679,2,0,B|64:120,1,80,0|2
144,128,45093,1,0
144,128,45196,1,0
144,128,45300,1,0
144,208,45506,2,0,B|144:304,1,80,0|2
224,296,45920,5,0
224,296,46127,2,0,B|296:240|376:296,3,160,0|2|0|2
372,293,47575,1,0
432,240,47782,5,0
472,168,47989,1,0
392,168,48196,2,0,B|352:200|352:200|280:176,1,120,2|0
286,178,48610,1,0
240,240,48817,1,0
192,304,49024,2,0,B|136:312|136:312|96:248,1,120,2|0
102,258,49438,1,0
56,192,49644,1,0
104,128,49851,2,0,B|136:88|136:88|216:80,1,120,2|0
204,81,50265,1,0
280,80,50472,1,0
360,80,50679,1,2
440,80,50886,5,0
440,80,50989,1,0
440,80,51093,1,0
320,304,51506,1,2
200,80,51920,1,0
80,304,52334,1,2
256,192,52748,12,0,54403
416,248,61024,6,0,B|328:272|216:224|96:256,1,320
97,255,62265,1,0
48,72,62679,5,0
464,72,63093,1,0
464,72,63506,5,0
384,80,63713,1,0
400,160,63920,1,0
320,168,64127,1,0
320,168,64334,5,0
344,248,64541,1,0
264,264,64748,1,0
280,344,64955,1,0
200,344,65162,5,0
200,328,65265,1,0
200,312,65369,1,0
200,296,65472,1,0
200,280,65575,1,0
200,264,65679,1,0
200,248,65782,1,0
200,232,65886,1,0
200,216,65989,6,0,B|200:48,1,160
280,56,66610,2,0,B|280:112,2,40
440,56,67231,1,0
448,344,67644,5,0
304,56,68472,1,0
160,344,69300,1,0
16,56,70127,1,0
480,192,70955,5,0
16,192,71782,1,0
480,192,72610,5,0
256,312,73024,1,0
16,192,73438,1,0
256,72,73851,1,0
392,296,74265,5,4
312,320,74472,1,0
312,320,74575,1,0
312,320,74679,2,0,B|264:224|208:296|160:240,1,160,0|2
104,280,75300,1,0
120,200,75506,1,0
224,80,75920,1,2
304,96,76127,1,0
304,96,76231,1,0
304,96,76334,2,0,B|392:64|376:160|440:160,1,160,0|2
488,224,76955,1,0
408,240,77161,1,0
56,336,77575,5,2
216,312,77989,1,0
72,240,78403,1,2
144,216,78610,1,0
216,192,78817,1,0
368,152,79231,1,2
216,104,79644,1,0
280,248,80058,1,2
352,288,80265,1,0
280,328,80472,1,2
208,288,80679,1,0
128,288,80886,5,4
128,128,81300,1,2
288,128,81713,1,0
288,288,82127,1,2
48,288,82541,5,0
168,96,82955,1,2
288,288,83369,1,0
408,96,83782,1,2
16,192,84196,5,0
480,192,84610,1,2
16,192,85024,1,0
480,192,85438,1,2
256,64,85851,5,2
256,80,85955,1,0
256,96,86058,1,2
256,112,86162,1,0
256,128,86265,1,2
256,144,86369,1,0
256,160,86472,1,2
256,176,86575,1,0
256,192,86679,5,0
256,208,86782,1,0
216,280,86989,1,0
216,280,87093,1,0
272,336,87300,1,0
336,288,87506,5,2
416,312,87713,2,0,B|456:368,2,40
456,240,88127,1,0
376,216,88334,1,2
360,208,88438,1,0
344,200,88541,1,0
328,192,88644,1,0
312,184,88748,1,0
232,160,88955,1,0
232,160,89162,5,2
160,128,89369,2,0,B|160:80,2,40
88,168,89782,1,0
160,208,89989,1,2
160,224,90093,1,0
160,240,90196,1,0
160,256,90300,1,0
160,272,90403,1,0
160,352,90610,1,0
232,312,90817,6,0,B|232:264,2,40,2|0|0
312,304,91231,2,0,B|312:352,2,40,2|0|0
392,312,91644,2,0,B|392:256,2,40,2|0|0
472,312,92058,2,0,B|472:360,2,40,2|0|0
432,240,92472,1,2
432,224,92575,1,0
432,208,92679,1,2
432,192,92782,1,0
432,176,92886,1,2
432,160,92989,1,0
432,144,93093,1,2
432,128,93196,1,0
432,112,93300,5,0
432,96,93403,1,0
408,16,93610,1,0
408,16,93713,1,0
352,72,93920,1,0
272,72,94127,5,2
272,152,94334,1,0
192,152,94541,1,2
192,72,94748,1,0
120,112,94955,2,0,B|72:112,4,40,2|0|0|0|2
200,112,95575,1,0
256,48,95782,5,2
464,192,96196,1,2
256,336,96610,1,2
32,192,97024,1,2
392,232,97438,5,0
392,152,97644,1,0
320,272,97851,1,0
320,112,98058,1,0
256,320,98265,1,0
256,64,98472,1,0
192,272,98679,1,0
192,112,98886,1,0
104,192,99093,2,0,B|48:192,15,40
416,64,102403,6,0,B|248:64,1,160,0|2
96,152,103231,2,0,B|264:152,1,160,0|2
416,240,104058,2,0,B|248:240,1,160,0|2
96,328,104886,2,0,B|264:328,1,160,0|2
472,192,105713,5,0
400,224,105920,1,0
400,224,106024,1,0
400,224,106127,1,2
400,224,106231,1,0
400,224,106334,1,0
328,192,106541,1,0
256,160,106748,2,0,B|256:112,4,40,0|0|2|0|0
184,192,107369,1,0
256,232,107575,2,0,B|256:280,4,40,0|0|2|0|0
184,192,108196,5,2
168,192,108300,1,0
152,192,108403,1,2
136,192,108506,1,0
120,192,108610,1,2
104,192,108713,1,0
88,192,108817,1,2
72,192,108920,1,0
56,192,109024,5,0
456,192,109438,1,2
56,192,109851,1,0
456,192,110265,1,2
256,48,110679,6,0,B|80:48,1,160,0|2
256,336,111506,2,0,B|432:336,1,160,0|2
128,336,112334,5,0
136,320,112438,1,0
144,304,112541,1,0
152,288,112644,1,0
160,272,112748,1,2
256,192,112955,5,0
384,336,113162,5,0
376,320,113266,1,0
368,304,113369,1,0
360,288,113472,1,0
352,272,113576,1,2
256,192,113782,5,0
256,40,113989,5,0
256,56,114093,1,0
256,72,114196,1,0
256,88,114300,1,0
256,104,114403,1,2
256,192,114610,5,0
328,152,114817,5,0
184,152,115024,1,0
400,192,115231,1,0
112,192,115438,1,0
112,272,115644,5,0
192,288,115851,2,0,B|192:344,2,40,0|0|2
272,272,116265,1,0
352,272,116472,1,0
368,272,116575,1,0
384,272,116679,1,0
400,272,116782,1,0
416,272,116886,1,2
496,272,117093,1,0
496,272,117300,5,0
456,200,117506,2,0,B|456:152,2,40,0|0|2
376,200,117920,1,0
296,200,118127,1,0
280,200,118230,1,0
264,200,118334,1,0
248,200,118437,1,0
232,200,118541,1,2
152,200,118748,1,0
120,128,118955,6,0,B|80:88,2,40,2|0|0
200,112,119369,2,0,B|232:72,2,40,2|0|0
200,192,119782,2,0,B|232:240,2,40,2|0|0
120,208,120196,2,0,B|104:248,2,40,2|0|0
120,128,120610,5,0
432,208,121024,1,2
120,296,121438,1,0
432,208,121851,1,2
112,144,122265,6,0,B|112:56,1,80,2|0
112,240,122679,2,0,B|112:328,1,80,2|0
184,192,123093,1,2
224,192,123196,1,0
264,192,123300,1,0
304,192,123403,1,0
344,192,123506,1,2
424,192,123713,1,0
424,192,123920,5,2
96,48,124334,1,2
96,336,124748,1,2
424,192,125162,1,2
56,192,125575,5,4
72,192,125679,1,0
88,192,125782,1,0
104,192,125886,1,0
120,192,125989,1,2
256,192,126196,5,0
456,192,126403,5,4
440,192,126507,1,0
424,192,126610,1,0
408,192,126714,1,0
392,192,126817,1,2
256,192,127024,5,0
256,344,127231,5,4
256,328,127335,1,0
256,312,127438,1,0
256,296,127542,1,0
256,280,127645,1,2
256,192,127852,5,0
328,232,128059,5,0
184,232,128266,1,0
400,192,128473,1,0
112,192,128680,1,0
256,192,128886,5,0
