osu file format v5

[General]
AudioFilename: Snow Storm.mp3
AudioLeadIn: 0
PreviewTime: -1
Countdown: 1
SampleSet: Soft
StackLeniency: 0.7
Mode: 0
LetterboxInBreaks: 1
EditorBookmarks: 36196
EditorDistanceSpacing: 0.800000011920929

[Metadata]
Title:Snow Storm
Artist:dj TAKA
Creator:Alace
Version:Another
Source:Beatmania IIDX Gold
Tags:video game

[Difficulty]
HPDrainRate:8
CircleSize:5
OverallDifficulty:7
SliderMultiplier:2
SliderTickRate:0.5

[Events]
//Background and Video events
0,0,"Snow.png"
Video,-320,"#movie.avi"
//Break Periods
2,54603,60124
2,100844,101503
//Storyboard Layer 0 (Background)
//Storyboard Layer 1 (Fail)
//Storyboard Layer 2 (Pass)
//Storyboard Layer 3 (Foreground)
//Storyboard Sound Samples
//Background Colour Transformations
3,100,0,0,0

[TimingPoints]
1438,413.793103448276,4,2,1,70,1,0
4438,-100,4,2,1,82,0,0
4955,-100,4,2,1,71,0,0
7748,-100,4,2,1,80,0,0
8265,-100,4,2,1,70,0,0
11058,-100,4,2,1,81,0,0
11575,-100,4,2,1,70,0,0
12732,-100,4,2,1,60,0,0
13127,-100,4,2,1,70,0,0
13541,-100,4,2,1,80,0,0
13851,-100,4,1,1,59,0,0
14575,-100,4,2,1,59,0,0
14782,-100,4,2,1,50,0,0
14989,-100,4,2,1,70,0,0
15610,-100,4,2,1,51,0,0
15817,-100,4,2,1,70,0,0
16438,-100,4,2,1,50,0,0
16644,-100,4,2,1,70,0,0
17265,-100,4,2,1,51,0,0
17472,-100,4,2,1,70,0,0
17679,-100,4,2,1,81,0,0
18093,-100,4,2,1,51,0,0
18300,-100,4,2,1,70,0,0
18920,-100,4,2,1,49,0,0
19127,-100,4,2,1,70,0,0
19438,-100,4,2,1,90,0,0
20782,-100,4,1,1,58,0,0
21506,-100,4,2,1,50,0,0
21610,-100,4,1,1,68,0,0
21817,-100,4,2,1,59,0,0
22334,-100,4,2,1,50,0,0
22438,-100,4,1,1,71,0,0
22644,-100,4,2,1,62,0,0
23162,-100,4,2,1,50,0,0
23265,-100,4,1,1,71,0,0
23472,-100,4,2,1,61,0,0
23989,-100,4,2,1,50,0,0
24093,-100,4,1,1,70,0,0
24300,-100,4,2,1,69,0,0
24713,-100,4,2,1,50,0,0
24920,-100,4,1,1,69,0,0
25231,-100,4,2,1,76,0,0
25541,-100,4,2,1,51,0,0
25748,-100,4,1,1,67,0,0
26058,-100,4,2,1,79,0,0
27713,-100,4,2,1,50,0,0
28127,-100,4,2,1,81,0,0
39196,-100,4,2,1,70,0,0
39610,-100,4,2,1,81,0,0
40024,-100,4,2,1,89,0,0
40334,-100,4,1,1,60,0,0
41162,-100,4,2,1,55,0,0
41369,-100,4,2,1,81,0,0
47265,-100,4,1,1,59,0,0
47989,-100,4,2,1,81,0,0
53472,-100,4,1,1,50,0,0
60610,-100,4,2,1,41,0,0
62472,-100,4,2,1,59,0,0
63300,-100,4,2,1,81,0,0
64231,-100,4,2,1,68,0,0
65989,-200,4,2,1,68,0,0
66403,-100,4,2,1,41,0,0
66506,-100,4,2,1,71,0,0
72196,-100,4,2,1,81,0,0
73231,-100,4,2,1,100,0,0
74058,-100,4,2,1,49,0,0
74679,-100,4,1,1,61,0,0
74886,-100,4,2,1,80,0,0
75300,-100,4,1,1,49,0,0
75713,-100,4,2,1,81,0,0
76334,-100,4,1,1,61,0,0
76541,-100,4,2,1,81,0,0
76955,-100,4,1,1,49,0,0
77369,-100,4,2,1,79,0,0
77886,-100,4,1,1,49,0,0
78196,-100,4,2,1,82,0,0
78506,-100,4,1,1,49,0,0
79024,-100,4,2,1,80,0,0
79541,-100,4,1,1,49,0,0
79851,-100,4,2,1,80,0,0
80782,-100,4,2,1,49,0,0
81093,-100,4,2,1,75,0,0
85748,-100,4,2,1,79,0,0
86679,-100,4,1,1,69,0,0
87403,-100,4,2,1,81,0,0
93300,-100,4,1,1,71,0,0
94024,-100,4,2,1,69,0,0
97334,-100,4,1,1,42,0,0
97748,-100,4,1,1,56,0,0
98162,-100,4,1,1,73,0,0
98575,-100,4,1,1,77,0,0
99300,-100,4,1,1,71,0,0
99506,-100,4,1,1,69,0,0
99713,-100,4,1,1,60,0,0
99920,-100,4,1,1,51,0,0
100127,-100,4,1,1,36,0,0
100334,-100,4,1,1,31,0,0
101989,-100,4,2,1,80,0,0
108093,-100,4,2,1,79,0,0
108920,-100,4,2,1,80,0,0
114713,-100,4,1,1,61,0,0
115644,-100,4,2,1,61,0,0
115748,-100,4,2,1,90,0,0
117920,-100,4,2,1,61,0,0
118851,-100,4,2,1,90,0,0
125472,-100,4,2,1,61,0,0
127955,-100,4,1,1,65,0,0
128782,-100,4,2,1,62,0,0

[Colours]
Combo1 : 32,143,255
Combo2 : 179,217,255
Combo3 : 132,193,255

[HitObjects]
184,288,1438,1,0
256,328,1644,1,0
256,328,1748,1,0
256,328,1851,2,0,B|368:360|424:248,1,200,2|0
472,192,2472,1,0
472,192,2576,1,0
472,192,2679,2,0,B|360:160|304:272,1,200,2|0
256,208,3300,1,0
256,208,3404,1,0
256,208,3507,2,0,B|144:240|88:128,1,200,2|0
144,80,4127,1,0
144,80,4231,1,0
144,80,4334,1,2
224,80,4541,5,0
240,80,4644,1,0
256,80,4748,1,0
336,80,4955,1,0
296,152,5162,2,0,B|88:152,1,200,2|0
96,152,5679,1,0
56,224,5886,1,0
56,224,5989,2,0,B|264:224,1,200,2|0
256,224,6506,1,0
296,296,6713,1,0
296,296,6817,2,0,B|88:296,1,200,2|0
96,296,7334,1,0
56,224,7541,1,0
56,224,7644,1,2
136,224,7851,5,0
152,224,7954,1,0
168,224,8058,1,0
248,224,8265,1,0
200,160,8472,1,2
472,152,8886,5,0
472,152,8989,1,0
472,232,9196,1,0
472,232,9300,1,2
216,40,9713,5,0
216,40,9816,1,0
296,40,10023,1,0
296,40,10127,1,2
40,232,10541,5,0
40,232,10644,1,0
40,152,10851,1,0
40,152,10955,1,2
104,192,11162,5,0
120,192,11265,1,0
136,192,11369,1,0
216,192,11575,1,0
216,192,11782,1,2
256,352,12196,5,0
256,272,12403,1,0
256,192,12610,1,2
384,112,12817,6,0,B|424:80,2,50
256,80,13231,2,0,B|256:24,2,50
128,112,13644,2,0,B|88:80,2,50
104,192,14058,5,0
256,192,14265,1,0
408,192,14472,1,0
408,272,14679,6,0,B|304:272,1,100,4|0
336,344,15093,2,0,B|232:344,1,100,2|0
176,288,15506,1,0
160,288,15610,1,0
144,288,15713,1,2
128,288,15817,1,0
112,288,15920,1,2
104,112,16334,6,0,B|208:112,1,100,0|0
176,40,16748,2,0,B|280:40,1,100,2|0
336,96,17161,1,0
352,96,17265,1,0
368,96,17368,1,2
384,96,17472,1,0
400,96,17575,1,2
368,168,17782,5,0
368,184,17886,1,0
368,200,17989,1,0
416,264,18196,1,2
336,272,18403,2,0,B|296:304|240:256|184:288,1,150,2|0
189,285,18817,1,0
112,312,19024,1,2
128,232,19231,1,2
128,152,19438,5,0
128,136,19541,1,0
128,120,19644,1,0
128,104,19748,1,0
256,136,19955,1,0
256,152,20059,1,0
256,168,20162,1,0
384,152,20369,1,0
384,136,20472,1,0
384,120,20575,1,0
384,104,20679,1,0
352,32,20886,5,0
160,32,21093,1,0
256,192,21300,1,0
256,192,21506,5,2
256,192,21713,1,0
96,112,22024,5,0
96,112,22127,1,0
176,112,22334,1,2
176,112,22541,1,0
416,112,22851,5,0
416,112,22954,1,0
336,112,23161,1,2
336,112,23368,1,0
256,336,23679,5,0
256,336,23782,1,0
256,256,23989,1,2
256,256,24196,1,0
256,176,24403,5,0
256,160,24506,1,0
256,144,24610,1,0
216,72,24817,1,2
296,72,25024,1,0
400,192,25438,5,0
456,248,25644,1,2
376,272,25851,1,0
216,288,26265,5,0
200,288,26369,1,0
256,192,26575,1,0
240,192,26679,1,0
224,192,26782,1,0
208,192,26886,1,0
312,104,27093,1,0
296,104,27196,1,0
280,104,27300,1,0
264,104,27403,1,0
248,104,27506,1,0
32,336,27920,5,4
112,336,28127,1,0
112,336,28231,1,0
112,336,28334,1,2
72,264,28541,1,0
152,264,28748,1,0
168,264,28851,1,0
184,264,28955,1,0
200,264,29058,1,0
216,264,29162,1,2
480,48,29575,5,0
400,48,29782,1,0
400,48,29886,1,0
400,48,29989,1,2
440,120,30196,1,0
360,120,30403,1,0
344,120,30506,1,0
328,120,30610,1,0
312,120,30713,1,0
296,120,30817,1,2
216,120,31024,5,0
216,120,31127,1,0
216,120,31231,1,0
136,136,31438,1,0
56,120,31644,1,2
152,248,32058,1,0
224,216,32265,1,0
296,248,32472,1,2
440,312,32886,5,0
472,240,33093,1,0
472,224,33196,1,0
472,208,33300,1,2
400,240,33506,1,0
360,304,33713,1,0
344,304,33817,1,0
328,304,33920,1,0
312,304,34024,1,0
296,304,34127,1,2
216,304,34334,5,0
216,304,34438,1,0
216,304,34541,1,0
144,336,34748,1,0
72,304,34954,1,2
192,192,35369,1,0
264,232,35575,1,0
336,192,35782,1,2
72,312,36196,5,0
40,240,36403,1,0
40,224,36506,1,0
40,208,36610,1,2
112,240,36816,1,0
152,304,37023,1,0
168,304,37127,1,0
184,304,37230,1,0
200,304,37334,1,0
216,304,37438,1,2
296,304,37644,5,0
296,304,37748,1,0
296,304,37851,1,0
376,304,38058,1,0
456,304,38265,1,2
336,192,38679,1,0
256,192,38886,1,0
176,192,39093,1,2
128,304,39300,6,0,B|104:352,2,50
88,192,39713,2,0,B|32:192,2,50
128,80,40127,2,0,B|104:32,2,50
200,112,40541,5,0
200,272,40748,1,0
336,192,40955,1,0
400,144,41162,6,0,B|464:56,1,100,4|0
400,240,41575,2,0,B|464:328,1,100,2|0
336,192,41989,1,0
336,192,42196,1,0
336,192,42403,1,2
112,144,42817,6,0,B|48:56,1,100
112,240,43230,2,0,B|48:328,1,100,2|0
176,192,43644,1,0
176,192,43851,1,0
176,192,44058,1,2
256,192,44265,5,0
272,192,44369,1,0
288,192,44472,1,0
280,272,44679,1,0
352,240,44886,2,0,B|448:232|424:136,1,150,2|0
424,137,45300,1,0
408,56,45506,1,0
352,112,45713,1,2
288,64,45920,5,0
272,64,46023,1,0
256,64,46126,1,0
240,64,46230,1,0
272,192,46437,1,0
288,192,46541,1,0
304,192,46644,1,0
288,320,46851,1,0
272,320,46954,1,0
256,320,47057,1,0
240,320,47161,1,0
168,288,47368,5,0
168,96,47575,1,0
328,192,47782,1,0
48,112,48196,6,0,B|56:16|160:56,1,150,2|0
154,54,48610,1,0
128,128,48817,1,0
128,128,49024,2,0,B|144:232|240:168,1,150,2|0
225,176,49438,1,0
264,104,49644,1,0
264,104,49851,2,0,B|328:16|408:104,1,150,2|0
390,86,50265,1,0
456,136,50472,1,0
456,136,50679,1,2
384,168,50886,5,0
368,176,50989,1,0
352,184,51093,1,0
248,304,51506,1,2
104,232,51920,1,0
48,168,52127,1,0
128,152,52334,1,2
440,144,52748,6,0,B|456:96,2,50,2|0|0
440,240,53162,2,0,B|456:288,2,50,2|0|0
360,192,53575,5,0
288,312,53782,1,0
160,256,53989,1,0
160,112,54196,1,0
288,56,54403,1,0
424,288,61024,6,0,B|296:336|248:48|104:96,1,400
106,95,62265,1,0
256,328,62679,5,0
256,48,63093,1,0
88,224,63506,5,0
152,272,63713,1,0
192,200,63920,1,0
128,152,64127,1,0
88,224,64334,5,0
208,320,64541,1,0
288,192,64748,1,0
168,96,64955,1,0
224,40,65162,5,0
238,47,65265,1,0
253,54,65369,1,0
267,60,65472,1,0
282,67,65575,1,0
296,74,65679,1,0
311,81,65782,1,0
325,87,65886,1,0
340,94,65989,2,0,B|434:138,1,100
430,136,66610,5,0
430,136,66713,1,0
430,136,66817,1,0
256,336,67231,1,0
16,192,67644,5,0
504,192,68472,1,0
56,256,69300,1,0
464,128,70127,1,0
256,192,70955,5,0
256,192,71782,1,0
256,32,72610,5,0
32,192,73024,1,0
256,352,73438,1,0
480,192,73852,1,0
32,192,74265,5,4
88,136,74472,2,0,B|128:50,2,50
104,215,74886,1,0
119,219,74989,1,0
135,223,75093,1,0
150,227,75196,1,0
166,231,75300,1,0
240,248,75506,1,0
480,192,75920,5,2
424,136,76127,2,0,B|383:50,2,50
407,215,76541,1,0
392,219,76644,1,0
376,223,76748,1,0
361,227,76851,1,0
345,231,76955,1,0
272,248,77161,1,0
32,56,77575,5,2
104,80,77782,1,0
184,56,77989,1,0
264,80,78196,1,0
472,160,78403,5,2
384,192,78610,1,0
296,160,78817,1,0
208,192,79024,1,0
40,288,79231,5,2
128,328,79438,1,0
216,288,79644,1,0
304,328,79851,1,0
496,192,80058,5,2
376,208,80265,1,0
256,192,80472,1,2
136,208,80679,1,0
16,192,80886,5,4
256,40,81300,1,2
496,192,81713,1,2
416,192,81920,1,0
376,192,82024,1,0
336,192,82127,1,2
296,192,82231,1,0
256,192,82334,1,0
16,192,82541,5,2
256,344,82955,1,2
496,192,83368,1,2
416,192,83575,1,0
376,192,83679,1,0
336,192,83782,1,2
296,192,83886,1,0
256,192,83989,1,0
184,232,84196,5,2
184,248,84300,1,0
184,264,84403,1,0
136,152,84610,1,2
136,136,84714,1,0
136,120,84817,1,0
88,232,85024,1,2
88,248,85128,1,0
88,264,85231,1,0
40,152,85438,1,2
40,136,85542,1,0
40,120,85645,1,0
88,56,85851,5,2
104,56,85955,1,0
120,56,86058,1,2
136,56,86162,1,0
152,56,86265,1,2
168,56,86369,1,0
184,56,86472,1,2
200,56,86575,1,0
216,56,86679,5,0
232,56,86782,1,0
312,56,86989,1,0
312,56,87093,1,0
392,56,87300,1,0
440,120,87506,5,2
360,120,87713,1,0
352,128,87817,1,0
344,136,87920,1,0
288,192,88127,1,0
344,248,88334,1,2
352,256,88437,1,0
360,264,88541,1,0
368,272,88644,1,0
376,280,88748,1,0
328,344,88955,1,0
256,304,89162,5,2
176,304,89369,1,0
168,296,89473,1,0
160,288,89576,1,0
104,232,89783,1,0
160,176,89989,1,2
168,168,90093,1,0
176,160,90197,1,0
184,152,90300,1,0
192,144,90404,1,0
256,96,90611,1,0
256,96,90817,6,0,B|256:32,2,50,2|0|0
360,192,91231,2,0,B|416:192,2,50,2|0|0
256,288,91644,2,0,B|256:352,2,50,2|0|0
152,192,92058,2,0,B|96:192,2,50,2|0|0
112,120,92472,5,2
128,120,92576,1,0
144,120,92679,1,2
160,120,92783,1,0
176,120,92886,1,2
192,120,92990,1,0
208,120,93093,1,2
224,120,93196,1,0
240,120,93300,5,0
256,120,93403,1,0
336,120,93610,1,0
336,120,93714,1,0
416,120,93921,1,0
376,192,94127,5,2
448,288,94334,1,0
344,352,94541,1,2
272,256,94748,1,0
168,320,94955,2,0,B|112:352,2,50,2|0|2
168,200,95369,2,0,B|112:168,2,50,2|0|0
168,319,95782,5,2
74,245,95989,1,0
158,156,96196,1,2
252,230,96403,1,0
336,141,96610,2,0,B|382:96,2,50,2|0|2
367,257,97024,2,0,B|430:274,2,50,2|0|2
328,344,97438,5,0
184,344,97644,1,0
80,256,97851,1,0
80,128,98058,1,0
184,48,98265,1,0
328,48,98472,1,0
432,128,98679,1,0
432,256,98886,1,0
376,192,99093,5,0
336,192,99196,1,0
296,192,99300,1,0
256,192,99403,1,0
216,192,99506,1,0
176,192,99610,1,0
136,192,99713,1,0
96,192,99817,1,0
56,192,99920,6,0,B|0:192,7,50
207,288,102403,5,0
192,294,102506,1,0
177,299,102610,1,0
304,288,102817,1,2
319,294,102920,1,0
334,299,103024,1,0
152,222,103231,2,0,B|55:186,1,100,0|0
359,222,103644,2,0,B|456:186,1,100,2|0
304,88,104058,5,0
319,82,104161,1,0
334,77,104265,1,0
207,88,104472,1,2
192,82,104575,1,0
177,77,104679,1,0
359,154,104886,2,0,B|456:190,1,100
152,154,105299,2,0,B|55:190,1,100,2|0
80,263,105713,5,0
96,267,105817,1,0
111,271,105920,1,0
127,275,106024,1,0
142,279,106127,1,2
258,311,106334,5,0
434,184,106541,5,0
418,188,106645,1,0
403,192,106748,1,0
387,196,106852,1,0
372,200,106955,1,2
256,232,107162,5,0
79,103,107369,5,0
95,107,107473,1,0
110,111,107576,1,0
126,115,107680,1,0
141,119,107782,1,2
257,151,107990,5,0
256,232,108196,6,0,B|256:296,6,50,2|0|2|0|2|0|2
355,249,109024,6,0,B|415:269,2,50
156,134,109438,2,0,B|96:114,2,50,2|0|0
355,134,109851,2,0,B|415:114,2,50
156,249,110265,2,0,B|96:269,2,50,2|0|0
256,280,110679,5,0
256,280,110782,1,0
256,280,110886,1,0
152,192,111093,1,2
152,192,111196,1,0
152,192,111300,1,0
256,104,111506,1,0
256,104,111609,1,0
256,104,111713,1,0
360,192,111920,1,2
360,192,112024,1,0
360,192,112127,1,0
431,263,112334,5,0
415,267,112438,1,0
400,271,112541,1,0
384,275,112645,1,0
369,279,112748,1,2
253,311,112955,5,0
77,184,113162,5,0
93,188,113266,1,0
108,192,113369,1,0
124,196,113473,1,0
139,200,113576,1,2
255,232,113783,5,0
432,103,113990,5,0
416,107,114094,1,0
401,111,114197,1,0
385,115,114301,1,0
370,119,114404,1,2
254,151,114611,5,0
128,128,114817,5,0
184,248,115024,1,0
328,248,115231,1,0
384,128,115438,1,0
256,40,115644,1,4
256,120,115851,5,0
256,136,115955,1,0
256,152,116058,1,2
256,232,116265,1,0
320,184,116472,1,0
336,184,116575,1,0
352,184,116679,1,0
368,184,116782,1,0
384,184,116886,1,2
464,184,117093,1,0
424,256,117300,5,0
344,256,117506,1,0
328,256,117610,1,0
312,256,117713,1,2
232,256,117920,1,0
272,184,118127,1,0
272,168,118231,1,0
272,152,118334,1,0
272,136,118438,1,0
272,120,118541,1,2
272,40,118748,1,0
344,72,118955,6,0,B|408:72,2,50
168,152,119369,2,0,B|104:152,2,50,2|0|0
344,232,119782,2,0,B|400:232,2,50
168,312,120196,2,0,B|112:312,2,50,2|0|0
256,336,120610,5,0
256,320,120713,1,0
256,304,120817,1,0
256,288,120920,1,0
256,272,121024,1,2
256,192,121231,1,0
256,48,121438,5,0
256,64,121541,1,0
256,80,121645,1,0
256,96,121748,1,0
256,112,121851,1,2
256,192,122059,1,0
344,256,122265,5,2
344,128,122472,1,0
256,312,122679,1,2
256,72,122886,1,0
256,192,123093,2,0,B|320:192,4,50,2|0|2|0|2
256,192,123713,5,0
168,256,123920,5,2
168,128,124127,1,0
256,312,124334,1,2
256,72,124541,1,0
256,192,124748,2,0,B|192:192,4,50,2|0|2|0|0
256,192,125369,5,0
408,192,125575,5,4
408,192,125782,1,0
408,192,125989,1,0
408,192,126196,1,0
256,64,126403,5,4
256,64,126610,1,0
256,64,126817,1,0
256,64,127024,1,0
104,192,127231,5,4
104,192,127438,1,0
104,192,127645,1,0
104,192,127851,1,0
256,320,128058,5,0
376,264,128265,1,0
376,120,128472,1,0
256,64,128679,1,0
168,192,128885,1,0
