osu file format v5

[General]
AudioFilename: dj TAKA - Freeway Shuffle.mp3
AudioLeadIn: 0
PreviewTime: 40426
Countdown: 1
SampleSet: Normal
StackLeniency: 0.7
Mode: 0

[Metadata]
Title:Freeway Shuffle
Artist:dj TAKA
Creator:silasw
Version:Hard

[Difficulty]
HPDrainRate:6
CircleSize:5
OverallDifficulty:7
SliderMultiplier:1.7
SliderTickRate:1

[Events]
//Background and Video events
//Break Periods
2,51897,53808
2,71760,80291
//Storyboard Layer 0 (Background)
//Storyboard Layer 1 (Failing)
//Storyboard Layer 2 (Passing)
//Storyboard Layer 3 (Foreground)
//Storyboard Sound Samples
//Background Colour Transformations
3,100,192,192,192

[TimingPoints]
-420,413.793103448276,4,1,0,100
69090,413.793103448276,4,2,0,100
81090,413.793103448276,4,1,0,100

[HitObjects]
136,88,2062,1,0
200,88,2269,1,0
200,88,2373,1,0
264,88,2580,1,0
328,88,2786,1,0
392,88,2993,1,0
392,152,3200,1,0
392,152,3304,1,0
456,152,3511,1,0
456,216,3717,5,0
392,216,3924,1,0
392,216,4028,1,0
328,216,4235,1,0
264,216,4442,1,0
200,216,4648,1,0
136,216,4855,1,0
136,216,4959,1,0
200,336,5373,6,0,L|195:111|88:192,2,340
176,240,8269,6,0,L|176:112|272:112,1,170
352,88,9097,1,0
352,224,9511,2,0,L|288:288|200:192,1,170
120,160,10338,2,0,L|32:168|64:80,1,170
192,96,11166,6,0,L|280:136|208:224,1,170
368,192,11993,2,0,L|376:288|288:288,1,170
200,192,12821,2,0,L|96:192|96:272,1,170
136,128,13648,5,0
200,128,13855,1,0
200,128,13959,1,0
264,128,14166,1,0
264,192,14373,1,0
264,256,14579,1,0
264,320,14786,1,0
264,320,14890,1,0
392,280,15304,6,0,C|392:80,2,170
456,280,16338,1,0
456,216,16545,1,0
360,312,16959,2,0,C|144:312,2,170
360,248,17993,1,0
360,184,18200,1,0
440,72,18614,2,0,C|440:264,1,170
392,288,19235,5,0
328,288,19442,1,0
280,240,19648,1,0
232,192,19855,1,0
184,144,20062,1,0
136,96,20269,1,0
96,152,20476,1,0
56,208,20683,1,0
104,256,20890,1,0
152,304,21097,1,0
152,168,21511,6,0,L|207:109|128:24,1,170
216,48,22131,1,0
280,48,22338,1,0
344,48,22545,1,0
408,48,22752,1,0
384,112,22959,1,0
352,168,23166,1,0
288,168,23373,1,0
224,168,23579,1,0
160,168,23786,1,0
96,168,23993,1,0
136,48,24407,1,0
272,48,24821,2,0,L|272:176,2,85
256,192,27097,5,0
306,237,27304,1,0
356,191,27511,1,0
306,144,27717,1,0
360,102,27924,1,0
309,56,28131,1,0
258,101,28338,1,0
206,145,28545,1,0
392,192,28959,5,0
392,192,29062,1,0
392,56,29373,1,0
320,56,29579,1,0
248,56,29786,1,0
248,192,30200,5,0
280,192,30304,1,0
320,192,30407,1,0
392,192,30614,1,0
464,192,30821,1,0
464,328,31235,5,0
392,328,31442,1,0
320,328,31648,1,0
248,328,31855,1,0
176,328,32062,1,0
176,256,32269,5,0
176,224,32373,1,0
176,184,32476,1,0
176,152,32579,1,0
176,120,32683,1,0
240,120,32890,1,0
304,120,33097,1,0
440,112,33511,2,0,L|438:44|224:40,1,255
72,88,34545,6,0,C|72:176,6,85
208,88,36200,2,0,C|208:216,11,85
320,176,38890,5,0
256,176,39097,1,0
192,176,39304,1,0
128,176,39511,1,0
128,240,39717,1,0
128,304,39924,1,0
192,304,40131,1,0
256,304,40338,1,0
320,304,40545,1,0
384,304,40752,1,0
384,240,40959,1,0
384,176,41166,1,0
384,112,41373,1,0
320,112,41580,1,0
256,112,41786,1,0
200,200,42097,5,0
200,200,42200,1,0
128,312,42614,1,0
192,312,42821,1,0
256,312,43028,1,0
288,176,43442,5,0
320,176,43545,1,0
360,176,43648,1,0
432,176,43855,1,0
432,104,44062,1,0
56,336,45097,6,0,L|56:132|378:132|376:352,1,680
200,304,47373,1,0
256,176,47786,5,0
320,176,47993,1,0
384,176,48200,1,0
448,176,48407,1,0
384,176,48614,1,0
320,176,48821,1,0
256,176,49028,1,0
120,176,49442,5,0
120,240,49648,1,0
120,304,49855,1,0
120,240,50062,2,0,L|232:240,8,85
256,80,55028,6,2,C|209:160|280:224,1,170
328,208,55648,1,0
392,208,55855,1,2
392,144,56062,1,0
392,80,56269,1,2
328,80,56476,1,0
264,80,56683,6,2,L|168:80,3,85
256,192,58338,12,0,61235
184,96,61648,5,0
184,160,61855,1,0
184,224,62062,1,0
184,288,62269,1,0
320,288,62683,5,0
320,224,62890,1,0
320,160,63097,1,0
320,96,63304,1,0
320,160,63511,1,0
320,224,63717,1,0
320,288,63924,1,0
456,288,64338,1,0
456,224,64545,1,0
456,160,64752,1,0
392,160,64959,5,0
328,160,65166,1,0
264,160,65373,1,0
200,160,65580,1,0
136,160,65786,1,0
88,200,65993,1,0
136,248,66200,1,0
200,248,66407,1,0
264,248,66614,6,2,C|448:248|448:48,2,340
80,72,69090,5,0
352,72,69917,1,0
80,72,70745,1,0
352,72,71572,1,0
80,192,81503,5,0
144,192,81710,1,0
208,192,81917,1,0
272,192,82124,1,0
336,192,82331,1,0
336,256,82538,1,0
336,320,82745,1,0
400,320,82952,1,0
400,320,83055,1,0
400,320,83158,1,0
400,256,83365,5,0
400,192,83572,1,0
400,128,83779,1,0
192,128,84400,1,0
192,264,84814,5,0
256,264,85021,1,0
320,264,85227,1,0
320,200,85434,1,0
320,136,85641,1,0
256,136,85848,1,0
192,136,86055,1,0
192,200,86262,1,0
192,264,86469,2,0,L|464:264|464:176,1,340
256,192,88124,12,0,91434
368,256,93090,6,4,L|215:334|108:191|268:174|128:24,2,680
256,192,98055,1,4
