osu file format v5

[General]
AudioFilename: dj TAKA - Freeway Shuffle.mp3
AudioLeadIn: 0
PreviewTime: 40426
Countdown: 1
SampleSet: Normal
StackLeniency: 0.7
Mode: 0

[Metadata]
Title:Freeway Shuffle
Artist:dj TAKA
Creator:silasw
Version:Easy

[Difficulty]
HPDrainRate:3
CircleSize:3
OverallDifficulty:3
SliderMultiplier:1.7
SliderTickRate:1

[Events]
//Background and Video events
//Break Periods
2,47578,53593
2,68475,80076
//Storyboard Layer 0 (Background)
//Storyboard Layer 1 (Failing)
//Storyboard Layer 2 (Passing)
//Storyboard Layer 3 (Foreground)
//Storyboard Sound Samples
//Background Colour Transformations
3,100,192,192,192

[TimingPoints]
-420,413.793103448276,4,1,0,100

[HitObjects]
96,88,2062,1,0
232,88,2476,1,0
368,88,2890,1,0
368,224,3304,1,0
232,224,3717,5,0
96,224,4131,1,0
96,88,4545,1,0
232,88,4959,1,0
368,88,5373,6,0,C|368:296|200:312,2,340
96,64,7855,2,0,C|185:62|232:152,1,170
152,248,8683,2,0,C|232:208|248:304,1,170
344,192,9511,2,0,C|280:128|360:112,1,170
216,96,10338,2,0,C|128:88|120:184,1,170
200,272,11166,6,0,C|280:208|328:296,1,170
408,160,11993,2,0,C|416:64|304:88,1,170
208,80,12821,2,0,C|104:80|128:160,1,170
120,272,13648,5,0
256,272,14062,1,0
392,272,14476,1,0
392,136,14890,1,0
280,56,15304,6,0,C|80:56,2,170
280,328,16959,2,0,C|64:328,2,170
456,120,18614,2,0,C|456:312,1,170
320,296,19442,5,0
232,192,19855,1,0
144,88,20269,1,0
64,200,20683,1,0
312,96,21511,6,0,C|253:151|168:72,1,170
256,216,22338,1,0
392,216,22752,1,0
392,80,23166,1,0
256,80,23579,1,0
120,80,23993,1,0
40,192,24407,1,0
136,288,24821,2,0,C|240:288,2,85
208,192,27097,6,0,C|296:192,7,85
432,192,28959,5,0
432,56,29373,2,0,C|336:56,2,85
296,56,30200,2,0,C|192:56,3,85
72,56,31235,2,0,C|72:152,3,85
72,280,32269,5,0
208,280,32683,1,0
344,280,33097,1,0
344,144,33511,2,0,C|56:144,1,255
192,56,34545,6,0,C|280:56,3,85
408,64,35580,2,0,C|408:176,1,85
408,288,36200,2,0,C|320:288,11,85
240,176,38890,5,0
104,176,39304,1,0
104,312,39717,1,0
240,312,40131,2,0,C|456:312|464:96|232:72,1,680
104,64,42200,5,0
104,200,42614,2,0,C|104:304,2,85
240,200,43442,2,0,C|242:68|384:152,1,255
80,336,45097,6,0,L|80:132|402:132|400:352,1,680
200,304,47373,1,0
256,80,55028,6,2,C|209:160|280:224,1,170
400,192,55855,1,2
400,56,56269,1,2
264,56,56683,6,2,C|168:56|176:232,1,255
256,192,58338,12,0,61235
176,96,61648,6,0,C|176:200,3,85
336,96,63304,6,0,C|336:224,3,85
256,192,64959,5,0
256,56,65373,1,0
136,128,65786,1,0
136,264,66200,1,0
272,264,66614,6,2,C|456:264|456:64,2,340
80,192,81511,5,0
216,192,81924,1,0
352,192,82338,1,0
352,328,82752,1,0
216,328,83166,5,0
216,192,83580,1,0
216,56,83993,1,0
80,56,84407,1,0
80,192,84821,5,0
80,328,85235,1,0
216,328,85648,1,0
216,192,86062,1,0
256,192,88131,12,0,91442
64,56,93097,6,4,C|72:320|496:224,2,680
256,192,98062,1,4
