osu file format v8

[General]
AudioFilename: dj TAKA - Freeway Shuffle.mp3
AudioLeadIn: 0
PreviewTime: 28540
Countdown: 0
SampleSet: Normal
StackLeniency: 0.3
Mode: 0
LetterboxInBreaks: 1

[Editor]
DistanceSpacing: 0.8
BeatDivisor: 4
GridSize: 8

[Metadata]
Title:Freeway Shuffle
Artist:dj TAKA
Creator:osuplayer111
Version:Another
Source:Beatmania IIDX15
Tags:Dance Dance Revolution SUPERNOVA 2 xxheroxx Kite Natteke

[Difficulty]
HPDrainRate:7
CircleSize:5
OverallDifficulty:8
ApproachRate:8
SliderMultiplier:2
SliderTickRate:1

[Events]
//Background and Video events
0,0,"dj TAKA.jpg"
//Break Periods
//Storyboard Layer 0 (Background)
//Storyboard Layer 1 (Fail)
//Storyboard Layer 2 (Pass)
//Storyboard Layer 3 (Foreground)
//Storyboard Sound Samples
//Background Colour Transformations
3,100,0,0,160

[TimingPoints]
403,413.793103448276,4,1,1,100,1,0
2058,-100,4,1,1,100,0,1
2161,-100,4,1,1,80,0,0
8575,-100,4,1,1,100,0,0
8782,-100,4,1,1,80,0,0
15196,-100,4,1,1,100,0,0
15403,-100,4,1,1,80,0,0
18506,-100,4,1,1,50,0,0
18713,-100,4,1,1,80,0,0
21816,-100,4,1,1,100,0,0
22023,-100,4,1,1,80,0,0
28127,-100,4,1,1,100,0,0
28230,-100,4,1,1,80,0,0
28437,-100,4,1,1,100,0,0
28540,-100,4,1,1,100,0,1
28644,-100,4,1,1,80,0,0
35161,-100,4,1,1,100,0,0
35265,-100,4,1,1,80,0,0
41782,-100,4,1,1,100,0,0
41885,-100,4,1,1,80,0,0
48403,-100,4,1,1,100,0,0
48506,-100,4,1,1,80,0,0
50058,-100,4,1,1,100,0,0
50161,-100,4,1,1,80,0,0
51713,-100,4,1,1,100,0,0
51816,-100,4,1,1,80,0,0
52540,-100,4,1,1,100,0,0
52644,-100,4,1,1,80,0,0
54506,-100,4,1,1,100,0,0
54713,-100,4,1,1,80,0,0
54920,-100,4,1,1,100,0,0
55023,-100,4,1,1,100,0,1
55127,-100,4,1,1,80,0,0
61540,-100,4,1,1,100,0,0
61747,-100,4,1,1,80,0,0
68161,-100,4,1,1,100,0,0
68265,-100,4,1,1,100,0,1
68368,-100,4,2,1,100,0,0
80678,-100,4,1,1,100,0,0
81506,-100,4,1,1,100,0,1
81609,-100,4,1,1,80,0,0
88023,-100,4,1,1,100,0,0
88230,-100,4,1,1,80,0,0
89678,-100,4,1,1,100,0,0
89885,-100,4,1,1,80,0,0
91437,-100,4,1,1,100,0,0
91540,-100,4,1,1,80,0,0
92265,-100,4,1,1,100,0,0
92368,-100,4,1,1,80,0,0
93092,-100,4,1,1,100,0,0
93196,-100,4,1,1,80,0,0
94747,-100,4,1,1,100,0,0
94851,-100,4,1,1,80,0,0
96403,-200,4,1,1,100,0,0
97851,-100,4,1,1,0,0,0
98058,-100,4,1,1,100,0,1
98161,-100,4,1,1,80,0,0

[Colours]
Combo1 : 212,212,212
Combo2 : 0,111,164

[HitObjects]
256,192,1644,1,8
152,312,2058,1,4
96,256,2265,1,0
80,240,2368,1,0
16,192,2575,1,0
80,144,2782,1,0
88,128,2885,1,0
96,112,2989,1,0
104,96,3092,1,0
112,80,3196,1,0
120,64,3299,1,0
200,64,3506,6,0,B|248:104|296:56,1,100
368,40,3920,1,0
368,40,4023,2,0,B|432:120,1,100
472,192,4437,1,0
464,208,4540,1,0
456,224,4644,1,0
448,240,4747,1,0
440,256,4851,1,0
432,272,4954,1,0
384,336,5161,5,0
320,288,5368,1,0
256,336,5575,1,0
256,336,5678,2,0,B|200:336|160:288,1,100
96,248,6092,1,0
112,232,6196,1,0
128,216,6299,1,0
144,200,6402,1,0
160,184,6506,1,0
176,168,6609,1,0
256,192,6816,5,0
304,128,7023,1,0
256,64,7230,1,0
256,64,7334,1,0
312,8,7540,1,0
392,32,7747,2,0,B|448:56,1,50
464,80,7954,2,0,B|440:128,1,50
432,168,8161,2,0,B|360:168,1,50
416,272,8678,5,4
360,328,8885,1,0
360,328,8989,2,0,B|304:328|280:272,1,100
256,200,9402,1,0
256,184,9506,1,0
256,168,9609,1,0
256,152,9713,1,0
256,136,9816,1,0
256,120,9920,1,0
192,80,10127,5,0
256,24,10334,1,0
320,80,10540,2,0,B|368:112,1,50
432,152,10851,1,0
400,224,11058,1,0
408,240,11161,1,0
408,256,11265,1,0
400,272,11368,1,0
392,288,11471,1,0
376,296,11575,1,0
304,328,11782,5,0
256,264,11989,2,0,B|224:216|256:160,1,100
252,170,12299,2,0,B|284:122|252:66,1,100
192,24,12713,1,0
176,32,12816,1,0
160,40,12920,1,0
144,48,13023,1,0
128,56,13127,1,0
112,64,13230,6,0,B|56:88|56:144,1,100
120,192,13644,1,0
56,244,13851,1,0
56,244,13954,2,0,B|56:296|112:320,1,100
176,272,14368,1,0
192,288,14471,1,0
208,304,14575,1,0
224,320,14678,1,0
240,336,14782,1,0
256,352,14885,6,0,B|312:352|336:304,1,100
312,224,15299,1,4
352,160,15506,1,0
352,160,15609,2,0,B|352:96|416:80,1,100
448,152,16023,1,0
456,168,16127,1,0
464,184,16230,1,0
472,200,16334,1,0
480,216,16437,1,0
488,232,16540,1,0
448,304,16747,5,0
376,344,16954,1,0
312,296,17161,1,0
312,296,17265,2,0,B|280:248|328:208,2,100
312,296,17782,1,0
312,296,17885,1,0
312,296,17989,1,0
312,296,18092,1,0
312,296,18196,1,0
256,352,18402,5,0
200,296,18609,1,0
136,344,18816,1,0
136,344,18920,1,0
64,304,19127,2,0,B|96:200,1,100
93,208,19437,1,0
93,208,19540,1,0
93,208,19644,1,0
93,208,19747,1,0
93,208,19851,1,0
144,144,20058,5,0
200,88,20265,2,0,B|216:32|256:8,1,100
256,8,20575,2,0,B|296:32|312:88,1,100
368,144,20989,1,0
376,160,21092,1,0
384,176,21196,1,0
384,192,21299,1,0
376,208,21402,1,0
368,224,21506,1,0
256,336,21920,5,4
184,304,22127,1,0
184,304,22230,2,0,B|136:280|128:216,1,100
168,152,22644,1,0
176,136,22747,1,0
184,120,22851,1,0
192,104,22954,1,0
200,88,23058,1,0
208,72,23161,6,0,B|312:72,1,100
368,128,23575,1,0
312,192,23782,1,0
312,192,23885,2,0,B|200:192,1,100
128,192,24299,1,0
112,192,24402,1,0
96,192,24506,1,0
80,192,24609,1,0
64,192,24713,1,0
48,192,24816,6,0,B|16:240|64:304,1,100
128,352,25230,2,0,B|160:304|112:240,1,100
124,257,25540,1,0
200,232,25747,1,0
272,208,25954,1,0
288,224,26058,1,0
312,224,26161,1,0
328,216,26265,1,0
336,200,26368,1,0
344,184,26471,1,0
376,112,26678,6,0,B|312:24,1,100
256,88,27092,1,0
136,112,27299,2,0,B|200:24,1,100
256,88,27713,1,0
256,104,27816,1,0
256,120,27920,1,0
256,136,28023,1,0
256,152,28127,1,8
256,232,28334,1,0
224,304,28540,5,4
256,328,28644,1,0
288,304,28747,1,0
352,264,28954,1,0
384,192,29161,1,0
408,160,29265,1,0
424,120,29368,1,0
400,88,29471,1,0
376,56,29575,1,0
296,32,29782,1,0
256,104,29989,5,0
224,88,30092,1,0
192,104,30196,1,0
160,88,30299,1,0
128,104,30402,2,0,B|16:104,2,100
32,280,31230,6,0,B|144:280,1,100
200,328,31644,1,0
256,272,31851,1,0
312,328,32058,1,0
352,344,32161,1,0
392,328,32265,1,0
416,296,32368,1,0
392,264,32471,1,0
408,224,32575,1,0
384,192,32678,1,0
320,144,32885,5,0
256,88,33092,1,0
192,144,33299,1,0
256,192,33506,2,0,B|256:248,4,50
256,88,34127,1,0
96,120,34540,5,0
56,192,34747,1,0
96,264,34954,1,0
56,192,35161,2,0,B|0:192,2,50,4|0|0
136,192,35575,1,0
216,192,35782,2,0,B|303:277|398:185,1,200
352,120,36403,6,0,B|304:32,1,100
128,32,36816,2,0,B|184:128,1,100
216,192,37230,1,0
256,264,37437,1,0
296,336,37644,5,0
328,320,37747,1,0
360,304,37851,2,0,B|408:280,2,50
296,336,38265,1,0
216,336,38471,1,0
184,320,38575,1,0
152,304,38678,1,0
256,264,38885,5,0
256,232,39299,1,0
256,192,39713,1,0
256,144,40127,5,0
208,80,40334,2,0,B|176:128|120:128,1,100
304,80,40747,2,0,B|336:128|392:128,1,100
387,127,41058,1,0
387,127,41161,1,0
336,192,41368,1,0
256,192,41575,1,0
176,192,41782,5,4
176,192,41885,1,0
176,192,41989,1,0
144,264,42196,1,0
184,328,42403,1,0
216,304,42506,1,0
256,288,42609,1,0
296,304,42713,1,0
328,328,42816,1,0
368,264,43023,5,0
336,192,43230,1,0
336,192,43334,1,0
336,192,43437,1,0
336,192,43540,1,0
336,192,43644,1,0
256,192,43851,1,0
256,192,44058,2,0,B|336:96|240:0,1,200
192,72,44678,5,0
136,128,44885,1,0
88,192,45092,1,0
136,256,45299,1,0
160,288,45403,1,0
192,312,45506,1,0
224,288,45609,1,0
247,251,45713,2,0,B|311:251,2,50
424,192,46334,5,0
376,128,46540,1,0
320,72,46747,1,0
288,96,46851,1,0
256,120,46954,2,0,B|256:192,2,50
320,72,47368,1,0
192,72,47782,6,0,B|80:72,1,100
40,136,48196,1,0
96,192,48403,1,4
96,192,48506,1,0
96,192,48609,1,0
40,248,48816,1,0
92,312,49023,1,0
256,352,49437,6,0,B|288:304|352:304,1,100
400,352,49851,1,0
464,304,50058,1,4
464,304,50161,1,0
464,304,50265,2,0,B|432:208,1,100
408,136,50678,5,0
456,72,50885,2,0,B|488:24,4,50
408,136,51506,1,0
360,72,51713,5,4
320,56,51816,1,0
280,40,51920,1,0
256,120,52127,1,0
152,312,52540,1,4
192,328,52644,1,0
232,344,52747,1,0
256,264,52954,1,0
96,192,53368,5,0
176,192,53575,1,0
256,192,53782,1,0
336,192,53989,1,0
416,192,54196,2,0,B|472:192,2,50
376,264,54609,1,8
336,192,54816,1,0
376,120,55023,1,4
312,72,55230,5,0
312,72,55334,1,0
312,72,55437,1,0
256,128,55644,2,0,B|256:232,2,100
200,72,56265,1,0
200,72,56471,2,0,B|240:32,2,50
136,128,56885,1,0
80,192,57092,1,0
136,256,57299,6,0,B|192:344|328:352,1,200
352,288,57920,1,0
408,344,58127,1,0
464,288,58334,1,0
408,232,58540,1,0
408,232,58644,1,0
408,232,58747,2,0,B|448:184|400:128,1,100
409,140,59058,1,0
409,140,59161,1,0
409,140,59368,1,0
352,88,59575,5,0
312,72,59678,1,0
272,56,59782,2,0,B|224:32,3,50
200,64,60196,2,0,B|168:112,3,50
152,136,60609,1,0
136,168,60713,1,0
120,200,60816,2,0,B|92:248,1,50
88,280,61023,2,0,B|152:312,1,50
132,302,61230,5,0
200,264,61437,1,0
256,328,61644,1,4
256,328,61851,1,0
312,264,62058,1,0
376,304,62265,1,0
432,152,62678,6,0,B|432:88|368:56,1,100
328,120,63092,1,0
256,88,63299,1,0
184,120,63506,1,0
80,152,63713,2,0,B|80:88|144:56,1,100
256,192,64334,5,0
208,256,64540,1,0
256,320,64747,1,0
304,256,64954,1,0
320,256,65058,1,0
336,256,65161,1,0
352,248,65265,1,0
368,232,65368,1,0
376,216,65471,1,0
376,200,65575,1,0
376,184,65678,1,0
376,168,65782,1,0
376,152,65885,1,0
368,136,65989,1,0
360,120,66092,1,0
352,104,66196,1,0
344,88,66299,1,0
328,80,66403,1,0
312,80,66506,1,0
296,80,66609,6,0,B|256:40|208:80,1,100
184,160,67023,1,0
256,192,67230,1,0
256,192,67334,1,0
256,192,67437,1,0
328,160,67644,1,0
256,192,67851,2,0,B|256:136,2,50
256,272,68265,1,4
120,352,68678,5,8
48,192,69092,1,2
120,32,69506,1,8
256,112,69920,1,2
392,32,70334,1,8
464,192,70747,1,2
392,352,71161,1,8
256,272,71575,1,2
120,352,71989,1,8
120,352,72196,1,0
256,272,72609,5,0
256,272,72816,1,8
256,192,73023,1,0
256,176,73127,1,0
256,160,73230,2,0,B|256:56,1,100,2|0
176,80,73644,1,8
216,8,73851,1,0
296,8,74058,1,2
336,80,74265,1,0
256,80,74471,2,0,B|256:112,4,25,8|0|0|0|0
256,80,74885,1,2
376,192,75299,5,8
432,248,75506,2,0,B|432:304|368:336,1,100,0|0
320,280,75920,1,2
256,328,76127,1,8
192,280,76334,1,0
130,328,76540,2,0,B|80:304|80:248,1,100,2|0
136,192,76954,1,8
136,192,77161,2,0,B|136:64|264:64,1,200,2|0
256,64,77782,1,8
256,64,77989,1,2
328,104,78195,5,0
288,168,78402,1,4
360,208,78609,1,8
312,272,78816,1,0
384,312,79023,1,2
368,328,79127,1,0
352,344,79230,1,4
336,352,79334,1,0
320,352,79437,1,8
304,352,79540,1,0
280,344,79644,1,0
264,328,79747,1,0
248,312,79851,1,2
240,296,79954,1,0
232,280,80058,1,0
216,272,80161,1,0
200,280,80265,1,8
192,296,80368,1,0
184,312,80471,1,2
256,192,81092,5,8
344,328,81506,1,4
360,320,81609,1,0
376,312,81713,1,0
392,304,81816,1,0
408,296,81920,1,0
464,240,82127,1,0
448,224,82230,1,0
432,208,82334,6,0,B|424:152|352:136,1,100
328,72,82747,1,0
256,112,82954,1,0
256,112,83058,1,0
256,112,83161,1,0
184,72,83368,1,0
145,139,83575,2,0,B|88:152|80:208,1,100
184,328,84196,5,0
256,288,84403,1,0
328,328,84609,1,0
256,288,84816,1,0
256,272,84920,1,0
256,256,85023,1,0
256,240,85127,1,0
256,224,85230,1,0
200,168,85437,5,0
256,112,85644,1,0
312,168,85851,1,0
256,112,86058,1,0
280,104,86161,1,0
296,88,86265,1,0
296,64,86368,1,0
288,40,86471,1,0
272,24,86575,1,0
256,16,86678,1,0
240,24,86782,1,0
224,40,86885,1,0
216,64,86989,1,0
216,88,87092,1,0
232,104,87196,1,0
256,112,87299,6,0,B|256:192,1,50
256,162,87506,1,0
192,208,87713,1,0
216,288,87920,1,0
296,288,88127,1,4
320,208,88334,1,0
256,232,88540,1,0
256,232,88747,1,0
136,144,89161,5,0
184,80,89368,1,0
256,40,89575,1,0
328,80,89782,1,4
376,144,89989,1,0
256,40,90196,2,0,B|256:144,1,100
256,344,90816,6,0,B|256:240,1,100
256,244,91230,1,0
256,160,91437,2,0,B|320:160,2,50,4|0|0
256,160,91747,2,0,B|296:112,2,50
256,160,92058,2,0,B|256:96,2,50,0|0|4
256,160,92368,2,0,B|216:112,2,50
256,160,92678,2,0,B|192:160,2,50
256,160,92989,6,0,B|256:224,1,50,0|4
120,336,93506,1,0
392,336,93920,1,0
440,272,94127,1,0
464,192,94334,1,0
440,112,94540,1,0
392,48,94747,5,4
360,72,94851,1,0
320,64,94954,1,0
296,96,95058,1,0
256,112,95161,1,0
216,96,95265,1,0
192,64,95368,1,0
152,72,95471,1,0
120,48,95575,1,0
120,48,95678,1,0
120,48,95782,2,0,B|72:48,8,25
136,194,96403,6,0,B|136:274|256:354|360:290|377:192,1,350,4|0
256,192,98058,1,4
