osu file format v12

[General]
AudioFilename: 2-07 .mp3
AudioLeadIn: 2000
PreviewTime: 11315
Countdown: 0
SampleSet: Soft
StackLeniency: 0.7
Mode: 0
LetterboxInBreaks: 0

[Editor]
Bookmarks: 11306,33248,38734,49705,60676,67534,78505,89476,100448,111419
DistanceSpacing: 1.2
BeatDivisor: 3
GridSize: 4

[Metadata]
Title:Elpis
TitleUnicode:ΕΛΠΙΣ
Artist:dj TAKA
ArtistUnicode:dj TAKA
Creator:Maddy
Version:Kaiden
Source:beatmania IIDX
Tags:
BeatmapID:252103
BeatmapSetID:93450

[Difficulty]
HPDrainRate:8
CircleSize:4
OverallDifficulty:8
ApproachRate:9
SliderMultiplier:1.8
SliderTickRate:1

[Events]
//Background and Video events
0,0,"429160-1600x900.jpg",0,0
//Break Periods
2,33458,38130
//Storyboard Layer 0 (Background)
//Storyboard Layer 1 (Fail)
//Storyboard Layer 2 (Pass)
//Storyboard Layer 3 (Foreground)
//Storyboard Sound Samples
//Background Colour Transformations
3,100,0,0,0

[TimingPoints]
344,342.857142857143,4,1,0,75,1,0
11315,-100,4,2,0,75,0,1
33258,-100,4,2,0,75,0,0
38730,342.857142857143,4,2,0,45,1,0
38730,-133.333333333333,4,2,0,45,0,0
49715,342.857142857143,4,2,0,75,1,0
49715,-133.333333333333,4,2,0,75,0,0
63429,-133.333333333333,4,1,0,45,0,0
66172,-133.333333333333,4,2,0,55,0,0
67544,-100,4,2,0,75,0,1
111429,-100,4,2,0,75,0,0

[Colours]
Combo1 : 17,254,176
Combo2 : 198,255,64
Combo3 : 53,219,62
Combo4 : 104,201,253

[HitObjects]
196,112,344,1,0,0:0:0:0:
232,196,516,1,0,0:0:0:0:
196,112,687,2,0,P|256:124|336:120,1,135,8|0,0:2|0:0,0:0:0:0:
136,184,1202,1,0,0:0:0:0:
64,236,1373,1,0,0:0:0:0:
52,148,1544,1,0,0:0:0:0:
52,148,1630,1,0,0:0:0:0:
52,148,1716,2,0,P|57:85|64:52,1,90
220,140,2058,6,0,P|216:224|208:280,1,135,8|0,0:2|0:0,0:0:0:0:
221,140,2573,1,0,0:0:0:0:
284,76,2744,1,0,0:0:0:0:
372,84,2916,1,0,0:0:0:0:
368,100,3002,1,0,0:0:0:0:
364,116,3087,2,0,L|368:208,1,90
296,328,3430,6,0,L|288:192,1,135,8|0,0:2|0:0,0:0:0:0:
200,296,3944,1,0,0:0:0:0:
360,240,4116,1,0,0:0:0:0:
192,200,4287,1,0,0:0:0:0:
224,204,4373,1,0,0:0:0:0:
256,208,4459,1,0,0:0:0:0:
116,256,4630,1,0,0:0:0:0:
216,120,4801,6,0,B|200:60|200:60|168:36|128:36,1,135,8|0,0:2|0:0,0:0:0:0:
308,88,5315,1,0,0:0:0:0:
292,176,5486,1,0,0:0:0:0:
396,56,5658,1,0,0:0:0:0:
400,84,5743,1,0,0:0:0:0:
404,112,5829,2,0,L|396:212,1,90
228,312,6172,6,0,P|292:284|376:292,1,135,8|0,0:2|0:0,0:0:0:0:
148,268,6686,1,0,0:0:0:0:
220,216,6858,1,0,0:0:0:0:
304,356,7029,1,0,0:0:0:0:
304,356,7115,1,0,0:0:0:0:
304,356,7201,2,0,L|300:256,1,90
432,224,7543,6,0,L|436:368,1,135,8|0,0:2|0:0,0:0:0:0:
240,296,8058,1,0,0:0:0:0:
304,236,8229,1,0,0:0:0:0:
176,228,8401,1,0,0:0:0:0:
172,196,8486,1,0,0:0:0:0:
168,164,8572,1,0,0:0:0:0:
324,316,8744,1,0,0:0:0:0:
252,160,8915,6,0,P|328:144|388:168,1,135,8|0,0:2|0:0,0:0:0:0:
444,280,9429,1,0,0:0:0:0:
468,192,9601,1,0,0:0:0:0:
448,104,9772,1,0,0:0:0:0:
448,104,9858,1,0,0:0:0:0:
448,104,9944,1,0,0:0:0:0:
444,280,10115,1,0,0:0:0:0:
292,188,10286,6,0,P|298:84|308:40,1,135,8|0,0:2|0:0,0:0:0:0:
208,148,10801,1,0,0:0:0:0:
216,236,10972,1,0,0:0:0:0:
188,252,11058,1,0,0:0:0:0:
156,256,11144,1,0,0:0:0:0:
124,252,11229,1,0,0:0:0:0:
96,236,11315,6,0,L|76:184,1,45,4|0,1:2|0:0,0:0:0:0:
8,208,11486,2,0,L|28:260,1,45
68,316,11658,1,0,1:0:0:0:
108,328,11744,1,0,0:0:0:0:
148,336,11829,1,0,0:0:0:0:
188,332,11915,1,0,1:0:0:0:
228,320,12001,5,0,0:0:0:0:
264,300,12086,1,0,0:0:0:0:
288,268,12172,1,0,1:0:0:0:
300,228,12258,1,0,0:0:0:0:
296,188,12344,1,0,1:0:0:0:
260,204,12429,1,0,0:0:0:0:
220,204,12515,1,0,0:0:0:0:
180,192,12601,1,0,0:0:0:0:
148,168,12686,6,0,P|141:144|136:116,1,45,0|0,1:0|0:0,0:0:0:0:
239,73,12858,2,0,P|228:90|216:112,1,45
324,108,13029,2,0,P|346:99|376:96,1,45,0|0,1:0|0:0,0:0:0:0:
464,152,13201,2,0,P|441:160|412:164,1,45,0|0,0:0|1:0,0:0:0:0:
332,200,13372,1,0,0:0:0:0:
352,224,13458,1,0,0:0:0:0:
380,240,13544,1,0,1:0:0:0:
408,248,13629,1,0,0:0:0:0:
440,248,13715,2,0,P|464:240|484:232,3,45,0|0|0|0,1:0|0:0|0:0|0:0,0:0:0:0:
416,328,14058,6,0,L|368:316,1,45,0|0,1:0|0:0,0:0:0:0:
240,352,14229,2,0,L|288:364,1,45
304,268,14401,1,0,1:0:0:0:
296,228,14486,1,0,0:0:0:0:
276,192,14572,1,0,0:0:0:0:
244,168,14658,1,0,1:0:0:0:
204,156,14744,5,0,0:0:0:0:
164,152,14829,1,0,0:0:0:0:
124,156,14915,1,0,1:0:0:0:
84,168,15001,1,0,0:0:0:0:
48,188,15086,1,0,1:0:0:0:
88,196,15172,1,0,0:0:0:0:
128,188,15258,1,0,0:0:0:0:
164,168,15344,1,0,0:0:0:0:
188,136,15429,6,0,L|192:80,1,45,0|0,1:0|0:0,0:0:0:0:
288,172,15601,2,0,L|292:116,1,45
388,100,15772,2,0,L|392:44,1,45,0|0,1:0|0:0,0:0:0:0:
488,136,15944,2,0,L|492:80,1,45,0|0,0:0|1:0,0:0:0:0:
480,216,16115,2,0,L|476:260,3,45,0|0|0|0,0:0|0:0|1:0|0:0,0:0:0:0:
376,184,16458,1,0,1:0:0:0:
364,224,16544,1,0,0:0:0:0:
360,264,16629,1,0,0:0:0:0:
364,304,16715,1,0,0:0:0:0:
384,340,16801,6,0,P|360:344|332:340,1,45,4|0,1:2|0:0,0:0:0:0:
288,268,16972,2,0,P|284:244|288:216,1,45
356,164,17144,2,0,P|380:160|408:164,1,45,0|0,1:0|0:0,0:0:0:0:
452,236,17315,2,0,P|456:260|452:288,1,45,0|0,0:0|1:0,0:0:0:0:
288,268,17486,6,0,L|232:276,1,45
80,248,17658,2,0,L|136:240,1,45,0|0,1:0|0:0,0:0:0:0:
280,164,17829,2,0,L|224:172,1,45,0|0,1:0|0:0,0:0:0:0:
72,144,18001,2,0,L|128:136,1,45
336,80,18172,6,0,L|372:40,1,45,0|0,1:0|0:0,0:0:0:0:
480,144,18344,2,0,L|428:156,1,45
176,80,18515,2,0,L|140:40,1,45,0|0,1:0|0:0,0:0:0:0:
32,144,18687,2,0,L|84:156,1,45,0|0,0:0|1:0,0:0:0:0:
256,200,18858,5,0,0:0:0:0:
296,208,18944,1,0,0:0:0:0:
336,208,19029,1,0,1:0:0:0:
376,200,19115,1,0,0:0:0:0:
412,180,19201,2,0,P|412:208|420:236,3,45,0|0|0|0,1:0|0:0|0:0|0:0,0:0:0:0:
416,152,19544,1,0,1:0:0:0:
424,128,19629,1,0,0:0:0:0:
440,104,19715,1,0,0:0:0:0:
460,88,19801,1,0,0:0:0:0:
484,76,19886,5,0,1:0:0:0:
444,56,19972,1,0,0:0:0:0:
400,52,20058,1,0,0:0:0:0:
356,56,20144,1,0,1:0:0:0:
316,72,20229,2,0,L|320:128,1,45
196,312,20401,2,0,L|192:256,1,45,0|0,1:0|0:0,0:0:0:0:
180,116,20572,1,0,1:0:0:0:
180,97,20658,1,0,0:0:0:0:
180,78,20744,1,0,0:0:0:0:
180,60,20829,1,0,0:0:0:0:
216,32,20915,6,0,L|216:136,1,90,0|0,1:0|0:0,0:0:0:0:
224,152,21172,1,0,0:0:0:0:
244,176,21258,1,0,1:0:0:0:
272,188,21344,1,0,0:0:0:0:
304,188,21429,1,0,0:0:0:0:
336,180,21515,1,0,1:0:0:0:
364,164,21601,5,0,0:0:0:0:
404,164,21686,1,0,0:0:0:0:
440,180,21772,1,0,1:0:0:0:
464,212,21858,1,0,0:0:0:0:
468,252,21944,1,0,1:0:0:0:
456,292,22029,1,0,1:0:0:0:
424,316,22115,1,0,1:0:0:0:
384,320,22201,1,0,1:0:0:0:
348,308,22286,6,0,L|300:320,1,45,4|0,1:2|0:0,0:0:0:0:
208,384,22458,2,0,L|256:372,1,45
240,264,22629,1,0,1:0:0:0:
224,228,22715,1,0,0:0:0:0:
224,188,22801,1,0,0:0:0:0:
236,148,22886,1,0,1:0:0:0:
264,120,22972,5,0,0:0:0:0:
236,104,23058,1,0,0:0:0:0:
204,96,23144,1,0,1:0:0:0:
172,96,23229,1,0,0:0:0:0:
140,100,23315,1,0,1:0:0:0:
112,112,23401,1,0,0:0:0:0:
84,128,23486,1,0,0:0:0:0:
60,152,23572,1,0,0:0:0:0:
44,180,23658,6,0,L|40:232,1,45,0|0,1:0|0:0,0:0:0:0:
160,320,23829,2,0,L|163:275,1,45
348,275,24001,2,0,L|352:320,1,45,0|0,1:0|0:0,0:0:0:0:
471,224,24172,2,0,L|468:180,1,45,0|0,0:0|1:0,0:0:0:0:
384,64,24344,5,0,0:0:0:0:
384,96,24429,1,0,0:0:0:0:
372,124,24515,1,0,1:0:0:0:
348,144,24601,1,0,0:0:0:0:
320,156,24686,1,0,1:0:0:0:
288,160,24772,1,0,0:0:0:0:
256,152,24858,1,0,0:0:0:0:
228,136,24944,1,0,0:0:0:0:
208,112,25029,6,0,P|201:87|200:64,1,45,0|0,1:0|0:0,0:0:0:0:
296,24,25201,2,0,P|302:48|304:72,1,45
296,200,25372,1,0,1:0:0:0:
280,236,25458,1,0,0:0:0:0:
248,260,25544,1,0,0:0:0:0:
212,276,25629,1,0,1:0:0:0:
172,280,25715,5,0,0:0:0:0:
200,308,25801,1,0,0:0:0:0:
236,324,25886,1,0,1:0:0:0:
276,328,25972,1,0,0:0:0:0:
316,320,26058,1,0,1:0:0:0:
352,304,26144,1,0,0:0:0:0:
376,272,26229,1,0,0:0:0:0:
396,236,26315,1,0,0:0:0:0:
400,196,26401,6,0,L|384:144,1,45,0|0,1:0|0:0,0:0:0:0:
236,40,26572,2,0,L|252:92,1,45
125,231,26744,2,0,L|112:188,1,45,0|0,1:0|0:0,0:0:0:0:
300,168,26915,2,0,L|313:211,1,45,0|0,0:0|1:0,0:0:0:0:
492,272,27086,1,0,0:0:0:0:
476,300,27172,1,0,0:0:0:0:
452,320,27258,1,0,1:0:0:0:
424,332,27344,1,0,0:0:0:0:
392,336,27429,1,0,1:0:0:0:
360,332,27515,1,0,0:0:0:0:
328,324,27601,1,0,0:0:0:0:
300,308,27686,1,0,0:0:0:0:
276,288,27772,5,4,1:2:0:0:
244,264,27858,1,0,0:0:0:0:
208,248,27944,1,0,0:0:0:0:
168,244,28029,1,0,0:0:0:0:
128,244,28115,1,0,1:0:0:0:
88,252,28201,1,0,0:0:0:0:
52,272,28286,1,0,0:0:0:0:
28,304,28372,1,0,1:0:0:0:
8,340,28458,5,0,0:0:0:0:
28,304,28544,1,0,0:0:0:0:
36,264,28629,1,0,1:0:0:0:
36,224,28715,1,0,0:0:0:0:
32,184,28801,1,0,1:0:0:0:
28,144,28886,1,0,0:0:0:0:
40,104,28972,1,0,0:0:0:0:
72,76,29058,1,0,0:0:0:0:
112,64,29144,5,4,1:2:0:0:
144,68,29229,1,0,0:0:0:0:
172,84,29315,1,0,0:0:0:0:
192,108,29401,1,0,0:0:0:0:
216,132,29486,1,0,1:0:0:0:
244,144,29572,1,0,0:0:0:0:
276,144,29658,1,0,0:0:0:0:
304,132,29744,1,0,1:0:0:0:
328,116,29829,5,0,0:0:0:0:
356,104,29915,1,0,0:0:0:0:
388,104,30001,1,0,1:0:0:0:
420,112,30086,1,0,0:0:0:0:
444,132,30172,1,0,1:0:0:0:
460,160,30258,1,0,0:0:0:0:
464,192,30344,1,0,0:0:0:0:
456,224,30429,1,0,0:0:0:0:
440,252,30515,5,4,1:2:0:0:
408,276,30601,1,0,0:0:0:0:
368,288,30686,1,0,0:0:0:0:
328,288,30772,1,0,0:0:0:0:
288,276,30858,1,0,1:0:0:0:
256,252,30944,1,0,0:0:0:0:
236,220,31029,1,0,0:0:0:0:
232,180,31115,1,0,1:0:0:0:
240,140,31201,5,4,0:2:0:0:
236,100,31286,1,0,0:0:0:0:
216,64,31372,1,0,1:0:0:0:
180,44,31458,1,0,0:0:0:0:
140,40,31544,1,0,1:0:0:0:
104,52,31629,1,0,0:0:0:0:
76,80,31715,1,0,0:0:0:0:
60,116,31801,1,0,0:0:0:0:
60,156,31886,6,0,L|76:200,3,45,4|0|0|0,1:2|0:0|0:0|0:0,0:0:0:0:
140,152,32229,1,4,1:2:0:0:
146,168,32315,1,0,0:0:0:0:
153,184,32401,1,0,0:0:0:0:
159,200,32486,1,0,1:0:0:0:
164,216,32572,6,0,L|152:272,1,45,4|0,0:2|0:0,0:0:0:0:
228,280,32744,2,0,L|237:235,1,45,0|0,1:0|0:0,0:0:0:0:
312,260,32915,2,0,L|300:316,1,45,4|0,1:2|1:0,0:0:0:0:
376,324,33087,2,0,L|385:279,1,45,0|0,1:0|1:0,0:0:0:0:
456,312,33258,5,4,1:2:0:0:
208,100,38730,6,2,P|208:127|204:176,2,67.5000025749208,6|2|2,0:0|0:0|0:0,0:0:0:0:
124,132,39244,2,2,P|113:203|96:276,1,135.000005149842
172,316,39758,1,2,0:0:0:0:
196,232,39930,1,2,0:0:0:0:
280,204,40101,6,2,L|352:212,1,67.5000025749208
324,312,40444,2,2,L|252:304,1,67.5000025749208
428,264,40787,2,2,P|439:205|440:120,1,135.000005149842
84,120,41472,6,2,P|72:178|72:264,1,135.000005149842
152,216,41987,1,2,0:0:0:0:
240,204,42158,2,2,P|273:204|308:212,1,67.5000025749208
344,292,42501,1,2,0:0:0:0:
296,120,42672,1,2,0:0:0:0:
380,144,42844,6,2,P|448:136|524:116,1,135.000005149842
312,208,43530,2,2,P|244:216|168:236,1,135.000005149842,2|2,0:0|0:0,0:0:0:0:
140,312,44044,1,2,0:0:0:0:
68,264,44215,6,2,L|80:120,1,135.000005149842
152,76,44730,1,2,0:0:0:0:
236,108,44901,2,2,L|280:104,3,33.7500012874604
304,104,45244,1,2,0:0:0:0:
336,112,45330,1,2,0:0:0:0:
364,128,45415,1,2,0:0:0:0:
396,136,45501,1,2,0:0:0:0:
428,132,45587,6,2,L|452:96,1,33.7500012874604
476,188,45758,2,2,L|500:152,1,33.7500012874604
472,268,45930,1,2,0:0:0:0:
448,260,46015,1,2,0:0:0:0:
420,256,46101,1,2,0:0:0:0:
392,256,46187,1,2,0:0:0:0:
364,260,46272,2,2,P|341:265|308:276,3,33.7500012874604
288,332,46615,1,2,0:0:0:0:
300,188,46787,1,2,0:0:0:0:
208,300,46958,6,2,P|155:291|60:296,1,135.000005149842
136,216,47472,2,2,P|148:144|144:68,1,135.000005149842
284,232,48158,1,2,0:0:0:0:
44,112,48501,1,2,0:0:0:0:
44,112,48672,6,2,L|132:120,1,67.5000025749208,2|0,0:0|0:0,0:0:0:0:
468,224,49015,2,2,L|380:232,1,67.5000025749208,2|0,0:0|0:0,0:0:0:0:
44,336,49358,2,2,L|132:344,1,67.5000025749208,2|2,0:0|0:0,0:0:0:0:
448,320,49715,5,4,0:0:0:0:
468,220,49886,1,2,0:0:0:0:
372,192,50058,1,0,0:0:0:0:
344,288,50229,1,2,0:0:0:0:
372,192,50401,5,0,0:0:0:0:
256,104,50572,1,2,0:0:0:0:
140,192,50744,1,0,0:0:0:0:
256,272,50915,1,2,0:0:0:0:
372,192,51086,6,0,P|377:157|376:112,1,67.5000025749208,0|2,0:0|0:0,0:0:0:0:
328,36,51429,1,0,0:0:0:0:
184,348,51601,1,2,0:0:0:0:
134,259,51772,2,0,P|134:226|140:192,1,67.5000025749208,0|2,0:0|0:0,0:0:0:0:
236,160,52115,2,0,P|235:192|230:227,1,67.5000025749208,0|2,0:0|0:0,0:0:0:0:
92,340,52458,5,0,0:0:0:0:
212,280,52629,1,2,0:0:0:0:
320,300,52801,1,0,0:0:0:0:
404,328,52972,1,2,0:0:0:0:
472,272,53144,2,0,L|480:196,1,67.5000025749208,0|2,0:0|0:0,0:0:0:0:
324,144,53486,2,0,L|316:220,1,67.5000025749208,0|2,0:0|0:0,0:0:0:0:
400,204,53829,6,0,L|416:64,1,135.000005149842,2|0,0:0|0:0,0:0:0:0:
244,196,54515,2,0,L|260:336,1,135.000005149842,2|0,0:0|0:0,0:0:0:0:
68,228,55201,5,4,1:2:0:0:
36,124,55372,1,0,0:0:0:0:
140,88,55544,1,0,0:0:0:0:
176,192,55715,1,0,0:0:0:0:
68,228,55886,2,0,L|16:220,1,33.7500012874604,2|0,0:0|0:0,0:0:0:0:
108,296,56058,2,0,L|76:320,1,33.7500012874604,2|0,0:0|0:0,0:0:0:0:
180,332,56229,2,0,L|164:372,1,33.7500012874604,2|0,0:0|0:0,0:0:0:0:
264,336,56401,2,0,L|268:372,1,33.7500012874604,2|0,0:0|0:0,0:0:0:0:
336,288,56572,5,2,0:0:0:0:
352,256,56658,1,2,0:0:0:0:
352,224,56744,1,2,0:0:0:0:
336,192,56829,1,2,0:0:0:0:
316,164,56915,1,2,0:0:0:0:
312,132,57001,1,2,0:0:0:0:
324,100,57086,1,2,0:0:0:0:
352,84,57172,1,2,0:0:0:0:
384,76,57258,6,0,L|460:88,1,67.5000025749208,2|0,0:0|0:0,0:0:0:0:
424,184,57601,1,0,0:0:0:0:
256,76,57772,1,0,0:0:0:0:
88,184,57944,2,0,L|12:196,1,67.5000025749208,2|0,0:0|0:0,0:0:0:0:
256,304,58286,1,2,0:0:0:0:
132,88,58458,2,0,L|56:100,1,67.5000025749208,2|0,0:0|0:0,0:0:0:0:
380,296,58800,2,0,L|456:284,1,67.5000025749208,2|0,0:0|0:0,0:0:0:0:
188,248,59144,6,0,P|248:220|312:240,1,135.000005149842,2|0,0:0|0:0,0:0:0:0:
152,324,59658,2,0,L|72:304,1,67.5000025749208,2|0,0:0|0:0,0:0:0:0:
360,324,60001,2,0,L|440:304,1,67.5000025749208,2|0,0:0|0:0,0:0:0:0:
116,192,60344,1,2,0:0:0:0:
192,128,60515,1,0,0:0:0:0:
292,132,60686,5,4,1:2:0:0:
292,132,60857,1,0,0:0:0:0:
104,108,61029,2,0,L|24:120,1,67.5000025749208,2|0,0:0|0:0,0:0:0:0:
408,108,61372,2,0,L|488:120,1,67.5000025749208,2|0,0:0|0:0,0:0:0:0:
104,196,61715,1,2,0:0:0:0:
256,56,61886,1,0,0:0:0:0:
408,196,62058,5,4,1:2:0:0:
408,196,62229,1,0,0:0:0:0:
176,84,62401,2,0,L|160:16,1,67.5000025749208,2|0,0:0|0:0,0:0:0:0:
300,292,62744,2,0,L|284:360,1,67.5000025749208,2|0,0:0|0:0,0:0:0:0:
388,84,63086,2,0,L|372:16,1,67.5000025749208,2|0,0:0|0:0,0:0:0:0:
512,292,63429,6,0,L|496:196,1,90.0000034332277,4|0,0:2|0:0,0:0:0:0:
420,196,63772,2,0,P|376:180|328:188,1,90.0000034332277
284,244,64115,2,0,P|328:260|376:252,1,90.0000034332277,4|0,0:2|0:0,0:0:0:0:
420,196,64458,2,0,L|420:104,1,90.0000034332277
284,244,64801,6,0,L|284:300,1,45.0000017166138,4|0,0:2|0:0,0:0:0:0:
216,332,65029,1,0,0:0:0:0:
140,304,65144,2,0,L|140:248,1,45.0000017166138,4|0,0:2|0:0,0:0:0:0:
208,216,65372,1,0,0:0:0:0:
284,244,65486,2,0,L|336:248,1,45.0000017166138,4|0,0:2|0:0,0:0:0:0:
400,180,65715,1,0,0:0:0:0:
428,88,65829,2,0,L|432:36,1,45.0000017166138,4|0,0:2|0:0,0:0:0:0:
400,180,66058,1,2,0:2:0:0:
428,268,66172,6,2,L|452:304,3,33.7500012874604
388,264,66515,1,2,0:0:0:0:
348,260,66601,1,2,0:0:0:0:
308,256,66686,1,2,0:0:0:0:
268,252,66772,1,2,0:0:0:0:
228,248,66858,5,2,0:0:0:0:
220,220,66944,1,2,0:0:0:0:
220,188,67029,1,2,0:0:0:0:
232,160,67115,1,2,0:0:0:0:
236,128,67201,1,2,0:0:0:0:
232,100,67286,1,2,0:0:0:0:
220,72,67372,1,2,0:0:0:0:
196,56,67458,1,2,0:0:0:0:
156,52,67544,6,0,P|112:60|64:88,1,90,4|0,1:2|0:0,0:0:0:0:
96,152,67801,1,0,0:0:0:0:
96,152,67886,2,0,P|82:196|80:248,1,90,0|0,1:0|0:0,0:0:0:0:
128,300,68144,1,0,0:0:0:0:
128,300,68229,1,0,1:0:0:0:
168,312,68315,1,0,0:0:0:0:
208,304,68401,1,0,0:0:0:0:
240,280,68486,1,0,0:0:0:0:
268,248,68572,1,0,1:0:0:0:
304,232,68658,1,0,0:0:0:0:
344,236,68744,1,0,0:0:0:0:
380,252,68829,1,0,0:0:0:0:
408,284,68915,6,0,P|448:298|500:304,1,90,0|0,1:0|0:0,0:0:0:0:
468,224,69172,1,0,0:0:0:0:
452,188,69258,2,0,L|432:140,1,45,0|0,1:0|0:0,0:0:0:0:
492,92,69429,2,0,L|512:140,1,45
360,148,69601,1,0,1:0:0:0:
320,144,69686,1,0,0:0:0:0:
280,132,69772,1,0,0:0:0:0:
248,104,69858,1,0,0:0:0:0:
236,64,69944,2,0,P|224:44|208:28,3,45,0|0|0|0,1:0|0:0|0:0|0:0,0:0:0:0:
320,64,70286,6,0,L|372:40,1,45,0|0,1:0|0:0,0:0:0:0:
472,69,70458,2,0,L|432:88,1,45,0|0,0:0|0:0,0:0:0:0:
360,148,70629,2,0,P|364:192|372:248,1,90,0|0,1:0|0:0,0:0:0:0:
388,308,70886,1,0,0:0:0:0:
388,308,70972,2,0,P|344:304|304:272,1,90,0|0,1:0|0:0,0:0:0:0:
272,212,71229,1,0,0:0:0:0:
272,212,71315,1,0,1:0:0:0:
232,200,71401,1,0,0:0:0:0:
192,200,71486,1,0,0:0:0:0:
152,212,71572,1,0,0:0:0:0:
124,240,71658,6,0,L|116:292,1,45,0|0,1:0|0:0,0:0:0:0:
204,300,71829,2,0,L|208:352,1,45
292,312,72001,1,0,1:0:0:0:
324,308,72086,1,0,0:0:0:0:
356,304,72172,1,0,0:0:0:0:
388,300,72258,1,0,0:0:0:0:
420,296,72344,5,0,1:0:0:0:
432,276,72429,1,0,0:0:0:0:
440,256,72515,1,0,0:0:0:0:
444,232,72601,1,0,0:0:0:0:
444,208,72686,2,0,L|424:160,1,45,0|0,1:0|0:0,0:0:0:0:
444,88,72858,2,0,L|460:40,1,45
360,116,73029,6,0,P|308:120|260:108,1,90,0|0,1:0|0:0,0:0:0:0:
200,76,73286,1,0,0:0:0:0:
200,76,73372,2,0,P|148:68|108:76,1,90,0|0,1:0|0:0,0:0:0:0:
56,128,73629,1,0,0:0:0:0:
56,128,73715,2,0,L|64:184,1,45,0|0,1:0|0:0,0:0:0:0:
144,204,73886,2,0,L|132:252,1,45
60,316,74058,1,0,1:0:0:0:
96,336,74144,1,0,0:0:0:0:
136,340,74229,1,0,0:0:0:0:
176,332,74315,1,0,0:0:0:0:
208,308,74401,5,0,1:0:0:0:
244,292,74486,1,0,0:0:0:0:
284,288,74572,1,0,0:0:0:0:
324,296,74658,1,0,0:0:0:0:
328,252,74744,5,0,1:0:0:0:
360,232,74829,1,0,0:0:0:0:
400,224,74915,1,0,0:0:0:0:
440,232,75001,1,0,0:0:0:0:
432,180,75086,5,0,1:0:0:0:
420,140,75172,1,0,0:0:0:0:
424,100,75258,1,0,0:0:0:0:
448,68,75344,1,0,0:0:0:0:
404,44,75429,5,0,1:0:0:0:
364,32,75515,1,0,0:0:0:0:
324,32,75601,1,0,0:0:0:0:
284,44,75686,1,0,0:0:0:0:
252,72,75772,6,0,L|264:128,1,45,0|0,1:0|0:0,0:0:0:0:
168,88,75944,2,0,L|158:43,1,45
184,168,76115,1,0,1:0:0:0:
340,108,76286,1,0,0:0:0:0:
244,328,76458,1,0,1:0:0:0:
88,268,76629,1,0,0:0:0:0:
296,208,76801,5,0,1:0:0:0:
320,200,76886,1,0,0:0:0:0:
344,192,76972,1,0,0:0:0:0:
368,184,77058,1,0,0:0:0:0:
392,176,77143,6,2,P|416:152|428:128,1,60,2|2,1:2|0:0,0:0:0:0:
448,52,77372,1,2,0:0:0:0:
504,104,77486,6,2,P|508:136|508:168,1,60,2|2,1:2|0:0,0:0:0:0:
456,224,77715,1,2,0:0:0:0:
392,176,77829,6,2,P|380:144|380:108,1,60,2|2,1:2|0:0,0:0:0:0:
344,48,78057,1,2,0:0:0:0:
268,36,78172,2,0,L|212:28,1,45,0|0,1:0|0:0,0:0:0:0:
144,128,78344,2,0,L|200:120,1,45
400,192,78515,5,4,1:2:0:0:
380,212,78601,1,0,0:0:0:0:
356,224,78686,1,0,0:0:0:0:
328,228,78772,1,0,0:0:0:0:
300,224,78858,1,0,1:0:0:0:
268,220,78944,1,0,0:0:0:0:
236,224,79029,1,0,0:0:0:0:
208,236,79115,1,0,0:0:0:0:
184,256,79201,5,0,1:0:0:0:
152,272,79286,1,0,0:0:0:0:
116,280,79372,1,0,0:0:0:0:
80,276,79458,1,0,0:0:0:0:
48,256,79544,1,0,1:0:0:0:
32,220,79629,1,0,0:0:0:0:
36,180,79715,1,0,0:0:0:0:
64,148,79801,1,0,0:0:0:0:
100,132,79886,6,0,L|152:120,1,45,0|0,1:0|0:0,0:0:0:0:
343,50,80058,2,0,L|300:40,1,45
460,176,80229,1,0,1:0:0:0:
424,156,80315,1,0,0:0:0:0:
384,148,80401,1,0,0:0:0:0:
344,152,80486,1,0,0:0:0:0:
308,168,80572,5,0,1:0:0:0:
312,192,80658,1,0,0:0:0:0:
316,216,80744,1,0,0:0:0:0:
320,240,80829,1,0,0:0:0:0:
268,232,80915,5,0,1:0:0:0:
264,208,81000,1,0,0:0:0:0:
260,184,81086,1,0,0:0:0:0:
256,160,81172,1,0,0:0:0:0:
252,136,81258,6,0,L|244:88,1,45,0|0,1:0|0:0,0:0:0:0:
176,160,81429,2,0,L|183:204,1,45
104,120,81601,2,0,L|96:72,1,45,0|0,1:0|0:0,0:0:0:0:
28,144,81772,2,0,L|35:188,1,45
104,240,81944,1,0,1:0:0:0:
120,268,82029,1,0,0:0:0:0:
148,284,82115,1,0,0:0:0:0:
180,288,82201,1,0,0:0:0:0:
212,284,82286,2,0,L|216:240,1,45,0|0,1:0|0:0,0:0:0:0:
296,240,82458,2,0,L|300:284,1,45
332,288,82629,5,0,1:0:0:0:
364,284,82715,1,0,0:0:0:0:
392,268,82801,1,0,0:0:0:0:
408,240,82886,1,0,0:0:0:0:
408,208,82972,1,0,1:0:0:0:
400,176,83058,1,0,0:0:0:0:
400,144,83144,1,0,0:0:0:0:
408,112,83229,1,0,0:0:0:0:
432,88,83315,6,0,P|451:78|480:72,3,45,0|0|0|0,1:0|0:0|0:0|0:0,0:0:0:0:
328,108,83658,1,0,1:0:0:0:
292,108,83744,1,0,0:0:0:0:
256,104,83829,1,0,0:0:0:0:
224,92,83915,1,0,0:0:0:0:
196,72,84001,6,0,P|159:59|92:68,1,90,0|0,1:0|0:0,0:0:0:0:
44,100,84258,1,0,0:0:0:0:
36,140,84344,1,0,1:0:0:0:
44,180,84429,1,0,0:0:0:0:
76,208,84515,1,0,0:0:0:0:
116,216,84601,1,0,0:0:0:0:
156,208,84686,5,0,1:0:0:0:
196,212,84772,1,0,0:0:0:0:
232,236,84858,1,0,0:0:0:0:
248,272,84944,1,0,0:0:0:0:
276,300,85029,1,0,1:0:0:0:
316,312,85115,1,0,0:0:0:0:
356,312,85201,1,0,0:0:0:0:
396,300,85286,1,0,0:0:0:0:
424,272,85372,6,0,L|440:216,1,45,0|0,1:0|0:0,0:0:0:0:
164,288,85544,2,0,L|148:344,1,45
328,232,85715,1,0,1:0:0:0:
348,196,85801,1,0,0:0:0:0:
352,156,85886,1,0,0:0:0:0:
348,116,85972,1,0,0:0:0:0:
332,80,86058,6,0,L|296:40,1,45,0|0,1:0|0:0,0:0:0:0:
460,72,86229,2,0,L|496:112,1,45
248,148,86401,2,0,L|212:108,1,45,0|0,1:0|0:0,0:0:0:0:
428,168,86572,2,0,L|464:208,1,45
236,232,86744,6,0,P|208:224|176:200,1,60,0|0,1:0|0:0,0:0:0:0:
148,168,86972,1,0,0:0:0:0:
52,256,87086,2,0,P|56:220|64:188,1,60,0|0,1:0|0:0,0:0:0:0:
100,156,87315,1,0,0:0:0:0:
24,44,87429,2,0,P|52:52|84:76,1,60,0|0,1:0|0:0,0:0:0:0:
112,108,87657,1,0,0:0:0:0:
208,20,87771,2,0,P|204:56|196:88,1,60,0|0,1:0|0:0,0:0:0:0:
160,120,88000,1,0,0:0:0:0:
288,172,88115,5,2,0:0:0:0:
336,148,88229,1,2,0:0:0:0:
384,124,88344,1,2,0:0:0:0:
432,100,88458,2,2,L|424:160,1,60
416,212,88686,1,2,0:0:0:0:
408,264,88801,2,2,L|348:292,2,60
412,356,89144,2,2,L|472:328,2,60
324,356,89486,6,0,P|284:340|228:336,1,90,4|0,1:2|0:0,0:0:0:0:
208,260,89744,1,0,0:0:0:0:
168,260,89829,2,0,P|120:264|72:284,1,90,0|0,1:0|0:0,0:0:0:0:
112,180,90086,1,0,0:0:0:0:
72,188,90172,5,0,1:0:0:0:
84,148,90258,1,0,0:0:0:0:
108,116,90344,1,0,0:0:0:0:
140,92,90429,1,0,0:0:0:0:
180,80,90515,1,0,1:0:0:0:
220,80,90601,1,0,0:0:0:0:
260,92,90686,1,0,0:0:0:0:
292,116,90772,1,0,0:0:0:0:
316,148,90858,5,0,1:0:0:0:
340,128,90944,1,0,0:0:0:0:
352,100,91029,1,0,0:0:0:0:
356,68,91115,1,0,0:0:0:0:
348,36,91201,2,0,L|316:0,1,45,0|0,1:0|0:0,0:0:0:0:
216,28,91372,2,0,L|248:64,1,45
352,100,91544,5,0,1:0:0:0:
384,100,91629,1,0,0:0:0:0:
416,92,91715,1,0,0:0:0:0:
440,72,91801,1,0,0:0:0:0:
456,44,91886,2,0,L|452:0,1,45,0|0,1:0|0:0,0:0:0:0:
424,164,92058,2,0,L|428:208,1,45
420,316,92229,6,0,L|344:304,1,60,0|0,1:0|0:0,0:0:0:0:
256,288,92458,1,0,0:0:0:0:
256,288,92572,2,0,L|180:276,1,60,0|0,1:0|0:0,0:0:0:0:
92,260,92801,1,0,0:0:0:0:
92,260,92915,6,0,L|84:208,1,45,0|0,1:0|0:0,0:0:0:0:
256,176,93086,2,0,L|264:228,1,45
164,304,93258,2,0,L|216:296,1,45,0|0,1:0|0:0,0:0:0:0:
184,132,93429,2,0,L|132:140,1,45,0|0,0:0|0:0,0:0:0:0:
280,256,93601,6,0,L|344:260,2,60,0|0|0,1:0|0:0|0:0,0:0:0:0:
392,172,93944,2,0,L|456:176,2,60,0|0|0,1:0|0:0|0:0,0:0:0:0:
336,56,94286,1,0,1:0:0:0:
324,96,94372,1,0,0:0:0:0:
292,124,94458,1,0,0:0:0:0:
256,140,94544,1,0,0:0:0:0:
216,144,94629,1,0,1:0:0:0:
176,136,94715,1,0,0:0:0:0:
140,120,94801,1,0,0:0:0:0:
112,92,94886,1,0,0:0:0:0:
96,56,94972,6,0,L|52:56,1,45,0|0,1:0|0:0,0:0:0:0:
192,56,95144,2,0,L|237:56,1,45
44,136,95315,1,0,1:0:0:0:
48,164,95401,1,0,0:0:0:0:
52,192,95486,1,0,0:0:0:0:
56,220,95572,1,0,0:0:0:0:
60,248,95658,1,0,1:0:0:0:
240,200,95829,5,0,0:0:0:0:
268,192,95915,1,0,0:0:0:0:
296,192,96001,1,0,1:0:0:0:
320,200,96086,1,0,0:0:0:0:
344,212,96172,1,0,0:0:0:0:
364,232,96258,1,0,0:0:0:0:
372,256,96344,6,0,L|360:312,1,45,0|0,1:0|0:0,0:0:0:0:
444,184,96515,2,0,L|460:240,1,45
408,84,96686,2,0,L|464:104,1,45,0|0,1:0|0:0,0:0:0:0:
308,52,96858,2,0,L|348:24,1,45
328,136,97029,6,0,L|320:192,1,45,0|0,1:0|0:0,0:0:0:0:
200,324,97201,2,0,L|148:320,1,45
12,232,97372,2,0,L|20:176,1,45,0|0,1:0|0:0,0:0:0:0:
140,44,97544,2,0,L|192:48,1,45
232,152,97715,1,0,1:0:0:0:
228,176,97801,1,0,0:0:0:0:
216,196,97886,1,0,0:0:0:0:
196,208,97972,1,0,0:0:0:0:
176,212,98058,5,0,1:0:0:0:
148,208,98144,1,0,0:0:0:0:
128,188,98229,1,0,0:0:0:0:
120,164,98315,1,0,0:0:0:0:
124,136,98401,1,0,1:0:0:0:
144,112,98486,1,0,0:0:0:0:
176,104,98572,1,0,0:0:0:0:
208,112,98658,1,0,0:0:0:0:
232,132,98744,1,0,1:0:0:0:
244,164,98829,1,0,0:0:0:0:
244,200,98915,1,0,0:0:0:0:
228,232,99001,1,0,0:0:0:0:
200,252,99086,6,0,P|168:256|144:256,1,45,0|0,1:0|0:0,0:0:0:0:
28,136,99258,2,0,P|24:104|24:80,1,45
160,32,99429,2,0,P|192:28|216:28,1,45,0|0,1:0|0:0,0:0:0:0:
332,148,99601,2,0,P|336:180|336:204,1,45
260,332,99772,5,0,1:0:0:0:
28,260,99944,1,0,0:0:0:0:
348,264,100115,1,0,1:0:0:0:
280,40,100286,1,0,0:0:0:0:
372,372,100458,6,0,B|448:356|448:356|424:304|472:252,1,180,4|0,1:2|1:0,0:0:0:0:
488,232,100886,1,0,0:0:0:0:
508,200,100972,2,0,L|496:156,1,45
324,184,101144,2,0,L|336:228,1,45,0|0,1:0|0:0,0:0:0:0:
408,124,101315,1,0,0:0:0:0:
256,288,101486,1,0,1:0:0:0:
104,124,101658,1,0,0:0:0:0:
368,200,101829,6,0,P|412:208|460:192,1,90,0|0,1:0|0:0,0:0:0:0:
444,48,102086,1,0,0:0:0:0:
444,48,102172,2,0,P|400:40|352:56,1,90,0|0,1:0|0:0,0:0:0:0:
260,128,102429,1,0,0:0:0:0:
260,128,102515,2,0,L|248:224,1,90,0|0,1:0|0:0,0:0:0:0:
168,296,102772,1,0,0:0:0:0:
168,296,102858,1,0,1:0:0:0:
368,200,103029,1,0,0:0:0:0:
88,272,103201,6,0,L|28:268,1,60,0|0,1:0|0:0,0:0:0:0:
108,204,103429,1,0,0:0:0:0:
128,136,103544,2,0,L|188:140,1,60,0|0,1:0|0:0,0:0:0:0:
108,204,103772,1,0,0:0:0:0:
88,272,103886,2,0,L|28:268,1,60,0|0,1:0|0:0,0:0:0:0:
108,204,104115,1,0,0:0:0:0:
96,132,104229,5,0,1:2:0:0:
48,76,104344,5,0,0:2:0:0:
116,60,104458,5,0,0:2:0:0:
184,80,104572,6,0,P|204:104|216:132,1,60,0|0,1:2|0:0,0:0:0:0:
216,248,104800,1,0,0:0:0:0:
148,344,104915,6,0,L|200:332,1,45,0|0,1:0|0:0,0:0:0:0:
68,292,105086,2,0,L|16:280,1,45,0|0,0:0|0:0,0:0:0:0:
412,304,105258,2,0,L|464:292,1,45,0|0,1:0|0:0,0:0:0:0:
152,172,105429,2,0,L|100:160,1,45,0|0,0:0|0:0,0:0:0:0:
440,200,105601,6,0,L|472:212,1,30,0|0,1:0|0:0,0:0:0:0:
456,148,105715,2,0,L|488:148,1,30
444,96,105829,2,0,L|480:80,1,30
404,60,105944,5,0,1:0:0:0:
344,236,106115,1,0,0:0:0:0:
224,65,106286,2,0,L|208:108,1,45,0|0,1:0|0:0,0:0:0:0:
256,208,106458,2,0,L|272:165,1,45
380,316,106629,2,0,P|328:320|288:304,1,90,0|0,1:0|0:0,0:0:0:0:
356,152,106972,1,0,1:0:0:0:
472,332,107144,1,0,0:0:0:0:
256,208,107315,5,0,1:0:0:0:
488,212,107486,2,0,L|496:168,3,30,0|0|0|0,0:0|0:0|0:0|1:0,0:0:0:0:
256,320,107829,1,0,0:0:0:0:
412,264,108001,1,0,1:0:0:0:
184,264,108172,1,0,0:0:0:0:
256,96,108344,1,0,1:0:0:0:
172,352,108515,1,0,0:0:0:0:
76,128,108686,6,0,L|176:108,1,90,0|0,1:0|0:0,0:0:0:0:
412,264,109029,1,0,1:0:0:0:
256,96,109201,1,0,0:0:0:0:
484,220,109372,1,0,1:0:0:0:
256,360,109544,1,0,0:0:0:0:
256,360,109629,1,0,0:0:0:0:
256,360,109715,1,0,1:0:0:0:
404,64,109886,1,0,0:0:0:0:
404,64,109972,1,0,0:0:0:0:
404,64,110058,5,0,1:0:0:0:
404,180,110229,1,0,0:0:0:0:
308,248,110401,1,0,1:0:0:0:
200,200,110572,1,0,0:0:0:0:
188,84,110744,1,0,1:0:0:0:
188,84,110829,1,0,0:0:0:0:
188,84,110915,1,0,0:0:0:0:
308,248,111086,1,0,1:0:0:0:
104,268,111257,1,0,0:0:0:0:
404,64,111429,5,6,1:2:0:0:
