osu file format v9

[General]
AudioFilename: 103.mp3
AudioLeadIn: 0
PreviewTime: 157482
Countdown: 1
SampleSet: Normal
StackLeniency: 0.7
Mode: 0
LetterboxInBreaks: 1

[Editor]
DistanceSpacing: 1
BeatDivisor: 4
GridSize: 8

[Metadata]
Title:Absolute (Ryu* Remix)
Artist:dj TAKA
Creator:Kazenage_Negumi
Version:Hard
Source:
Tags:

[Difficulty]
HPDrainRate:4
CircleSize:5
OverallDifficulty:5
ApproachRate:7
SliderMultiplier:1.4
SliderTickRate:1

[Events]
//Background and Video events
0,0,"TdTRRAI.png"
//Break Periods
2,20977,26364
2,81141,85230
2,101898,105987
//Storyboard Layer 0 (Background)
//Storyboard Layer 1 (Fail)
//Storyboard Layer 2 (Pass)
//Storyboard Layer 3 (Foreground)
//Storyboard Sound Samples
//Background Colour Transformations
3,100,81,0,0

[TimingPoints]
21,324.324324324324,4,1,1,100,1,0
44453,405.405405405405,4,1,1,100,1,0
68777,387.096774193548,4,1,1,100,1,0
70325,375,4,1,1,100,1,0
71818,335.195530726257,4,1,1,100,1,0
73158,324.324324324324,4,1,1,100,1,0
123752,-200,4,1,1,100,0,0
134130,-100,4,1,1,100,0,0

[Colours]
Combo1 : 81,0,0
Combo2 : 133,0,0
Combo3 : 41,21,20
Combo4 : 240,5,5

[HitObjects]
64,200,21,2,0,B|88:112|184:144,1,140
168,280,669,1,0
256,168,993,1,0
368,80,1318,2,0,B|440:136|384:208,1,140
280,288,1966,1,0
168,208,2291,1,0
72,112,2615,2,0,B|96:32|192:56,1,140
320,96,3263,1,0
456,48,3587,1,0
456,192,3912,2,0,B|456:280|360:272,1,140
336,136,4560,1,0
272,264,4885,1,0
136,240,5210,2,0,B|128:152|224:144,1,140
352,160,5858,1,0
472,232,6182,1,0
368,320,6507,2,0,B|288:280|320:184,1,140
384,80,7155,1,0
248,32,7480,1,0
136,120,7804,2,0,B|176:192|264:176,1,140
136,256,8452,1,0
256,320,8776,1,0
376,256,9101,2,0,B|440:184|368:104,1,140
248,128,9749,1,0
120,72,10074,1,0
64,200,10399,2,0,B|128:272|200:200,1,140
328,192,11048,2,0,B|352:224|400:208,2,70
192,184,11696,2,0,B|208:96|288:80,1,140
400,144,12345,2,0,B|440:152|456:112,2,70
280,80,12993,2,0,B|216:8|144:80,1,140
128,240,13642,2,0,B|152:272|200:256,2,70
48,232,14290,2,0,B|64:144|144:128,1,140
136,216,14939,2,0,B|168:224|200:184,2,70
200,192,15588,2,0,B|136:120|64:192,1,140
128,240,16237,2,0,B|152:272|200:256,2,70
48,232,16885,2,0,B|64:144|144:128,1,140
136,216,17534,2,0,B|168:224|200:184,2,70
200,192,18183,2,0,B|136:120|64:192,1,140
128,240,18832,2,0,B|152:272|200:256,2,70
48,232,19480,2,0,B|64:144|144:128,1,140
136,216,20129,2,0,B|168:224|200:184,2,70
128,128,20777,1,0
64,192,27264,6,0,B|128:152,2,70
128,224,27912,1,0
184,192,28237,1,0
232,128,28561,2,0,B|288:192,2,70
256,248,29210,1,0
344,192,29534,1,0
64,192,29858,6,0,B|128:152,2,70
128,224,30506,1,0
184,192,30831,1,0
232,128,31155,2,0,B|288:192,2,70
256,248,31804,1,0
344,192,32128,1,0
64,192,32453,6,0,B|128:152,2,70
128,224,33101,1,0
184,192,33426,1,0
232,128,33750,2,0,B|288:192,2,70
256,248,34399,1,0
344,192,34723,1,0
64,192,35048,6,0,B|128:152,2,70
128,224,35696,1,0
184,192,36021,1,0
232,128,36345,6,0,B|288:192,2,70
192,80,36831,1,0
256,64,36993,2,0,B|336:64,2,70
232,128,37642,6,0,B|288:192,2,70
192,80,38128,1,0
256,64,38290,2,0,B|336:64,2,70
120,264,38939,6,0,B|80:296,4,35
152,240,39426,5,0
192,248,39588,6,0,B|232:248,4,35
240,208,40237,2,0,B|264:176,4,35
288,144,40723,1,0
336,168,40885,2,0,B|400:184,4,35
424,208,41372,1,0
368,232,41534,1,0
48,192,44453,1,0
392,184,45871,1,0
440,232,46074,1,0
176,128,47493,1,0
128,168,47696,1,0
296,80,49115,1,0
352,112,49317,1,0
216,224,50736,1,0
168,272,50939,1,0
152,96,52358,1,0
208,128,52561,1,0
416,256,53980,1,0
352,280,54182,1,0
272,160,54993,1,0
192,288,55601,1,0
136,248,55804,1,0
288,32,56209,1,0
432,224,56615,1,0
264,336,57020,1,0
128,200,57425,2,0,B|56:136|144:80,1,140
176,144,58236,2,0,B|248:96|320:144,1,140
248,192,59047,1,0
288,272,59452,1,0
208,328,59858,1,0
128,272,60263,1,0
128,200,60669,2,0,B|56:136|144:80,1,140
176,144,61480,2,0,B|248:96|320:144,1,140
248,192,62291,1,0
288,272,62696,1,0
208,328,63102,1,0
128,272,63507,1,0
128,200,63912,2,0,B|56:136|144:80,1,140
176,144,64723,2,0,B|248:96|320:144,1,140
248,192,65534,1,0
288,272,65939,1,0
208,328,66345,1,0
128,272,66750,1,0
128,200,67155,2,0,B|56:136|144:80,1,140
176,144,67966,2,0,B|248:96|320:144,1,140
248,192,68777,1,0
288,272,69164,1,0
208,328,69551,1,0
128,272,69938,1,0
104,176,70325,1,0
168,96,70700,1,0
256,96,71075,1,0
344,120,71450,1,0
400,184,71818,1,0
400,280,72153,1,0
312,320,72488,1,0
232,328,72823,1,0
144,304,73158,1,0
88,240,73482,1,0
64,160,73806,1,0
88,88,74130,1,0
152,48,74455,1,0
232,32,74779,1,0
312,48,75103,1,0
384,80,75428,1,0
440,144,75752,1,0
408,176,75914,1,0
416,224,76076,1,0
376,240,76239,1,0
352,280,76401,1,0
312,256,76563,1,0
272,280,76725,1,0
240,248,76887,1,0
200,248,77049,1,0
200,200,77212,1,0
176,168,77374,1,0
208,144,77536,1,0
216,104,77698,1,0
256,120,77860,1,0
288,96,78022,1,0
312,128,78185,1,0
352,136,78347,2,0,B|360:176,6,35
288,168,78995,2,0,B|240:192,6,35
256,192,79644,12,0,80941
112,192,86130,5,0
152,144,86293,1,0
208,168,86455,1,0
208,232,86617,2,0,B|192:280|120:240,1,70
168,328,87103,1,0
224,352,87266,1,0
272,312,87428,1,0
280,232,87752,1,0
232,160,88076,1,0
152,184,88401,1,0
264,64,88725,1,0
304,112,88887,1,0
360,96,89049,1,0
328,40,89212,2,0,B|384:24|408:56,1,70
432,160,89698,1,0
400,216,89860,1,0
336,224,90022,1,0
240,280,90347,1,0
160,232,90671,1,0
152,144,90995,1,0
112,192,91320,5,0
152,144,91483,1,0
208,168,91645,1,0
208,232,91807,2,0,B|192:280|120:240,1,70
168,328,92293,1,0
224,352,92456,1,0
272,312,92618,1,0
280,232,92942,1,0
232,160,93266,1,0
152,184,93591,1,0
264,64,93915,1,0
304,112,94077,1,0
360,96,94239,1,0
328,40,94402,2,0,B|384:24|408:56,1,70
432,160,94888,1,0
400,216,95050,1,0
336,224,95212,1,0
240,280,95537,1,0
160,232,95861,1,0
152,144,96185,1,0
112,192,96509,5,0
152,144,96672,1,0
208,168,96834,1,0
208,232,96996,2,0,B|192:280|120:240,1,70
168,328,97482,1,0
224,352,97645,1,0
272,312,97807,1,0
280,232,98131,1,0
232,160,98455,1,0
152,184,98780,1,0
264,64,99104,1,0
304,112,99266,1,0
360,96,99428,1,0
328,40,99591,2,0,B|384:24|408:56,1,70
432,160,100077,1,0
400,216,100239,1,0
256,192,100401,12,0,101698
256,192,106887,5,0
200,160,107049,1,0
232,104,107212,1,0
296,104,107374,2,0,B|336:72|376:104,1,70
384,152,107698,1,0
352,208,107860,1,0
304,256,108022,1,0
240,272,108185,1,0
152,232,108509,1,0
112,144,108833,1,0
176,72,109157,1,0
256,192,109482,5,0
200,160,109644,1,0
232,104,109807,1,0
296,104,109969,2,0,B|336:72|376:104,1,70
384,152,110293,1,0
352,208,110455,1,0
304,256,110617,1,0
240,272,110780,1,0
152,232,111104,1,0
112,144,111428,1,0
176,72,111752,1,0
256,192,112076,5,0
200,160,112238,1,0
232,104,112401,1,0
296,104,112563,2,0,B|336:72|376:104,1,70
384,152,112887,1,0
352,208,113049,1,0
304,256,113211,1,0
240,272,113374,1,0
152,232,113698,1,0
112,144,114022,1,0
176,72,114346,1,0
256,192,114671,5,0
200,160,114833,1,0
232,104,114996,1,0
296,104,115158,2,0,B|336:72|376:104,1,70
384,152,115482,1,0
352,208,115644,1,0
304,256,115806,1,0
240,272,115969,1,0
152,232,116293,1,0
112,144,116617,1,0
176,72,116941,1,0
256,192,117266,5,0
200,160,117428,1,0
232,104,117591,1,0
296,104,117753,2,0,B|336:72|376:104,1,70
384,152,118077,1,0
352,208,118239,1,0
304,256,118401,1,0
240,272,118564,1,0
152,232,118888,1,0
112,144,119212,1,0
176,72,119536,1,0
256,192,119860,5,0
200,160,120022,1,0
232,104,120185,1,0
296,104,120347,2,0,B|336:72|376:104,1,70
384,152,120671,1,0
352,208,120833,1,0
304,256,120995,1,0
240,272,121157,2,0,B|240:320,2,35
152,232,121482,2,0,B|120:264,2,35
112,144,121806,2,0,B|64:144,2,35
176,72,122130,2,0,B|144:40,2,35
256,192,122455,12,0,123752
136,112,125049,6,0,B|176:88|216:104,1,70
272,136,125698,2,0,B|312:160|280:208,1,70
232,264,126347,1,0
184,320,126509,1,0
112,288,126671,1,0
48,248,126833,1,0
88,184,126995,1,0
128,128,127157,1,0
200,136,127320,1,0
264,176,127482,2,0,B|288:176,2,17.5
272,104,127806,1,0
344,128,127968,1,0
400,184,128130,1,0
384,256,128293,2,0,B|392:304|336:304,1,70
208,272,128941,2,0,B|208:328|136:328|56:296|64:224,1,210
240,80,130239,2,0,B|208:48|128:56|128:160|176:200,1,210
232,264,131536,1,0
184,320,131698,1,0
112,288,131860,1,0
48,248,132022,1,0
88,184,132184,1,0
128,128,132346,1,0
200,136,132509,1,0
264,176,132671,2,0,B|288:176,2,17.5
272,104,132995,1,0
344,128,133157,1,0
400,184,133319,1,0
384,256,133482,1,0
288,304,133806,1,0
192,256,134130,1,0
176,152,134455,1,0
192,80,134860,1,0
192,80,134941,1,0
256,104,135103,1,0
256,104,135428,1,0
256,104,135752,1,0
320,72,136157,1,0
320,72,136239,1,0
256,104,136401,1,0
256,104,136725,1,0
256,104,137049,1,0
256,32,137455,1,0
256,32,137536,1,0
256,104,137698,1,0
256,104,138022,1,0
256,104,138347,1,0
256,176,138752,1,0
256,176,138833,1,0
256,104,138995,1,0
256,104,139320,1,0
256,104,139644,1,0
192,144,140049,1,0
192,144,140130,1,0
256,104,140293,1,0
256,104,140617,1,0
256,104,140941,1,0
320,144,141347,1,0
320,144,141428,1,0
256,104,141590,1,0
256,104,141914,1,0
256,104,142239,1,0
184,104,142644,1,0
184,104,142725,1,0
256,104,142887,1,0
256,104,143212,1,0
256,104,143536,1,0
328,104,143941,1,0
328,104,144022,1,0
256,104,144185,1,0
56,192,144509,1,0
96,192,144671,1,0
136,192,144833,1,0
208,192,145157,2,0,B|288:192|320:272,1,140
56,192,145806,1,0
96,192,145968,1,0
136,192,146130,1,0
208,192,146454,2,0,B|288:192|320:272,1,140
208,112,147103,1,0
240,80,147266,1,0
288,96,147428,1,0
368,72,147752,1,0
416,80,147914,1,0
440,120,148076,1,0
424,192,148401,2,0,B|448:240|416:256,2,70
344,280,149049,1,0
288,288,149212,1,0
240,264,149374,1,0
224,216,149536,1,0
240,144,149698,1,0
200,96,149860,1,0
144,72,150022,1,0
80,112,150347,1,0
64,160,150509,1,0
72,208,150671,1,0
80,288,150995,2,0,B|152:320|224:288,1,140
272,200,151644,1,0
352,120,151968,1,0
432,192,152293,1,0
368,312,152941,1,0
80,80,153590,1,0
208,96,153914,1,0
320,144,154239,1,0
416,216,154563,1,0
256,192,154887,1,0
112,192,157482,5,0
152,144,157645,1,0
208,168,157807,1,0
208,232,157969,2,0,B|192:280|120:240,1,70
168,328,158455,1,0
224,352,158618,1,0
272,312,158780,1,0
280,232,159104,1,0
232,160,159428,1,0
152,184,159753,1,0
264,64,160077,1,0
304,112,160239,1,0
360,96,160401,1,0
328,40,160564,2,0,B|384:24|408:56,1,70
432,160,161050,1,0
400,216,161212,1,0
336,224,161374,1,0
240,280,161699,1,0
160,232,162023,1,0
152,144,162347,1,0
112,192,162671,5,0
152,144,162834,1,0
208,168,162996,1,0
208,232,163158,2,0,B|192:280|120:240,1,70
168,328,163644,1,0
224,352,163807,1,0
272,312,163969,1,0
280,232,164293,1,0
232,160,164617,1,0
152,184,164942,1,0
264,64,165266,1,0
304,112,165428,1,0
360,96,165590,1,0
328,40,165753,2,0,B|384:24|408:56,1,70
432,160,166239,1,0
400,216,166401,1,0
336,224,166563,1,0
240,280,166888,1,0
160,232,167212,1,0
152,144,167536,1,0
112,192,167860,5,0
152,144,168023,1,0
208,168,168185,1,0
208,232,168347,2,0,B|192:280|120:240,1,70
168,328,168833,1,0
224,352,168996,1,0
272,312,169158,1,0
312,272,169320,1,0
280,232,169482,1,0
288,176,169644,1,0
232,160,169806,1,0
176,136,169968,1,0
152,184,170131,1,0
96,200,170293,1,0
264,64,170455,1,0
304,112,170617,1,0
360,96,170779,1,0
328,40,170942,2,0,B|384:24|408:56,1,70
432,160,171428,1,0
400,216,171590,1,0
336,224,171752,1,0
304,280,171914,1,0
240,280,172077,1,0
176,288,172239,1,0
160,232,172401,1,0
128,192,172563,1,0
152,144,172725,1,0
112,192,173049,5,0
152,144,173212,1,0
208,168,173374,1,0
208,232,173536,2,0,B|192:280|120:240,1,70
168,328,174022,1,0
224,352,174185,1,0
272,312,174347,1,0
312,272,174509,1,0
280,232,174671,1,0
288,176,174833,1,0
232,160,174995,1,0
176,136,175157,1,0
152,184,175320,1,0
96,200,175482,1,0
264,64,175644,1,0
304,112,175806,1,0
360,96,175968,1,0
328,40,176131,2,0,B|384:24|408:56,1,70
432,160,176617,1,0
400,216,176779,1,0
336,224,176941,1,0
240,280,177266,1,0
176,288,177428,1,0
160,232,177590,1,0
128,192,177752,1,0
152,144,177914,1,0
224,112,178239,1,0
32,200,180833,1,0
256,40,181482,1,0
464,200,182130,1,0
392,304,182455,1,0
280,320,182779,1,0
136,288,183103,1,0
64,160,183428,1,0
