osu file format v9

[General]
AudioFilename: 59.mp3
AudioLeadIn: 1996
PreviewTime: 14270
Countdown: 0
SampleSet: Normal
StackLeniency: 0.7
Mode: 0
LetterboxInBreaks: 0
StoryFireInFront: 0
EpilepsyWarning: 1

[Editor]
DistanceSpacing: 0.7
BeatDivisor: 4
GridSize: 8

[Metadata]
Title:.59
Artist:dj TAKA
Creator:Zelos
Version:Normal
Source:Dance Dance Revolution
Tags:Konamix Extreme Blazevoir

[Difficulty]
HPDrainRate:5
CircleSize:4
OverallDifficulty:5
ApproachRate:5
SliderMultiplier:1.6
SliderTickRate:2

[Events]
//Background and Video events
0,0,"59-bg.png"
//Break Periods
2,44704,46638
2,48260,48638
2,51815,53749
2,55371,55749
//Storyboard Layer 0 (Background)
//Storyboard Layer 1 (Fail)
//Storyboard Layer 2 (Pass)
//Storyboard Layer 3 (Foreground)
//Storyboard Sound Samples
//Background Colour Transformations
3,100,163,162,255

[TimingPoints]
3616,444.444444444444,4,1,0,20,1,0
11270,-100,4,1,0,50,0,0
11937,-100,4,1,0,70,0,0
44496,-100,4,1,0,100,0,1
44551,-100,4,1,0,50,0,0
49826,-100,4,1,0,100,0,0
51607,-100,4,1,0,100,0,1
51662,-100,4,1,0,50,0,0
56937,-100,4,1,0,100,0,0
58715,-100,4,1,0,100,0,1
58770,-100,4,1,0,100,0,0
80048,-100,4,2,0,100,0,0
80381,-100,4,1,0,100,0,0
94270,-100,4,1,0,80,0,0
99171,472.44094488189,4,1,0,80,1,0
99643,491.803278688525,4,1,0,40,1,0
100134,545.454545454545,4,1,0,40,1,0

[Colours]
Combo1 : 143,37,158
Combo2 : 128,128,255

[HitObjects]
256,192,3616,12,0,5393
256,32,7171,5,0
256,32,7838,1,0
256,352,8949,5,0
256,352,9616,1,0
256,192,10727,12,0,12060
184,192,12504,6,4,B|264:128|336:200,3,160
336,64,14282,6,0,B|424:72|456:176,1,160,4|8
424,272,15171,1,0
320,320,15616,1,8
216,272,16060,2,0,B|136:264|120:144,1,160,0|8
232,160,16949,2,0,B|320:144|328:48,1,160,0|8
440,32,17838,5,0
440,144,18282,1,8
376,232,18727,1,0
264,232,19171,1,8
264,344,19615,2,0,B|184:296|112:344,3,160,0|8|0|8
32,264,21393,5,4
96,168,21838,1,8
160,264,22282,1,0
224,168,22727,1,8
336,168,23171,2,0,B|336:248|440:280,1,160,0|8
440,160,24060,2,0,B|432:80|328:40,1,160,0|8
232,48,24949,5,0
232,160,25393,1,8
120,160,25838,1,0
120,48,26282,1,8
232,48,26727,2,0,B|336:64|352:160,1,160,0|8
352,256,27615,1,0
352,256,27838,1,0
352,256,28060,1,8
352,144,28504,6,0,B|280:208|200:136,1,160,4|8
208,256,29393,2,0,B|280:320|360:248,1,160,0|8
352,144,30282,1,0
304,48,30727,1,8
192,48,31171,1,0
144,144,31615,1,8
256,192,32060,12,8,35171
328,120,35615,6,0,B|256:192|176:112,3,160,4|8|0|8
184,232,37393,2,0,B|256:160|336:240,3,160,0|8|0|8
440,232,39171,5,0
400,128,39615,1,8
304,72,40060,1,0
192,48,40504,1,8
256,192,40949,12,8,42282
256,192,42727,5,4
256,192,43171,12,4,44504
256,192,47838,5,0
256,192,48060,1,0
472,192,49838,5,0
368,160,50282,1,8
264,192,50727,1,0
152,160,51171,1,8
40,192,51615,1,4
256,352,54949,5,0
256,352,55171,1,0
40,192,56949,5,0
144,160,57393,1,8
248,192,57838,1,0
360,160,58282,1,8
472,192,58727,1,4
472,80,59171,5,8
360,80,59615,2,0,B|296:96|392:184|264:176,2,160,0|8|0
360,200,60949,1,8
360,312,61393,6,0,B|320:264|256:352|208:296,2,160,0|8|0
360,192,62727,1,2
248,192,63171,6,0,B|304:152|168:96|240:48,2,160,0|8|0
136,192,64504,1,2
176,88,64949,2,0,B|96:88,4,80,0|0|0|0|4
256,32,66282,5,0
256,144,66727,2,0,B|296:88|352:176|424:136,2,160,0|8|0
144,144,68060,1,0
144,256,68504,6,0,B|136:200|16:216|32:160,2,160,0|8|0
232,328,69838,1,2
344,312,70282,1,8
432,240,70727,1,8
256,192,71171,12,0,72504
256,64,72949,6,0,B|416:64,1,160,4|8
416,176,73838,2,0,B|248:176,1,160,0|8
160,120,74727,1,0
112,224,75171,1,8
160,328,75615,1,0
264,368,76060,1,8
368,328,76504,6,0,B|408:240|360:160,3,160,0|8|0|8
264,136,78282,2,0,B|176:96|96:144,3,160,0|8|0|8
112,248,80060,6,0,B|272:248,1,160,2|8
272,24,81393,5,8
272,136,81838,2,0,B|352:192|432:128,1,160,0|8
424,248,82727,1,0
344,328,83171,1,8
256,192,83615,12,8,86727
32,160,87171,5,4
96,72,87615,1,8
96,184,88060,1,0
160,96,88504,1,8
160,208,88949,2,0,B|192:304|264:336,1,160,0|8
256,216,89838,2,0,B|272:128|360:88,1,160,0|8
256,192,90727,12,8,93838
408,192,94727,6,4,B|240:96|96:200,3,320
104,304,97838,1,0
216,304,98282,1,0
328,304,98727,2,0,B|496:304,1,160
256,192,99643,12,0,102315
