osu file format v9

[General]
AudioFilename: colors_eurobeat_remix.mp3
AudioLeadIn: 0
PreviewTime: 49332
Countdown: 0
SampleSet: Normal
StackLeniency: 0.7
Mode: 0
LetterboxInBreaks: 0
EpilepsyWarning: 1

[Editor]
Bookmarks: 1433,13820,26207,49432,74207,86594,98981,123755
DistanceSpacing: 1
BeatDivisor: 4
GridSize: 8

[Metadata]
Title:Colors -Y&Co. Eurobeat Remix-
Artist:dj TAKA (remixed by Yokota Shokai)
Creator:Samah
Version:Normal
Source:beatmania IIDX
Tags:iidx8 konami bemani ddr

[Difficulty]
HPDrainRate:3
CircleSize:4
OverallDifficulty:3
ApproachRate:5
SliderMultiplier:1.1
SliderTickRate:2

[Events]
//Background and Video events
0,0,"sky-colors.jpg"
//Break Periods
2,74407,85394
//Storyboard Layer 0 (Background)
//Storyboard Layer 1 (Fail)
//Storyboard Layer 2 (Pass)
//Storyboard Layer 3 (Foreground)
//Storyboard Sound Samples
//Background Colour Transformations
3,100,163,162,255

[TimingPoints]
1433,387.096774193548,4,1,0,60,1,0
49432,-100,4,1,0,60,0,1
61432,-100,4,1,0,60,0,0
61820,-100,4,1,0,60,0,1
74207,-100,4,1,0,60,0,0
98981,-100,4,1,0,60,0,1
110981,-100,4,1,0,60,0,0
111368,-100,4,1,0,60,0,1
123755,-100,4,1,0,5,0,0

[Colours]
Combo1 : 164,72,255
Combo2 : 90,90,173
Combo3 : 0,117,234
Combo4 : 255,151,255
SliderBorder : 255,255,255

[HitObjects]
96,192,13820,2,0,B|96:128|152:104,1,110,0|8
208,192,14594,1,0
256,160,14787,1,0
304,192,14981,1,8
416,192,15368,2,0,B|416:256|360:280,1,110,0|8
304,192,16142,1,0
256,224,16336,1,0
208,192,16529,1,8
256,160,16723,1,2
96,192,17303,5,8
96,192,17691,2,0,B|64:216|64:264|96:288,1,110,0|8
208,288,18465,2,0,B|232:320|280:320|304:288,1,110,0|8
360,192,19239,1,0
344,136,19432,1,0
304,96,19626,1,10
256,192,20013,5,4
160,240,20400,2,0,B|136:224|136:192|136:160|160:144,1,110,8|0
256,192,21174,1,8
352,240,21562,2,0,B|376:224|376:192|376:160|352:144,1,110,0|8
256,192,22336,1,0
256,248,22529,1,0
256,304,22723,1,2
56,192,23497,6,0,B|32:160|32:120|56:88,1,110,8|0
54,89,24078,1,0
152,136,24465,2,0,B|184:112|224:112|256:136,1,110,8|0
254,134,25045,1,0
200,224,25432,2,0,B|200:280,1,55,0|0
200,279,25820,1,2
312,280,26207,6,0,B|344:228|312:176,2,110,4|8|0
200,280,27368,1,2
200,176,27755,2,0,B|168:124|200:72,2,110,0|8|0
312,176,28916,1,2
308,64,29303,6,0,B|256:32|204:64,2,110,0|8|0
312,176,30465,1,2
200,176,30852,2,0,B|168:228|200:280,2,110,0|8|0
312,176,32013,1,2
328,288,32400,5,4
256,208,32787,1,8
184,288,33174,1,0
144,248,33368,1,0
112,208,33562,1,2
184,128,33949,5,0
256,208,34336,1,8
328,128,34723,1,0
368,168,34916,1,0
400,208,35110,1,2
328,288,35497,6,0,B|296:328|256:328|216:328|184:288,1,165,0|8
185,290,36271,1,0
256,208,36658,1,2
328,128,37045,2,0,B|296:88|256:88|216:88|184:128,1,165,0|8
185,125,37820,1,0
256,208,38207,1,8
256,208,38400,1,8
256,264,38594,6,0,B|256:296|200:336|120:336,2,165,4|8|0
168,192,40142,1,2
256,120,40529,1,2
344,192,40916,1,2
256,264,41303,1,2
256,152,41691,5,0
232,48,42078,1,8
280,48,42271,1,8
392,168,42852,1,0
392,216,43045,1,0
344,192,43239,1,8
200,272,43820,1,8
200,112,44400,1,0
312,112,44787,5,4
312,272,45368,1,8
168,192,45949,1,0
256,128,46336,1,8
312,32,46723,1,8
200,32,47110,1,8
256,128,47497,1,0
256,192,47884,12,4,49432
336,96,50207,1,0
336,96,50594,1,8
352,208,50981,2,0,B|352:280|288:280,1,110,0|8
176,264,51755,1,0
176,264,52142,1,8
64,264,52529,6,0,B|32:240|16:192|32:144|64:120,1,165
80,64,53303,2,0,B|120:48|160:64,2,82.5,0|8|0
192,192,54465,1,0
288,248,54852,1,2
288,136,55239,1,2
384,192,55626,5,4
384,192,56013,2,0,B|272:192,1,110
216,192,56594,1,8
120,240,56981,2,0,B|88:216|88:168|120:144,1,110
118,144,57562,1,8
280,192,58142,1,8
384,168,58529,1,0
384,216,58723,1,0
224,192,59303,5,0
168,192,59497,2,0,B|132:232|96:192,2,82.5,0|8|0
136,144,60271,1,0
208,64,60658,1,8
280,144,61045,1,0
352,64,61432,1,8
424,144,61820,6,0,B|472:192|424:240,1,110,4|8
312,232,62594,1,0
312,232,62981,1,8
256,136,63368,2,0,B|304:88|256:40,1,110,0|8
144,48,64142,1,0
144,48,64529,1,8
120,152,64916,6,0,B|152:184|192:208|232:184|264:152,1,165,0|0
320,152,65691,2,0,B|408:152,2,82.5,0|8|0
208,40,66852,1,0
112,96,67239,1,2
112,208,67626,1,2
208,264,68013,5,0
208,264,68400,2,0,B|256:312|304:264,2,110,8|0|8
256,168,69562,1,0
304,72,69949,2,0,B|256:24|208:72,2,110,8|0|8
256,168,71110,5,0
208,328,71691,1,0
208,328,71884,2,0,B|256:376|304:328,2,110,0|8|4
256,192,72852,12,4,74207
64,96,86594,6,0,B|112:48|160:96,1,110,4|8
112,192,87368,1,0
160,224,87562,1,0
208,192,87755,1,8
256,288,88142,2,0,B|304:336|352:288,1,110,0|8
304,192,88916,1,0
352,160,89110,1,0
400,192,89303,1,8
400,304,89691,6,0,B|352:352|304:304,1,110,0|8
304,192,90465,2,0,B|256:144|208:192,1,110,0|8
256,296,91239,1,2
304,192,91626,1,2
256,88,92013,1,2
208,192,92400,1,2
120,128,92787,5,0
208,192,93174,1,8
120,128,93562,1,0
160,88,93755,1,0
216,80,93949,1,8
208,192,94336,5,0
296,128,94723,1,8
208,192,95110,1,0
248,232,95303,1,0
304,240,95497,1,8
256,192,95884,12,4,98207
352,216,98981,6,0,B|352:288|288:288,1,110,0|8
176,288,99755,1,0
176,288,100142,1,8
160,176,100529,2,0,B|160:104|224:104,1,110,0|8
336,120,101303,1,0
336,120,101691,1,8
448,120,102078,6,0,B|480:144|496:192|480:240|448:264,1,165
432,320,102852,2,0,B|392:336|352:320,2,82.5,0|8|0
320,192,104013,1,0
224,136,104400,1,2
224,248,104787,1,2
128,192,105174,5,4
128,192,105562,2,0,B|240:192,1,110
296,192,106142,1,8
392,144,106529,2,0,B|424:168|424:216|392:240,1,110
394,240,107110,1,8
232,192,107691,1,8
128,216,108078,1,0
128,168,108271,1,0
288,192,108852,5,0
344,192,109045,2,0,B|380:152|416:192,2,82.5,0|8|0
376,240,109820,1,0
304,320,110207,1,8
232,240,110594,1,0
160,320,110981,1,8
88,240,111368,6,0,B|56:216|56:168|88:144,1,110,4|8
192,104,112142,1,0
192,104,112529,1,8
296,144,112916,2,0,B|328:168|328:216|296:240,1,110,0|8
192,280,113691,1,0
192,280,114078,1,8
88,240,114465,6,0,B|88:200|160:168|224:168,1,165,0|0
256,216,115239,2,0,B|296:216|328:176,2,82.5,0|8|0
256,48,116400,1,2
312,144,116787,1,2
200,144,117174,1,2
256,240,117562,5,4
144,256,117949,2,0,B|176:312|232:312,1,110,0|8
280,312,118529,2,0,B|336:312|368:256,1,110,0|8
256,240,119303,1,0
256,240,119497,1,8
256,72,120078,5,8
232,176,120465,1,0
280,176,120658,1,0
208,264,121045,1,8
256,288,121239,1,0
304,264,121433,1,0
256,360,121820,1,8
256,192,122207,12,0,123755
