osu file format v14

[General]
AudioFilename: Arabian Rave Night.mp3
AudioLeadIn: 0
PreviewTime: 80354
Countdown: 0
SampleSet: None
StackLeniency: 0.6
Mode: 0
LetterboxInBreaks: 0
WidescreenStoryboard: 0

[Editor]
Bookmarks: 11021,32354,43021,53688,64354,75021,80354,91021,101688,112354
DistanceSpacing: 1
BeatDivisor: 4
GridSize: 4
TimelineZoom: 0.5999998

[Metadata]
Title:Arabian Rave Night
TitleUnicode:Arabian Rave Night
Artist:dj MAX STEROID
ArtistUnicode:dj MAX STEROID
Creator:Avena
Version:Normal
Source:beatmania IIDX 16 EMPRESS
Tags:ARABIC HARDCORE Sota Fujimori 藤森崇多 Exote Priti
BeatmapID:1004016
BeatmapSetID:425885

[Difficulty]
HPDrainRate:4
CircleSize:3.3
OverallDifficulty:4
ApproachRate:5
SliderMultiplier:1.1
SliderTickRate:1

[Events]
//Background and Video events
0,0,"arabinot.jpg",0,0
//Break Periods
2,64554,73821
//Storyboard Layer 0 (Background)
//Storyboard Layer 1 (Fail)
//Storyboard Layer 2 (Pass)
//Storyboard Layer 3 (Foreground)
//Storyboard Sound Samples

[TimingPoints]
355,333.333333333333,4,2,1,60,1,0
11021,-100,4,2,1,80,0,0
31021,-100,4,2,1,65,0,0
32354,-100,4,2,2,70,0,0
43021,-100,4,3,1,85,0,0
43188,-100,4,3,2,85,0,0
51021,-100,4,3,2,60,0,0
52354,-100,4,2,2,60,0,0
53021,-100,4,2,3,70,0,0
57354,-100,4,2,1,50,0,0
57438,-100,4,2,3,70,0,0
62688,-100,4,2,1,50,0,0
62771,-100,4,2,3,70,0,0
75021,-100,4,3,1,60,0,0
80021,-100,4,3,1,30,0,0
80354,-100,4,3,1,85,0,1
101688,-100,4,3,1,85,0,0
112354,-100,4,3,1,60,0,0
115021,-100,4,3,1,80,0,0
117688,-100,4,3,1,80,0,0

[Colours]
Combo1 : 222,196,158
Combo2 : 154,156,156
Combo3 : 237,129,109
Combo4 : 181,191,215

[HitObjects]
152,288,355,6,0,P|156:232|168:160,1,110,0|4,0:0|3:0,0:0:0:0:
226,88,1021,1,0,0:0:0:0:
322,141,1354,2,0,L|378:136,1,55,0|0,0:0|0:0,0:0:0:0:
415,96,1688,2,0,L|396:335,1,220,0|0,0:0|0:0,0:0:0:0:
320,236,2688,1,0,0:0:0:0:
213,264,3021,6,0,P|151:239|91:248,2,110,0|0|0,3:0|3:0|0:0,0:0:0:0:
290,342,4021,1,0,0:0:0:0:
320,236,4354,2,0,L|314:122,1,110,0|2,3:0|0:0,0:0:0:0:
233,51,5021,1,0,0:0:0:0:
452,34,5688,6,0,L|441:264,1,220,4|0,3:0|0:0,0:0:0:0:
354,321,6688,2,0,P|309:304|292:305,1,55,0|0,0:0|0:0,0:0:0:0:
251,324,7021,2,0,P|195:333|104:333,1,110,0|2,0:0|0:0,0:0:0:0:
43,286,7688,1,0,0:0:0:0:
87,185,8021,1,0,0:0:0:0:
58,78,8354,6,0,P|114:87|205:87,1,110,0|0,3:0|3:0,0:0:0:0:
270,51,9021,1,2,0:0:0:0:
387,236,9688,2,0,L|381:353,1,110,0|2,3:0|0:0,0:0:0:0:
275,315,10354,1,0,3:0:0:0:
169,348,10688,1,0,3:0:0:0:
96,265,11021,6,0,P|96:197|133:143,1,110,12|8,1:2|1:0,0:0:0:0:
156,124,11521,2,0,P|156:56|119:2,1,110,4|0,1:0|0:0,0:0:0:0:
82,31,12021,1,8,1:0:0:0:
2,106,12354,2,0,L|7:250,1,110,4|8,1:0|1:0,0:0:0:0:
6,271,12854,1,4,1:0:0:0:
109,226,13188,1,0,3:0:0:0:
109,226,13354,1,8,1:0:0:0:
196,292,13688,6,0,L|310:287,1,110,4|8,1:0|1:0,0:0:0:0:
360,284,14188,2,0,P|340:242|338:168,1,110,4|0,1:0|0:0,0:0:0:0:
349,125,14688,2,0,L|276:121,1,55,12|0,1:0|0:0,0:0:0:0:
247,92,15021,1,4,1:0:0:0:
314,5,15354,1,12,1:0:0:0:
421,37,15688,2,0,P|441:79|443:153,1,110,2|12,3:2|1:0,0:0:0:0:
433,195,16188,1,12,1:0:0:0:
413,246,16354,6,0,L|418:383,1,110,4|8,1:0|1:0,0:0:0:0:
366,333,16854,2,0,P|286:313|210:356,1,165,4|8,1:0|1:0,0:0:0:0:
119,296,17688,2,0,L|123:186,1,110,4|8,1:0|1:0,0:0:0:0:
176,90,18354,1,2,0:0:0:0:
286,92,18688,1,8,1:0:0:0:
340,189,19021,6,0,B|196:214|269:157|123:186,1,220,4|0,1:0|0:0,0:0:0:0:
31,246,20021,1,8,1:0:0:0:
2,139,20354,2,0,P|6:70|26:30,1,110,4|8,1:0|1:0,0:0:0:0:
128,66,21021,2,0,L|245:58,1,110,4|8,1:0|1:0,0:0:0:0:
341,22,21688,5,4,1:0:0:0:
433,90,22021,1,8,1:0:0:0:
433,90,22188,2,0,L|422:260,1,165,4|8,1:0|1:0,0:0:0:0:
323,302,23021,2,0,P|275:279|205:284,1,110,4|8,1:0|1:0,0:0:0:0:
166,297,23521,2,0,P|101:310|68:222,1,165,4|8,1:0|1:0,0:0:0:0:
137,150,24354,6,0,L|249:143,1,110,4|8,1:0|1:0,0:0:0:0:
279,37,25021,2,0,L|169:30,1,110,0|8,0:0|1:0,0:0:0:0:
60,49,25688,2,0,P|96:112|91:269,1,220,4|2,1:0|1:2,0:0:0:0:
55,358,26688,1,8,1:0:0:0:
163,340,27021,6,0,L|278:343,1,110,4|8,1:0|1:0,0:0:0:0:
323,321,27521,2,0,P|349:256|351:198,1,110,4|0,1:0|0:0,0:0:0:0:
339,163,28021,1,8,1:0:0:0:
234,197,28354,2,0,L|124:194,1,110,4|8,1:0|1:0,0:0:0:0:
80,159,28854,1,4,1:0:0:0:
123,57,29188,1,0,0:0:0:0:
123,57,29354,1,8,1:0:0:0:
228,90,29688,6,0,P|291:80|345:79,1,110,0|0,1:0|1:0,0:0:0:0:
443,108,30354,1,0,0:0:0:0:
399,209,30688,2,0,P|402:248|413:275,1,55,0|2,1:0|0:0,0:0:0:0:
436,309,31021,2,0,P|341:326|254:320,2,165,12|12|12,1:0|1:0|1:0,0:0:0:0:
507,225,32354,5,4,1:2:0:0:
456,127,32688,1,8,1:0:0:0:
491,22,33021,2,0,L|366:28,1,110,0|8,1:0|1:0,0:0:0:0:
292,93,33688,2,0,L|71:81,1,220,0|0,1:0|1:0,0:0:0:0:
9,171,34688,1,8,1:0:0:0:
84,251,35021,6,0,P|142:236|197:236,1,110,0|8,1:0|1:0,0:0:0:0:
273,309,35688,2,0,P|331:324|386:324,1,110,0|8,1:0|1:0,0:0:0:0:
475,268,36354,1,0,1:0:0:0:
448,49,37021,2,0,P|437:107|403:144,1,110,0|8,1:0|1:0,0:0:0:0:
295,121,37688,5,0,1:0:0:0:
193,163,38021,1,8,1:0:0:0:
94,115,38354,2,0,L|103:242,1,110,0|8,1:0|1:0,0:0:0:0:
167,313,39021,2,0,B|313:277|238:348|384:310,1,220,0|0,1:0|1:0,0:0:0:0:
475,253,40021,1,8,1:0:0:0:
429,153,40354,6,0,P|435:93|457:36,2,110,0|8|0,1:0|1:0|1:0,0:0:0:0:
475,253,41354,1,12,1:0:0:0:
412,344,41688,2,0,L|265:336,1,110,4|8,1:0|1:0,0:0:0:0:
263,299,42188,2,0,L|116:307,1,110,4|4,1:0|1:0,0:0:0:0:
114,343,42688,2,0,P|80:332|44:336,1,55,12|0,1:0|3:0,0:0:0:0:
10,353,43021,6,0,P|5:284|34:229,1,110,12|12,1:2|1:0,0:0:0:0:
111,185,43688,2,0,P|116:116|87:61,1,110,4|12,1:0|1:0,0:0:0:0:
5,24,44354,2,0,L|250:37,1,220,4|4,1:0|1:0,0:0:0:0:
320,89,45354,2,0,P|310:135|311:160,1,55,12|4,1:0|1:0,0:0:0:0:
352,177,45688,6,0,P|372:235|374:297,1,110,4|12,1:0|1:0,0:0:0:0:
302,365,46354,1,4,1:0:0:0:
204,313,46688,1,12,1:0:0:0:
99,346,47021,2,0,P|115:267|112:235,1,110,4|12,1:0|1:0,0:0:0:0:
73,199,47521,2,0,P|57:120|60:88,1,110,4|4,1:0|1:0,0:0:0:0:
89,45,48021,2,0,P|132:58|151:58,1,55,12|4,1:0|1:0,0:0:0:0:
192,37,48354,6,0,L|325:31,1,110,4|12,1:0|1:0,0:0:0:0:
402,77,49021,2,0,L|396:210,1,110,4|12,1:0|1:0,0:0:0:0:
348,285,49688,2,0,B|214:312|267:253|131:286,1,220,4|4,1:0|1:0,0:0:0:0:
27,322,50688,1,12,1:0:0:0:
1,215,51021,6,0,P|6:146|25:103,1,110,4|12,1:0|1:0,0:0:0:0:
63,73,51521,1,4,1:0:0:0:
116,60,51688,2,0,L|238:64,1,110,4|12,1:0|1:0,0:0:0:0:
335,70,52354,1,4,1:0:0:0:
259,276,53021,2,0,L|375:272,1,110,0|0,0:0|0:0,0:0:0:0:
436,185,53688,6,0,P|366:170|196:176,1,220,4|0,0:2|0:0,0:0:0:0:
117,217,54688,1,0,0:0:0:0:
24,157,55021,2,0,L|33:39,1,110,0|0,0:0|0:0,0:0:0:0:
132,2,55688,2,0,L|140:111,1,110,0|0,0:0|0:0,0:0:0:0:
236,165,56354,6,0,P|250:236|134:332,1,220,0|0,0:0|0:0,0:0:0:0:
145,223,57354,1,4,1:0:0:0:
140,111,57688,2,0,L|381:128,1,220,0|0,0:0|0:0,0:0:0:0:
458,323,59021,6,0,L|341:332,1,110,0|0,0:0|0:0,0:0:0:0:
264,259,59688,1,0,0:0:0:0:
169,315,60021,1,0,0:0:0:0:
63,283,60354,2,0,P|43:225|105:74,1,220,0|0,0:0|0:0,0:0:0:0:
204,67,61354,1,0,0:0:0:0:
313,52,61688,5,0,0:0:0:0:
262,262,62354,2,0,L|271:142,1,110,0|4,0:0|1:0,0:0:0:0:
313,52,63021,2,0,B|418:30|418:30|408:165,1,220,0|0,3:0|3:0,0:0:0:0:
391,361,64354,5,4,1:2:0:0:
143,254,75021,5,4,0:0:0:0:
143,254,76021,2,0,L|150:135,1,110,4|0,0:0|0:0,0:0:0:0:
156,89,76521,1,4,0:0:0:0:
401,212,77354,2,0,P|406:155|416:137,1,55,0|0,0:0|0:0,0:0:0:0:
441,116,77688,6,0,L|312:112,1,110,4|0,0:0|0:0,0:0:0:0:
275,110,78188,1,0,0:0:0:0:
220,108,78354,1,8,0:0:0:0:
161,201,78688,2,0,P|172:243|175:273,1,55,0|4,0:0|0:0,0:0:0:0:
151,304,79021,2,0,L|275:308,1,110,4|4,0:0|0:0,0:0:0:0:
361,352,79688,2,0,L|485:348,1,110,0|4,0:0|2:0,0:0:0:0:
493,240,80354,6,0,P|477:173|478:110,1,110,12|8,1:2|1:0,0:0:0:0:
498,81,80854,2,0,P|440:34|386:38,1,110,4|2,1:0|0:2,0:0:0:0:
357,56,81354,1,8,1:0:0:0:
250,29,81688,2,0,L|120:37,1,110,2|8,0:2|1:0,0:0:0:0:
112,142,82354,2,0,L|221:148,1,110,4|8,1:0|1:0,0:0:0:0:
275,244,83021,6,0,B|158:283|185:196|60:240,1,220,4|2,1:0|0:2,0:0:0:0:
9,335,84021,1,8,1:0:0:0:
120,339,84354,2,0,P|178:361|244:360,1,110,2|8,0:2|1:0,0:0:0:0:
335,351,85021,2,0,L|350:234,1,110,2|8,0:0|1:0,0:0:0:0:
340,187,85521,1,8,1:0:0:0:
331,132,85688,6,0,P|257:154|213:145,1,110,4|8,1:0|1:0,0:0:0:0:
166,56,86354,2,0,P|92:34|48:43,1,110,2|8,0:2|1:0,0:0:0:0:
28,84,86854,1,2,0:0:0:0:
12,136,87021,2,0,L|18:258,1,110,0|8,0:0|1:0,0:0:0:0:
95,323,87688,2,0,L|204:328,1,110,4|8,1:0|1:0,0:0:0:0:
308,364,88354,6,0,P|327:291|316:224,1,110,4|8,1:0|1:0,0:0:0:0:
306,205,88854,1,4,1:0:0:0:
269,163,89021,2,0,L|385:158,1,110,2|8,0:2|1:0,0:0:0:0:
404,109,89521,1,2,0:0:0:0:
429,60,89688,2,0,L|319:55,1,110,0|8,0:0|1:0,0:0:0:0:
210,72,90354,2,0,P|137:59|91:62,1,110,2|8,0:2|1:0,0:0:0:0:
53,87,90854,1,4,1:0:0:0:
75,137,91021,6,0,P|92:194|96:261,1,110,4|8,1:0|1:0,0:0:0:0:
72,293,91521,2,0,L|196:301,1,110,4|2,1:0|0:0,0:0:0:0:
230,275,92021,1,8,1:0:0:0:
337,299,92354,1,0,0:0:0:0:
441,265,92688,1,8,1:0:0:0:
358,192,93020,2,0,P|357:128|384:79,1,110,2|8,0:0|1:0,0:0:0:0:
463,19,93688,6,0,P|484:68|481:123,1,110,4|8,1:0|1:0,0:0:0:0:
460,174,94188,2,0,L|470:301,1,110,4|2,1:0|0:0,0:0:0:0:
475,338,94688,1,8,1:0:0:0:
370,304,95021,2,0,P|321:313|303:324,1,55,4|4,1:0|1:0,0:0:0:0:
274,350,95354,2,0,P|225:341|207:330,1,55,4|4,1:0|1:0,0:0:0:0:
177,304,95688,2,0,L|184:183,1,110,4|4,1:0|1:0,0:0:0:0:
187,139,96188,1,4,1:0:0:0:
191,84,96354,6,0,P|257:71|326:75,1,110,4|8,1:0|1:0,0:0:0:0:
328,117,96854,2,0,P|384:148|452:138,1,110,4|2,1:0|0:0,0:0:0:0:
478,129,97354,2,0,L|471:74,1,55,8|2,1:0|0:0,0:0:0:0:
463,19,97688,2,0,L|313:13,1,110,0|8,0:0|1:0,0:0:0:0:
248,48,98354,2,0,L|98:54,1,110,4|12,1:0|1:0,0:0:0:0:
83,54,98854,1,4,1:0:0:0:
27,56,99021,6,0,P|26:131|51:172,1,110,4|8,1:0|1:0,0:0:0:0:
151,160,99688,2,0,P|152:235|127:276,1,110,2|8,0:2|1:0,0:0:0:0:
99,305,100188,2,0,L|254:311,1,110,8|8,1:0|1:0,0:0:0:0:
315,337,100854,2,0,L|470:331,1,110,8|4,1:0|1:0,0:0:0:0:
457,288,101354,2,0,P|452:236|442:222,1,55,4|4,1:0|1:0,0:0:0:0:
431,182,101688,6,0,P|438:117|471:73,1,110,12|4,1:2|1:0,0:0:0:0:
369,22,102354,2,0,L|251:31,1,110,4|4,1:0|1:0,0:0:0:0:
161,82,103021,2,0,L|151:202,1,110,4|4,1:0|1:0,0:0:0:0:
164,301,103688,1,4,1:0:0:0:
266,262,104021,2,0,L|325:257,1,55,4|4,1:0|1:0,0:0:0:0:
373,272,104354,6,0,P|395:217|392:157,1,110,4|4,1:0|1:0,0:0:0:0:
348,66,105021,2,0,L|237:76,1,110,4|4,1:0|1:0,0:0:0:0:
150,142,105688,1,4,1:0:0:0:
45,107,106021,1,4,1:0:0:0:
67,214,106354,2,0,P|77:272|76:318,2,82.5,4|4|0,1:0|1:0|0:0,0:0:0:0:
96,167,107021,6,0,L|225:172,1,110,4|4,1:0|1:0,0:0:0:0:
297,231,107688,2,0,L|426:226,1,110,4|4,1:0|1:0,0:0:0:0:
482,146,108354,2,0,P|482:70|462:23,1,110,4|4,1:0|1:0,0:0:0:0:
366,74,109021,1,4,1:0:0:0:
266,26,109354,2,0,P|223:34|202:34,1,55,4|4,1:0|1:0,0:0:0:0:
157,24,109688,6,0,P|77:25|41:48,1,110,4|0,1:0|1:0,0:0:0:0:
31,89,110188,1,0,1:0:0:0:
55,137,110354,2,0,L|46:251,1,110,4|0,1:0|1:0,0:0:0:0:
137,308,111021,2,0,L|251:300,1,110,4|4,1:0|1:0,0:0:0:0:
354,324,111688,2,0,P|348:256|333:229,2,82.5,12|12|0,1:0|1:0|0:0,0:0:0:0:
318,366,112354,5,4,2:2:0:0:
318,366,113354,2,0,L|193:358,1,110,4|0,0:0|0:0,0:0:0:0:
173,315,113854,1,4,0:0:0:0:
277,60,114688,2,0,P|288:109|288:132,1,55,0|0,0:0|0:0,0:0:0:0:
273,166,115021,1,4,0:0:0:0:
256,192,115104,12,12,117688,1:0:0:0:
