osu file format v14

[General]
AudioFilename: Arabian Rave Night.mp3
AudioLeadIn: 0
PreviewTime: 80354
Countdown: 0
SampleSet: None
StackLeniency: 0.4
Mode: 0
LetterboxInBreaks: 0
WidescreenStoryboard: 0

[Editor]
Bookmarks: 11021,21688,23354,32354,43021,53688,57688,64354,75021,80354,91021,101688,112354
DistanceSpacing: 1
BeatDivisor: 4
GridSize: 4
TimelineZoom: 2.000001

[Metadata]
Title:Arabian Rave Night
TitleUnicode:Arabian Rave Night
Artist:dj MAX STEROID
ArtistUnicode:dj MAX STEROID
Creator:Avena
Version:Beginner
Source:beatmania IIDX 16 EMPRESS
Tags:ARABIC HARDCORE Sota Fujimori 藤森崇多 Exote Priti
BeatmapID:987426
BeatmapSetID:425885

[Difficulty]
HPDrainRate:3
CircleSize:3
OverallDifficulty:3
ApproachRate:3
SliderMultiplier:0.85
SliderTickRate:1

[Events]
//Background and Video events
0,0,"arabinot.jpg",0,0
//Break Periods
2,64554,73581
//Storyboard Layer 0 (Background)
//Storyboard Layer 1 (Fail)
//Storyboard Layer 2 (Pass)
//Storyboard Layer 3 (Foreground)
//Storyboard Sound Samples

[TimingPoints]
355,333.333333333333,4,2,1,60,1,0
11021,-100,4,2,1,80,0,0
31021,-100,4,2,1,65,0,0
32354,-100,4,2,2,70,0,0
43021,-100,4,3,1,85,0,0
43188,-100,4,3,2,85,0,0
51021,-100,4,3,2,60,0,0
52354,-100,4,2,2,60,0,0
53021,-100,4,2,3,70,0,0
62688,-100,4,2,1,50,0,0
62771,-100,4,2,3,70,0,0
75021,-100,4,3,1,60,0,0
80021,-100,4,3,1,30,0,0
80354,-100,4,3,1,85,0,1
101688,-100,4,3,1,85,0,0
112354,-100,4,3,1,60,0,0
115021,-100,4,3,1,80,0,0
117688,-100,4,3,1,80,0,0

[Colours]
Combo1 : 222,196,158
Combo2 : 154,156,156
Combo3 : 237,129,109
Combo4 : 181,191,215

[HitObjects]
161,111,355,6,0,L|166:200,1,85,0|4,0:0|3:0,0:0:0:0:
222,258,1021,1,0,0:0:0:0:
302,230,1354,1,0,0:0:0:0:
341,305,1688,2,0,L|353:103,1,170,0|0,0:0|0:0,0:0:0:0:
212,37,3021,6,0,P|169:51|119:54,1,85,0|0,3:0|3:0,0:0:0:0:
51,19,3688,1,0,0:0:0:0:
20,98,4021,1,0,0:0:0:0:
77,160,4354,2,0,P|94:216|99:332,1,170,0|0,3:0|0:0,0:0:0:0:
265,365,5688,6,0,P|276:312|291:278,1,85,4|0,3:0|3:0,0:0:0:0:
343,219,6354,1,0,0:0:0:0:
423,245,6688,1,0,0:0:0:0:
477,180,7021,2,0,L|467:91,2,85,0|2|0,0:0|0:0|0:0,0:0:0:0:
408,335,8354,6,0,L|231:323,1,170,0|2,3:0|0:0,0:0:0:0:
175,266,9354,1,0,0:0:0:0:
92,287,9688,2,0,P|87:238|72:202,1,85,0|2,3:0|0:0,0:0:0:0:
16,142,10354,2,0,P|21:93|36:57,1,85,0|0,3:0|3:0,0:0:0:0:
114,31,11021,5,12,1:2:0:0:
191,66,11354,2,0,P|250:71|375:44,1,170,8|8,1:0|1:0,0:0:0:0:
439,25,12354,1,4,1:0:0:0:
427,109,12688,2,0,L|418:204,1,85,8|4,1:0|1:0,0:0:0:0:
411,279,13354,1,8,1:0:0:0:
333,244,13688,6,0,P|270:256|246:273,1,85,4|8,1:0|1:0,0:0:0:0:
189,322,14354,2,0,P|126:310|102:293,1,85,0|8,0:0|1:0,0:0:0:0:
55,232,15021,2,0,L|68:48,1,170,4|2,1:0|3:2,0:0:0:0:
151,49,16021,1,12,1:0:0:0:
235,36,16354,5,4,1:0:0:0:
308,78,16688,2,0,P|376:64|489:94,1,170,8|8,1:0|1:0,0:0:0:0:
497,166,17688,1,4,1:0:0:0:
450,238,18021,2,0,L|365:230,1,85,8|2,1:0|0:0,0:0:0:0:
302,174,18688,1,8,1:0:0:0:
285,257,19021,6,0,L|293:350,1,85,4|8,1:0|1:0,0:0:0:0:
373,315,19688,2,0,L|365:230,1,85,0|8,0:0|1:0,0:0:0:0:
302,174,20354,2,0,P|228:170|127:204,1,170,4|4,1:0|1:0,0:0:0:0:
72,253,21354,1,8,1:0:0:0:
21,184,21688,6,0,L|26:89,1,85,4|8,1:0|1:0,0:0:0:0:
101,61,22354,1,0,1:0:0:0:
182,33,22688,1,8,1:0:0:0:
231,102,23021,2,0,P|247:160|245:203,1,85,4|8,1:0|1:0,0:0:0:0:
206,259,23688,1,0,1:0:0:0:
237,337,24021,1,8,1:0:0:0:
317,311,24354,6,0,L|412:316,1,85,4|8,1:0|1:0,0:0:0:0:
479,280,25021,2,0,P|468:216|467:167,1,85,0|8,0:0|1:0,0:0:0:0:
488,113,25688,2,0,B|379:134|434:87|306:119,1,170,4|2,1:0|1:2,0:0:0:0:
182,215,27021,6,0,P|120:202|96:183,2,85,4|8|0,1:0|1:0|0:0,0:0:0:0:
264,194,28021,1,8,1:0:0:0:
343,223,28354,1,4,1:0:0:0:
383,298,28688,2,0,L|390:118,1,170,8|8,1:0|1:0,0:0:0:0:
358,48,29688,5,0,1:0:0:0:
288,98,30021,2,0,P|187:103|123:73,1,170,8|8,1:0|1:0,0:0:0:0:
56,122,31021,2,0,L|64:266,2,127.5,12|12|12,1:0|1:0|1:0,0:0:0:0:
127,76,32354,5,4,1:2:0:0:
198,28,32688,1,8,1:0:0:0:
276,59,33021,2,0,P|272:118|257:149,1,85,0|8,1:0|1:0,0:0:0:0:
206,205,33688,2,0,P|208:271|293:341,1,170,0|0,1:0|1:0,0:0:0:0:
444,292,35021,6,0,L|452:188,1,85,0|8,1:0|1:0,0:0:0:0:
432,123,35688,1,0,1:0:0:0:
282,204,36354,2,0,P|215:225|130:160,1,170,0|0,1:0|1:0,0:0:0:0:
128,89,37354,1,8,1:0:0:0:
188,28,37688,6,0,P|230:18|282:20,1,85,0|8,1:0|1:0,0:0:0:0:
328,81,38354,2,0,P|370:91|422:89,1,85,0|8,1:0|1:0,0:0:0:0:
474,33,39021,2,0,L|464:226,1,170,0|0,1:0|1:0,0:0:0:0:
356,333,40354,6,0,L|263:326,1,85,0|8,1:0|1:0,0:0:0:0:
196,286,41021,1,0,1:0:0:0:
127,336,41354,1,12,1:0:0:0:
52,294,41688,2,0,P|37:242|37:148,2,127.5,4|4|12,1:0|1:0|1:0,0:0:0:0:
108,357,43021,6,0,L|213:349,1,85,12|12,1:2|1:0,0:0:0:0:
259,297,43688,2,0,L|364:305,1,85,4|12,1:0|1:0,0:0:0:0:
404,362,44354,2,0,P|405:271|450:181,1,170,4|4,1:0|1:0,0:0:0:0:
479,126,45354,1,12,1:0:0:0:
446,47,45688,6,0,L|348:58,1,85,4|12,1:0|1:0,0:0:0:0:
314,127,46354,1,4,1:0:0:0:
240,84,46688,1,12,1:0:0:0:
165,124,47021,2,0,P|95:113|28:117,2,127.5,4|4|12,1:0|1:0|1:0,0:0:0:0:
208,196,48354,6,0,P|192:262|191:292,1,85,4|12,1:0|1:0,0:0:0:0:
236,350,49021,1,4,1:0:0:0:
310,309,49354,1,8,1:0:0:0:
384,266,49688,2,0,L|479:271,2,85,4|12|4,1:0|1:0|1:0,0:0:0:0:
361,183,50688,1,12,1:0:0:0:
338,100,51021,6,0,P|283:112|247:110,1,85,4|12,1:0|1:0,0:0:0:0:
198,47,51688,2,0,P|143:35|107:37,1,85,4|12,1:0|1:0,0:0:0:0:
38,74,52354,2,0,L|51:253,1,170,4|0,1:0|0:0,0:0:0:0:
114,299,53354,1,0,0:0:0:0:
196,276,53688,6,0,P|240:282|279:300,1,85,4|2,0:2|0:2,0:0:0:0:
342,352,54354,1,0,0:0:0:0:
500,290,55021,2,0,L|493:107,1,170,0|0,0:0|0:0,0:0:0:0:
448,48,56021,1,0,0:0:0:0:
365,68,56354,6,0,P|316:78|198:43,1,170,0|0,0:0|0:0,0:0:0:0:
41,100,57688,2,0,P|53:162|53:199,1,85,0|0,0:0|0:0,0:0:0:0:
15,259,58354,1,0,0:0:0:0:
54,334,58688,1,2,0:3:0:0:
136,312,59021,6,0,L|235:318,1,85,0|0,0:0|0:0,0:0:0:0:
305,328,59688,1,0,0:0:0:0:
349,164,60354,2,0,P|293:185|174:178,1,170,0|0,0:0|0:0,0:0:0:0:
107,143,61354,1,0,0:0:0:0:
50,79,61688,5,0,0:0:0:0:
2,242,62354,2,0,L|8:343,1,85,0|4,0:0|1:0,0:0:0:0:
89,349,63021,2,0,B|170:321|170:321|246:366,1,170,0|0,3:0|3:0,0:0:0:0:
277,197,64354,5,4,1:2:0:0:
226,72,75021,5,4,0:0:0:0:
401,147,76021,2,0,L|395:244,1,85,4|0,0:0|0:0,0:0:0:0:
210,178,77354,2,0,L|113:184,1,85,0|4,0:0|0:0,0:0:0:0:
65,243,78021,5,0,0:0:0:0:
95,322,78354,1,8,0:0:0:0:
256,268,79021,2,0,P|314:275|345:293,1,85,4|4,0:0|0:0,0:0:0:0:
400,344,79688,2,0,L|492:341,1,85,0|4,0:0|2:0,0:0:0:0:
464,258,80354,6,0,L|475:71,1,170,12|0,1:2|0:0,0:0:0:0:
397,50,81354,1,8,1:0:0:0:
320,87,81688,2,0,P|276:87|236:71,1,85,2|8,0:2|1:0,0:0:0:0:
164,29,82354,1,4,1:0:0:0:
31,135,83021,6,0,L|37:323,1,170,4|2,1:0|0:2,0:0:0:0:
117,329,84021,1,8,1:0:0:0:
198,354,84354,2,0,P|206:292|218:265,1,85,2|8,0:2|1:0,0:0:0:0:
282,220,85021,2,0,P|274:158|262:131,1,85,2|8,0:0|1:0,0:0:0:0:
196,87,85688,6,0,P|308:88|382:56,1,170,4|2,1:0|0:2,0:0:0:0:
435,109,86688,1,8,1:0:0:0:
501,163,87021,2,0,L|493:259,1,85,0|8,0:0|1:0,0:0:0:0:
415,279,87688,2,0,L|407:194,1,85,4|8,1:0|1:0,0:0:0:0:
341,141,88354,6,0,L|167:155,1,170,4|2,1:0|0:2,0:0:0:0:
104,207,89354,1,8,1:0:0:0:
30,163,89688,2,0,P|22:106|26:61,1,85,0|8,0:0|1:0,0:0:0:0:
89,25,90354,2,0,L|185:33,1,85,2|8,0:2|1:0,0:0:0:0:
247,74,91021,6,0,P|307:55|432:58,1,170,4|2,1:0|0:2,0:0:0:0:
478,109,92021,1,8,1:0:0:0:
497,191,92354,1,0,0:0:0:0:
328,166,93021,2,0,L|322:259,1,85,2|8,0:0|1:0,0:0:0:0:
390,302,93688,6,0,L|238:311,2,127.5,4|4|8,1:0|1:0|1:0,0:0:0:0:
452,243,95021,2,0,P|448:199|482:147,1,85,4|4,1:0|1:0,0:0:0:0:
506,88,95687,2,0,P|510:44|476:-8,1,85,4|4,1:0|1:0,0:0:0:0:
427,62,96354,6,0,L|248:51,1,170,4|2,1:0|0:2,0:0:0:0:
172,42,97354,1,8,1:0:0:0:
94,78,97688,2,0,B|117:192|69:132|93:244,1,170,0|4,0:0|1:0,0:0:0:0:
244,323,99021,6,0,P|250:268|265:242,1,85,4|8,1:0|1:0,0:0:0:0:
331,190,99688,2,0,L|470:197,1,127.5,2|8,0:2|1:0,0:0:0:0:
497,120,100521,1,8,1:0:0:0:
435,61,100854,2,0,L|307:67,1,127.5,8|4,1:0|1:0,0:0:0:0:
236,114,101688,6,0,P|190:98|148:98,1,85,12|4,1:2|1:0,0:0:0:0:
73,122,102354,2,0,L|80:208,1,85,4|4,1:0|1:0,0:0:0:0:
86,290,103021,1,4,1:0:0:0:
165,259,103354,1,4,1:0:0:0:
247,235,103688,2,0,P|292:237|335:259,1,85,4|4,1:0|1:0,0:0:0:0:
397,302,104354,5,4,1:0:0:0:
477,276,104688,1,4,1:0:0:0:
461,192,105021,2,0,L|467:95,1,85,4|4,1:0|1:0,0:0:0:0:
444,24,105688,2,0,L|267:36,1,170,4|4,1:0|1:0,0:0:0:0:
208,89,106688,1,4,1:0:0:0:
126,64,107021,6,0,P|113:124|121:245,1,170,4|4,1:0|1:0,0:0:0:0:
162,304,108021,1,4,1:0:0:0:
86,343,108355,2,0,L|-5:339,1,85,4|4,1:0|1:0,0:0:0:0:
1,254,109021,2,0,L|5:163,1,85,4|4,1:0|1:0,0:0:0:0:
33,89,109688,5,4,1:0:0:0:
114,112,110021,1,2,1:3:0:0:
192,78,110354,1,4,1:0:0:0:
273,101,110688,1,2,1:3:0:0:
351,67,111022,2,0,P|421:88|472:173,1,170,4|4,1:0|1:0,0:0:0:0:
469,252,112021,1,2,1:2:0:0:
444,332,112354,5,4,2:2:0:0:
255,362,113354,2,0,P|241:308|243:268,1,85,4|0,0:0|0:0,0:0:0:0:
302,97,114688,2,0,L|211:89,1,85,0|4,0:0|0:0,0:0:0:0:
256,192,115188,12,12,117688,1:1:0:0:
