osu file format v4

[General]
AudioFilename: SMB.mp3
AudioLeadIn: 0
AudioHash: f8183477fdc2572d7d8ec1614ffaced5
PreviewTime: -1
SampleSet: Normal

[Metadata]
Title:Super Mario Theme
Artist:dinjin
Creator:Shonikado
Version:Hard

[Difficulty]
HPDrainRate:6
CircleSize:5
OverallDifficulty:7
SliderMultiplier: 1.4
SliderTickRate: 1

[Events]
0,0,"marioback.PNG"
3,0,163,162,255

[TimingPoints]
2433,300,4,1,0

[HitObjects]
96,256,2358,1,0,
160,320,2808,2,0,B|160:320|384:320,1,210
416,256,3708,1,0,
352,192,4008,1,0,
288,192,4308,1,0,
224,192,4458,1,0,
160,192,4758,5,0,
128,160,4983,1,0,
160,128,5133,1,0,
128,96,5358,1,0,
128,32,5658,5,0,
192,64,5808,1,0,
288,96,6108,1,0,
288,160,6408,2,0,B|288:160|288:256,2,70
416,256,7158,5,0,
352,320,7608,2,0,B|352:320|128:320,1,210
96,256,8508,1,0,
160,192,8808,1,0,
224,192,9108,1,0,
288,192,9258,1,0,
352,192,9558,5,0,
384,160,9783,1,0,
352,128,9933,1,0,
384,96,10158,1,0,
384,32,10458,5,0,
320,64,10608,1,0,
224,96,10908,1,0,
224,160,11208,2,0,B|224:160|224:256,2,70
32,128,12258,5,0,
64,160,12408,1,0,
96,192,12558,1,0,
128,224,12708,1,0,
192,256,13008,1,0,
288,256,13308,5,0,
320,224,13458,1,0,
352,192,13608,1,0,
416,224,13908,1,0,
448,192,14058,1,0,
480,160,14208,1,0,
32,128,14658,5,0,
64,160,14808,1,0,
96,192,14958,1,0,
128,224,15108,1,0,
192,256,15408,1,0,
384,224,15708,5,0,
384,224,16008,2,0,B|384:224|448:160,1,70
32,256,17058,5,0,
64,224,17208,1,0,
96,192,17358,1,0,
128,160,17508,1,0,
192,128,17808,1,0,
288,128,18108,5,0,
320,160,18258,1,0,
352,192,18408,1,0,
416,160,18708,1,0,
448,192,18858,1,0,
480,224,19008,1,0,
256,128,19458,5,0,
192,256,19908,1,0,
320,256,20358,1,0,
480,128,21858,5,0,
448,160,22008,1,0,
416,192,22158,1,0,
384,224,22308,1,0,
320,256,22608,1,0,
224,256,22908,5,0,
192,224,23058,1,0,
160,192,23208,1,0,
96,224,23508,1,0,
64,192,23658,1,0,
32,160,23808,1,0,
480,128,24258,5,0,
448,160,24408,1,0,
416,192,24558,1,0,
384,224,24708,1,0,
320,256,25008,1,0,
128,224,25308,5,0,
128,224,25608,2,0,B|128:224|64:160,1,70
32,256,26658,5,0,
64,224,26808,1,0,
96,192,26958,1,0,
128,160,27108,1,0,
192,128,27408,1,0,
288,128,27708,5,0,
320,160,27858,1,0,
352,192,28008,1,0,
416,160,28308,1,0,
448,192,28458,1,0,
480,224,28608,1,0,
256,128,29058,5,0,
320,256,29508,1,0,
192,256,29958,1,0,
128,192,31158,5,0,
128,192,31308,1,0,
192,256,31608,2,0,B|192:256|352:256,1,140
384,256,32058,1,0,
256,64,32358,6,0,B|256:64|256:160,1,70
256,256,32808,2,0,B|256:256|256:352,1,70
128,192,33558,5,0,
128,192,33708,1,0,
192,256,34008,2,0,B|192:256|352:256,1,140
384,256,34458,1,0,
384,256,34608,1,0,
384,192,35958,5,0,
384,192,36108,1,0,
320,256,36408,2,0,B|320:256|160:256,1,140
128,256,36858,1,0,
256,64,37158,6,0,B|256:64|256:160,1,70
256,256,37608,2,0,B|256:256|256:352,1,70
224,192,38358,5,0,
288,192,38508,1,0,
256,256,38808,1,0,
224,128,39108,1,0,
288,128,39258,1,0,
256,64,39558,1,0,
256,320,40158,1,0,
96,128,40758,5,0,
160,64,41208,2,0,B|160:64|384:64,1,210
416,128,42108,1,0,
352,192,42408,1,0,
288,192,42708,1,0,
224,192,42858,1,0,
160,192,43158,5,0,
128,224,43383,1,0,
160,256,43533,1,0,
128,288,43758,1,0,
128,352,44058,5,0,
192,320,44208,1,0,
288,288,44508,1,0,
288,224,44808,2,0,B|288:224|288:128,2,70
416,128,45558,5,0,
352,64,46008,2,0,B|352:64|128:64,1,210
96,128,46908,1,0,
160,192,47208,1,0,
224,192,47508,1,0,
288,192,47658,1,0,
352,192,47958,5,0,
384,224,48183,1,0,
352,256,48333,1,0,
384,288,48558,1,0,
384,352,48858,5,0,
320,320,49008,1,0,
224,288,49308,1,0,
224,224,49608,2,0,B|224:224|224:128,2,70
128,256,50358,5,0,
128,224,50508,1,0,
128,160,50808,2,0,B|128:160|113:23|288:32,1,210
256,96,51558,5,0,
256,160,51708,1,0,
256,224,51858,1,0,
256,288,52008,1,0,
256,352,52158,1,0,
467,161,52758,6,0,B|467:161|275:-63|56:171,1,472.5
128,224,53958,1,0,
192,224,54108,1,0,
320,224,54408,1,0,
384,224,54558,1,0,
128,256,55158,5,0,
128,224,55308,1,0,
128,160,55608,2,0,B|128:160|113:23|288:32,1,210
256,96,56358,5,0,
256,160,56508,1,0,
256,224,56658,1,0,
256,288,56808,1,0,
256,352,56958,1,0,
477,240,57558,6,0,B|477:240|276:-66|25:258,1,560
384,256,59958,5,0,
384,224,60108,1,0,
384,160,60408,2,0,B|384:160|399:23|224:32,1,210
256,96,61158,5,0,
256,160,61308,1,0,
256,224,61458,1,0,
256,288,61608,1,0,
256,352,61758,1,0,
45,161,62358,6,0,B|45:161|237:-63|456:171,1,472.5
384,224,63558,1,0,
320,224,63708,1,0,
192,224,64008,1,0,
128,224,64158,1,0,
384,256,64758,5,0,
384,224,64908,1,0,
384,160,65208,2,0,B|384:160|399:23|224:32,1,210
256,96,65958,5,0,
256,160,66108,1,0,
256,224,66258,1,0,
256,288,66408,1,0,
256,352,66558,1,0,
35,240,67158,6,0,B|35:240|236:-66|487:258,1,560
128,192,69558,5,0,
128,192,69708,1,0,
192,128,70008,2,0,B|192:128|352:128,1,140
384,128,70458,1,0,
256,320,70758,6,0,B|256:320|256:224,1,70
256,128,71208,2,0,B|256:128|256:32,1,70
128,192,71958,5,0,
128,192,72108,1,0,
192,128,72408,2,0,B|192:128|352:128,1,140
384,128,72858,1,0,
384,128,73008,1,0,
384,192,74358,5,0,
384,192,74508,1,0,
320,128,74808,2,0,B|320:128|160:128,1,140
128,128,75258,1,0,
256,320,75558,6,0,B|256:320|256:224,1,70
256,128,76008,2,0,B|256:128|256:32,1,70
224,192,76758,5,0,
288,192,76908,1,0,
256,128,77208,1,0,
224,256,77508,1,0,
288,256,77658,1,0,
256,320,77958,1,0,
256,64,78558,1,0,
128,128,79158,5,0,
128,160,79308,1,0,
128,224,79608,2,0,B|128:224|113:361|288:352,1,210
256,288,80358,5,0,
256,224,80508,1,0,
256,160,80658,1,0,
256,96,80808,1,0,
256,32,80958,1,0,
467,223,81558,6,0,B|467:223|275:447|56:213,1,472.5
128,160,82758,1,0,
192,160,82908,1,0,
320,160,83208,1,0,
384,160,83358,1,0,
384,128,83958,5,0,
384,160,84108,1,0,
384,224,84408,2,0,B|384:224|399:361|224:352,1,210
256,288,85158,5,0,
256,224,85308,1,0,
256,160,85458,1,0,
256,96,85608,1,0,
256,32,85758,1,0,
35,144,86358,6,0,B|35:144|236:450|487:126,1,560
256,128,88758,5,0,
192,256,89208,1,0,
320,256,89658,1,0,
256,192,89958,12,0,94608
