osu file format v14

[General]
AudioFilename: Junge.mp3
AudioLeadIn: 0
PreviewTime: 48870
Countdown: 0
SampleSet: Soft
StackLeniency: 0.7
Mode: 0
LetterboxInBreaks: 0
WidescreenStoryboard: 0

[Editor]
DistanceSpacing: 1
BeatDivisor: 4
GridSize: 4
TimelineZoom: 2.4

[Metadata]
Title:Junge
TitleUnicode:Junge
Artist:die aerzte
ArtistUnicode:die ärzte
Creator:Desperate-kun
Version:Twin Normal
Source:
Tags:Mao Punkrock Rodrigo Gonzales Farin Urlaub Bela B
BeatmapID:653274
BeatmapSetID:288845

[Difficulty]
HPDrainRate:4
CircleSize:3.5
OverallDifficulty:4
ApproachRate:5
SliderMultiplier:0.94
SliderTickRate:1

[Events]
//Background and Video events
0,0,"BG.png",0,0
//Break Periods
2,137008,144708
2,155918,159210
//Storyboard Layer 0 (Background)
//Storyboard Layer 1 (Fail)
//Storyboard Layer 2 (Pass)
//Storyboard Layer 3 (Foreground)
//Storyboard Sound Samples

[TimingPoints]
316,284.36018957346,4,2,1,50,1,0
50647,-100,4,2,1,65,0,1
59462,-100,4,2,1,65,0,0
59747,-100,4,2,1,65,0,1
68562,-100,4,2,1,65,0,0
68846,-100,4,2,1,65,0,1
70837,-100,4,2,1,65,0,0
73112,-100,4,2,1,50,0,0
105244,-100,4,2,1,65,0,1
114060,-100,4,2,1,65,0,0
114344,-100,4,2,1,65,0,1
123159,-100,4,2,1,65,0,0
123443,-100,4,2,1,65,0,1
132259,-100,4,2,1,65,0,0
132543,-100,4,2,1,65,0,1
134534,-100,4,2,1,65,0,0
135671,-100,4,2,1,50,0,0
145908,-100,4,2,1,30,0,0
147045,-100,4,2,1,35,0,0
148183,-100,4,2,1,40,0,0
149320,-100,4,2,1,45,0,0
150458,-100,4,2,1,50,0,0
151595,-100,4,2,1,55,0,0
152733,-100,4,2,1,5,0,0
160410,-100,4,2,1,35,0,0
161761,-100,4,2,1,5,0,0
161832,-100,4,2,1,50,0,0
162116,-100,4,2,1,65,0,1
170932,-100,4,2,1,65,0,0
171216,-100,4,2,1,65,0,1
173206,-125,4,2,1,50,0,0
174770,-125,4,2,1,5,0,0
174913,-125,4,2,1,35,0,0
177472,-100,4,2,1,5,0,0

[Colours]
Combo1 : 200,168,183
Combo2 : 253,164,66
Combo3 : 194,194,171
Combo4 : 176,176,255

[HitObjects]
281,96,18515,6,0,P|319:106|380:94,1,94,2|0,0:3|0:0,0:0:0:0:
409,68,18941,2,0,L|391:209,1,141,2|2,0:0|0:0,0:0:0:0:
375,300,19652,2,0,P|321:335|239:335,2,141,0|2|2,0:0|0:0|0:0,0:0:0:0:
307,234,20789,6,0,P|266:244|217:123,1,188,0|2,0:0|0:0,0:0:0:0:
279,77,21643,1,2,0:0:0:0:
189,47,21927,2,0,P|140:49|83:72,1,94,0|0,0:0|0:0,0:0:0:0:
69,100,22353,2,0,B|60:148|60:148|80:190|80:190|68:248,1,141,2|2,0:0|0:0,0:0:0:0:
107,321,23064,6,0,P|152:339|242:325,2,141,2|2|2,0:3|0:0|0:0,0:0:0:0:
168,249,24202,2,0,P|215:242|286:184,2,141,0|2|2,0:0|0:0|0:0,0:0:0:0:
184,156,25339,2,0,P|222:126|254:41,2,141,0|2|2,0:0|0:0|0:0,0:0:0:0:
96,190,26477,1,0,0:0:0:0:
33,119,26761,2,0,L|11:18,2,94,2|2|2,0:0|0:0|0:0,0:0:0:0:
96,190,27614,6,0,P|101:233|89:290,1,94,2|0,0:3|0:0,0:0:0:0:
66,322,28041,2,0,P|148:318|199:345,1,141,2|2,0:0|0:0,0:0:0:0:
241,260,28752,2,0,P|274:286|306:335,1,94,0|0,0:0|0:0,0:0:0:0:
313,375,29179,2,0,P|368:314|423:297,1,141,2|2,0:0|0:0,0:0:0:0:
401,205,29889,6,0,P|364:206|305:188,1,94,0|0,0:0|0:0,0:0:0:0:
279,153,30316,2,0,P|344:129|388:75,1,141,2|2,0:0|0:0,0:0:0:0:
476,41,31026,2,0,L|469:137,1,94,0|0,0:0|0:0,0:0:0:0:
501,169,31453,2,0,B|485:213|485:213|494:260|494:260|475:312,1,141,2|2,0:0|0:0,0:0:0:0:
392,342,32164,6,0,P|329:330|246:368,2,141,2|2|2,0:3|0:0|0:0,0:0:0:0:
379,248,33301,2,0,P|442:260|525:222,2,141,0|2|2,0:0|0:0|0:0,0:0:0:0:
308,185,34439,5,8,0:3:0:0:
232,240,34723,2,0,P|161:254|88:171,1,188,2|2,0:0|0:0,0:0:0:0:
37,94,35576,2,0,P|127:86|181:159,1,188,0|2,0:0|0:0,0:0:0:0:
256,102,36429,1,2,0:0:0:0:
331,158,36714,6,0,B|354:115|402:101|402:101|456:108,1,141,2|2,0:3|0:0,0:0:0:0:
442,248,37567,2,0,B|419:291|371:305|371:305|317:298,1,141,2|0,0:0|0:0,0:0:0:0:
203,226,38420,2,0,P|152:222|101:239,1,94,0|2,0:0|0:0,0:0:0:0:
34,287,38988,6,0,P|16:231|58:153,2,141,0|2|2,0:0|0:0|0:0,0:0:0:0:
117,329,40126,2,0,B|139:322|139:322|205:350|255:321,2,141,2|2|2,0:0|0:0|0:0,0:0:0:0:
111,233,41263,6,0,P|126:191|161:157,1,94,2|0,0:3|0:0,0:0:0:0:
206,149,41690,2,0,P|238:208|312:231,1,141,2|2,0:0|0:0,0:0:0:0:
397,216,42401,2,0,L|366:362,2,141,0|2|2,0:0|0:0|0:0,0:0:0:0:
337,143,43538,6,0,L|368:-3,2,141,8|2|2,0:3|0:0|0:0,0:0:0:0:
268,207,44676,2,0,P|207:225|127:183,2,141,8|2|2,0:3|0:0|0:0,0:0:0:0:
358,232,45813,6,0,P|374:279|411:305,1,94,2|0,0:3|0:0,0:0:0:0:
455,302,46240,2,0,B|485:240|441:219|470:163,1,141,2|2,0:0|0:0,0:0:0:0:
436,76,46951,2,0,P|393:63|330:82,1,94,0|0,0:0|0:0,0:0:0:0:
308,100,47377,2,0,B|246:130|225:86|169:115,1,141,2|2,0:0|0:0,0:0:0:0:
78,92,48088,2,0,P|81:147|147:207,2,141,8|2|2,0:3|0:0|0:0,0:0:0:0:
170,114,49225,6,0,P|222:158|231:226,1,141,0|0,0:0|0:0,0:0:0:0:
184,308,49936,1,2,0:0:0:0:
263,357,50221,2,0,L|360:351,1,94,0|0,0:0|0:0,0:0:0:0:
391,319,50647,6,0,L|488:325,2,94,4|2|0,1:2|0:3|1:0,0:0:0:0:
322,254,51500,1,2,0:3:0:0:
382,181,51785,1,0,1:0:0:0:
313,116,52069,2,0,P|261:115|216:137,1,94,2|0,0:3|1:0,0:0:0:0:
183,156,52496,6,0,P|131:157|86:135,1,94,2|0,0:3|0:0,0:0:0:0:
69,99,52922,1,0,1:0:0:0:
15,176,53206,2,0,L|25:271,1,94,2|0,0:3|1:0,0:0:0:0:
96,331,53775,1,2,0:3:0:0:
174,278,54060,1,0,1:0:0:0:
236,347,54344,2,0,P|279:327|325:326,1,94,2|0,0:3|1:0,0:0:0:0:
364,352,54770,6,0,P|410:351|452:331,1,94,2|0,0:3|0:0,0:0:0:0:
485,297,55197,2,0,L|474:191,1,94,0|2,1:0|0:3,0:0:0:0:
419,127,55766,1,0,1:0:0:0:
327,148,56050,2,0,P|322:189|317:241,1,94,2|0,0:3|1:0,0:0:0:0:
233,284,56619,2,0,L|228:237|223:190,1,94,2|0,0:3|1:0,0:0:0:0:
137,150,57188,2,0,L|39:166,2,94,2|0|2,0:3|1:0|0:3,0:0:0:0:
206,85,58041,1,0,1:0:0:0:
297,64,58325,6,0,L|395:80,1,94,2|0,0:3|1:0,0:0:0:0:
344,161,58894,2,0,L|442:177,1,94,4|4,0:3|0:3,0:0:0:0:
492,252,59462,1,12,0:3:0:0:
425,318,59747,6,0,P|382:338|335:338,1,94,4|2,1:2|0:3,0:0:0:0:
256,287,60316,1,0,1:0:0:0:
176,338,60600,2,0,P|129:338|86:318,1,94,2|0,0:3|1:0,0:0:0:0:
7,256,61169,2,0,L|15:163,1,94,2|0,0:3|1:0,0:0:0:0:
41,123,61595,6,0,L|49:30,1,94,2|0,0:3|0:0,0:0:0:0:
95,39,62022,2,0,P|186:25|256:82,1,188,0|0,1:0|1:0,0:0:0:0:
191,149,62875,1,2,0:3:0:0:
244,225,63159,1,0,1:0:0:0:
200,307,63443,2,0,B|252:319|252:319|297:306,1,94,2|0,0:3|1:0,0:0:0:0:
334,288,63870,6,0,B|386:276|386:276|425:287,1,94,2|0,0:3|0:0,0:0:0:0:
465,311,64297,2,0,P|488:264|475:126,1,188,0|0,1:0|1:0,0:0:0:0:
411,61,65150,2,0,P|367:44|320:47,1,94,2|0,0:3|1:0,0:0:0:0:
273,128,65718,2,0,P|226:130|182:114,1,94,2|0,0:3|1:0,0:0:0:0:
88,123,66287,2,0,P|85:76|80:29,2,94,2|0|2,0:3|1:0|0:3,0:0:0:0:
43,206,67140,1,0,1:0:0:0:
63,297,67425,6,0,B|112:300|112:300|150:328,1,94,2|0,0:3|1:0,0:0:0:0:
242,326,67993,2,0,B|278:299|278:299|327:296,1,94,2|2,0:3|0:3,0:0:0:0:
417,322,68562,6,0,L|507:360,2,94,12|4|2,0:3|1:2|0:3,0:0:0:0:
395,230,69415,1,0,1:0:0:0:
368,139,69699,2,0,L|278:101,1,94,2|0,0:3|1:0,0:0:0:0:
241,74,70126,2,0,P|233:120|205:158,1,94,2|2,0:3|0:3,0:0:0:0:
160,171,70552,1,0,1:0:0:0:
67,151,70837,6,0,P|27:177|25:306,3,188,4|8|8|8,0:0|0:3|0:3|0:3,0:0:0:0:
205,353,73112,6,0,P|252:330|292:334,1,94,2|0,0:3|0:0,0:0:0:0:
336,350,73538,2,0,P|404:361|466:330,1,141,2|2,0:0|0:0,0:0:0:0:
495,240,74249,2,0,P|478:173|477:93,2,141,0|2|2,0:0|0:0|0:0,0:0:0:0:
403,261,75387,6,0,P|379:243|316:224,1,94,0|2,0:0|0:0,0:0:0:0:
235,267,75955,2,0,P|189:255|150:230,1,94,2|2,0:0|0:0,0:0:0:0:
106,146,76524,2,0,P|112:98|112:52,1,94,0|0,0:0|0:0,0:0:0:0:
158,42,76951,2,0,B|202:51|202:51|244:31|244:31|292:40,1,141,2|2,0:0|0:0,0:0:0:0:
382,69,77661,6,0,L|530:53,2,141,2|2|2,0:3|0:0|0:0,0:0:0:0:
367,162,78799,2,0,L|503:222,2,141,8|2|2,0:3|0:0|0:0,0:0:0:0:
307,235,79936,2,0,L|394:355,2,141,8|2|2,0:3|0:0|0:0,0:0:0:0:
234,295,81074,1,8,0:3:0:0:
149,254,81358,2,0,P|100:243|53:251,2,94,2|2|2,0:0|0:0|0:0,0:0:0:0:
228,203,82211,6,0,L|217:102,1,94,2|0,0:3|0:0,0:0:0:0:
198,66,82638,2,0,P|237:93|332:94,1,141,2|2,0:0|0:0,0:0:0:0:
408,47,83349,2,0,P|419:83|410:138,1,94,0|0,0:0|0:0,0:0:0:0:
382,175,83775,2,0,P|346:234|356:302,1,141,2|2,0:0|0:0,0:0:0:0:
277,354,84486,5,0,0:0:0:0:
188,321,84770,2,0,L|87:341,2,94,2|2|2,0:0|0:0|0:0,0:0:0:0:
156,231,85624,2,0,L|53:224,1,94,0|0,0:0|0:0,0:0:0:0:
22,250,86050,2,0,P|6:202|21:107,1,141,2|2,0:0|0:0,0:0:0:0:
100,68,86761,6,0,L|202:61,1,94,2|0,0:3|0:0,0:0:0:0:
236,81,87188,2,0,B|310:101|273:140|348:160,1,141,2|2,0:0|0:0,0:0:0:0:
441,159,87898,2,0,P|454:89|431:8,2,141,0|2|2,0:0|0:0|0:0,0:0:0:0:
396,242,89036,6,0,P|383:312|406:393,2,141,8|2|2,0:3|0:0|0:0,0:0:0:0:
302,241,90173,2,0,L|202:259,1,94,0|0,0:0|0:0,0:0:0:0:
176,223,90600,2,0,P|176:281|121:350,1,141,2|2,0:0|0:0,0:0:0:0:
41,308,91311,6,0,L|43:206,1,94,2|2,0:3|0:0,0:0:0:0:
108,147,91879,2,0,L|110:45,1,94,2|2,0:0|0:0,0:0:0:0:
202,38,92448,2,0,P|236:76|291:96,1,94,0|0,0:0|0:0,0:0:0:0:
321,98,92875,2,0,P|365:86|406:51,1,94,2|0,0:0|0:0,0:0:0:0:
432,20,93301,1,2,0:0:0:0:
480,100,93586,6,0,P|451:184|508:261,1,188,0|2,0:0|0:0,0:0:0:0:
453,338,94439,1,2,0:0:0:0:
369,296,94723,2,0,P|333:286|274:290,1,94,0|0,0:0|0:0,0:0:0:0:
240,319,95150,2,0,B|196:328|196:328|154:308|154:308|106:317,1,141,2|2,0:0|0:0,0:0:0:0:
31,258,95861,6,0,P|8:189|38:121,2,141,2|2|2,0:3|0:0|0:0,0:0:0:0:
98,193,96998,2,0,P|121:128|98:62,2,141,8|0|2,0:3|0:0|0:0,0:0:0:0:
166,257,98135,6,0,P|187:240|259:241,1,94,0|0,0:0|0:0,0:0:0:0:
289,265,98562,2,0,L|435:248,1,141,2|2,0:0|0:0,0:0:0:0:
486,173,99273,2,0,P|454:167|396:40,1,188,0|8,0:0|0:3,0:0:0:0:
303,55,100126,1,2,0:0:0:0:
210,70,100410,6,0,P|163:64|124:39,1,94,2|0,0:3|0:0,0:0:0:0:
87,70,100837,2,0,L|92:214,1,141,2|2,0:0|0:0,0:0:0:0:
59,299,101548,2,0,P|103:300|150:339,1,94,8|0,0:3|0:0,0:0:0:0:
172,363,101974,2,0,P|205:320|288:301,1,141,2|2,0:0|0:0,0:0:0:0:
373,336,102685,2,0,P|429:346|500:247,1,188,0|0,0:0|0:0,0:0:0:0:
467,164,103538,1,2,0:0:0:0:
402,95,103823,6,0,B|358:104|358:104|316:84|316:84|268:93,1,141,0|0,0:0|0:0,0:0:0:0:
189,146,104534,2,0,L|92:130,1,94,2|0,0:0|0:0,0:0:0:0:
56,156,104960,1,4,0:3:0:0:
15,240,105244,6,0,P|10:291|31:336,2,94,4|2|0,1:2|0:3|1:0,0:0:0:0:
103,273,106097,1,2,0:3:0:0:
189,309,106382,1,0,1:0:0:0:
257,244,106666,2,0,L|355:257,1,94,2|0,0:3|1:0,0:0:0:0:
363,301,107093,6,0,L|461:288,1,94,2|0,0:3|0:0,0:0:0:0:
502,279,107519,1,0,1:0:0:0:
461,194,107804,2,0,P|459:153|490:100,1,94,2|0,0:3|1:0,0:0:0:0:
433,26,108372,1,2,0:3:0:0:
370,96,108657,1,0,1:0:0:0:
281,126,108941,2,0,P|228:120|188:92,1,94,2|0,0:3|1:0,0:0:0:0:
161,65,109368,6,0,P|120:41|74:37,1,94,2|0,0:3|0:0,0:0:0:0:
36,65,109794,2,0,L|28:163,1,94,0|2,1:0|0:3,0:0:0:0:
66,244,110363,1,0,1:0:0:0:
20,326,110647,2,0,L|123:340,1,94,2|0,0:3|1:0,0:0:0:0:
199,301,111216,2,0,L|302:315,1,94,2|0,0:3|1:0,0:0:0:0:
385,301,111785,2,0,P|428:295|480:312,2,94,2|0|2,0:3|1:0|0:3,0:0:0:0:
326,226,112638,1,0,1:0:0:0:
381,150,112922,6,0,L|480:168,1,94,2|0,0:3|1:0,0:0:0:0:
459,73,113491,2,0,L|366:56,1,94,4|4,0:3|0:3,0:0:0:0:
274,35,114060,1,12,0:3:0:0:
211,105,114344,6,0,P|221:150|216:197,1,94,4|2,1:2|0:3,0:0:0:0:
142,255,114913,1,0,1:0:0:0:
183,339,115197,2,0,L|288:350,1,94,2|0,0:3|1:0,0:0:0:0:
370,338,115766,2,0,P|398:320|462:309,1,94,2|0,0:3|1:0,0:0:0:0:
472,264,116192,6,0,P|434:235|389:223,1,94,2|0,0:3|0:0,0:0:0:0:
344,236,116619,2,0,P|357:153|442:96,1,188,0|0,1:0|1:0,0:0:0:0:
365,36,117472,2,0,P|315:53|260:49,1,94,2|0,0:3|1:0,0:0:0:0:
183,27,118041,2,0,P|136:27|92:43,1,94,2|0,0:3|1:0,0:0:0:0:
59,76,118467,6,0,L|68:178,1,94,2|0,0:3|0:0,0:0:0:0:
43,210,118894,2,0,L|34:312,2,94,0|2|0,1:0|0:3|1:0,0:0:0:0:
135,225,119747,2,0,P|159:266|167:312,1,94,2|0,0:3|1:0,0:0:0:0:
258,289,120316,2,0,P|265:242|289:202,1,94,2|0,0:3|1:0,0:0:0:0:
382,197,120884,2,0,L|401:293,2,94,2|0|2,0:3|1:0|0:3,0:0:0:0:
439,122,121737,1,0,1:0:0:0:
384,45,122022,6,0,B|337:50|337:50|302:81,1,94,2|0,0:3|1:0,0:0:0:0:
209,81,122590,2,0,B|175:50|175:50|128:45,1,94,2|2,0:3|0:3,0:0:0:0:
53,104,123159,1,12,0:3:0:0:
35,196,123443,6,0,B|111:200|111:200|131:224|131:224|211:232,1,188,4|0,1:2|1:0,0:0:0:0:
280,296,124297,1,2,0:3:0:0:
354,239,124581,1,0,1:0:0:0:
406,317,124865,2,0,P|450:310|494:279,1,94,2|0,0:3|1:0,0:0:0:0:
499,236,125292,6,0,L|488:138,1,94,2|0,0:3|0:0,0:0:0:0:
501,97,125718,2,0,P|481:117|338:80,1,188,0|0,1:0|1:0,0:0:0:0:
285,13,126571,1,2,0:3:0:0:
195,43,126856,1,0,1:0:0:0:
105,68,127140,2,0,P|101:115|108:162,1,94,2|0,0:3|1:0,0:0:0:0:
152,180,127567,6,0,P|155:226|148:273,1,94,2|0,0:3|0:0,0:0:0:0:
116,308,127993,2,0,L|22:313,2,94,0|2|0,1:0|0:3|1:0,0:0:0:0:
202,345,128846,2,0,L|296:350,1,94,2|0,0:3|1:0,0:0:0:0:
383,316,129415,2,0,P|368:271|375:225,1,94,2|0,0:3|1:0,0:0:0:0:
411,195,129842,2,0,P|417:148|403:104,1,94,0|0,0:0|0:0,0:0:0:0:
369,71,130268,2,0,L|274:82,1,94,0|2,1:0|0:3,0:0:0:0:
199,137,130837,1,0,1:0:0:0:
110,106,131121,6,0,B|112:57|112:57|88:16,1,94,2|0,0:3|1:0,0:0:0:0:
20,82,131690,2,0,B|18:131|18:131|42:172,1,94,4|4,0:3|0:3,0:0:0:0:
122,216,132259,1,12,0:3:0:0:
200,267,132543,6,0,L|194:364,2,94,4|2|0,1:2|0:3|1:0,0:0:0:0:
293,256,133396,2,0,P|324:293|372:315,1,94,2|0,0:3|1:0,0:0:0:0:
411,311,133823,2,0,P|449:289|477:249,1,94,2|2,0:3|0:3,0:0:0:0:
476,201,134249,1,0,1:0:0:0:
483,107,134534,6,0,B|441:106|410:136|410:136|390:127|390:127|367:168|314:172,1,188,4|8,0:0|0:3,0:0:0:0:
168,60,135671,2,0,B|162:109|162:109|181:149,1,94,0|0,1:0|1:0,0:0:0:0:
107,207,136240,2,0,B|113:256|113:256|93:296,1,94,4|4,0:3|0:3,0:0:0:0:
168,352,136808,5,4,0:0:0:0:
127,162,145908,6,0,P|175:149|219:125,1,94,4|0,0:0|0:0,0:0:0:0:
285,63,146477,2,0,P|298:111|322:155,1,94,2|0,0:0|0:0,0:0:0:0:
384,221,147045,2,0,P|336:234|292:258,1,94,2|0,0:0|0:0,0:0:0:0:
226,320,147614,2,0,P|213:272|189:228,1,94,2|0,0:0|0:0,0:0:0:0:
130,151,148183,6,0,P|179:143|224:122,1,94,2|0,0:0|0:0,0:0:0:0:
296,66,148752,2,0,P|304:115|325:160,1,94,2|4,0:0|0:3,0:0:0:0:
381,232,149320,2,0,P|332:240|287:261,1,94,4|2,0:3|0:0,0:0:0:0:
215,317,149889,2,0,P|207:268|186:223,1,94,2|2,0:3|0:3,0:0:0:0:
134,140,150458,6,0,P|184:136|231:120,1,94,4|0,0:0|0:0,0:0:0:0:
307,70,151027,2,0,P|311:120|327:167,1,94,2|0,0:0|0:0,0:0:0:0:
377,243,151595,2,0,P|327:247|280:263,1,94,2|2,0:0|0:3,0:0:0:0:
204,313,152164,2,0,P|200:263|184:216,1,94,4|4,0:3|0:3,0:0:0:0:
256,192,152733,12,0,155718,0:0:0:0:
321,99,160410,5,0,0:0:0:0:
403,53,160695,2,0,P|449:81|290:180,1,376,2|4,0:0|0:3,0:0:0:0:
229,123,162116,6,0,P|187:115|125:129,2,94,4|2|0,1:2|0:3|1:0,0:0:0:0:
295,190,162970,1,2,0:3:0:0:
249,272,163254,1,0,1:0:0:0:
157,251,163538,2,0,L|50:264,1,94,2|0,0:3|1:0,0:0:0:0:
21,284,163965,6,0,P|36:238|30:179,1,94,2|0,0:3|0:0,0:0:0:0:
14,150,164391,1,0,1:0:0:0:
88,92,164676,2,0,L|195:105,1,94,2|0,0:3|1:0,0:0:0:0:
269,70,165244,1,2,0:3:0:0:
346,123,165529,1,0,1:0:0:0:
427,76,165813,2,0,B|437:123|437:123|426:177,1,94,2|0,0:3|1:0,0:0:0:0:
399,205,166240,6,0,B|388:253|388:253|450:341,1,141,2|0,0:3|1:0,0:0:0:0:
353,362,166951,2,0,P|303:352|251:367,1,94,2|0,0:3|1:0,0:0:0:0:
180,315,167519,1,2,0:3:0:0:
226,233,167804,2,0,P|270:218|304:186,2,94,0|2|0,1:0|0:3|1:0,0:0:0:0:
135,208,168657,2,0,L|28:220,1,94,2|0,0:3|1:0,0:0:0:0:
47,124,169225,2,0,L|140:113,1,94,2|0,0:3|1:0,0:0:0:0:
220,63,169794,5,2,0:3:0:0:
298,114,170079,1,0,1:0:0:0:
375,61,170363,2,0,B|390:82|397:113|387:142|387:142|404:139|404:139|388:189|418:224,1,188,2|12,0:3|0:3,0:0:0:0:
473,294,171216,6,0,P|457:332|412:358,1,94,4|2,1:2|0:3,0:0:0:0:
319,367,171785,1,0,1:0:0:0:
234,325,172069,2,0,L|135:336,1,94,4|4,0:3|0:3,0:0:0:0:
145,241,172638,2,0,L|46:252,1,94,2|2,0:3|0:3,0:0:0:0:
54,158,173206,6,0,L|480:115,1,413.6,4|0,0:0|0:0,0:0:0:0:
503,144,174913,2,0,B|441:326|441:326|373:236|373:236|326:296|326:296|270:265|270:265|37:291,1,676.8,8|0,0:3|0:0,0:0:0:0:
256,192,177756,12,0,181169,0:0:0:0:
