osu file format v14

[General]
AudioFilename: Junge.mp3
AudioLeadIn: 0
PreviewTime: 48870
Countdown: 0
SampleSet: Soft
StackLeniency: 0.7
Mode: 0
LetterboxInBreaks: 0
WidescreenStoryboard: 0

[Editor]
DistanceSpacing: 1
BeatDivisor: 4
GridSize: 4
TimelineZoom: 2.4

[Metadata]
Title:Junge
TitleUnicode:Junge
Artist:die aerzte
ArtistUnicode:die ärzte
Creator:Desperate-kun
Version:Advanced
Source:
Tags:Mao Punkrock Rodrigo Gonzales Farin Urlaub Bela B
BeatmapID:651977
BeatmapSetID:288845

[Difficulty]
HPDrainRate:5
CircleSize:4
OverallDifficulty:5.5
ApproachRate:6.5
SliderMultiplier:1.19
SliderTickRate:1

[Events]
//Background and Video events
0,0,"BG.png",0,0
//Break Periods
2,137008,144933
2,155918,159435
//Storyboard Layer 0 (Background)
//Storyboard Layer 1 (Fail)
//Storyboard Layer 2 (Pass)
//Storyboard Layer 3 (Foreground)
//Storyboard Sound Samples

[TimingPoints]
316,284.36018957346,4,2,1,50,1,0
18515,-117.647058823529,4,2,1,50,0,0
50647,-100,4,2,1,65,0,1
59462,-100,4,2,1,65,0,0
59747,-100,4,2,1,65,0,1
68562,-100,4,2,1,65,0,0
68846,-100,4,2,1,65,0,1
70837,-117.647058823529,4,2,1,65,0,0
73112,-117.647058823529,4,2,1,50,0,0
105244,-100,4,2,1,65,0,1
114060,-100,4,2,1,65,0,0
114344,-100,4,2,1,65,0,1
123159,-100,4,2,1,65,0,0
123443,-100,4,2,1,65,0,1
132259,-100,4,2,1,65,0,0
132543,-100,4,2,1,65,0,1
134534,-117.647058823529,4,2,1,65,0,0
135671,-117.647058823529,4,2,1,50,0,0
145908,-117.647058823529,4,2,1,30,0,0
147045,-117.647058823529,4,2,1,35,0,0
148183,-117.647058823529,4,2,1,40,0,0
149320,-117.647058823529,4,2,1,45,0,0
150458,-117.647058823529,4,2,1,50,0,0
151595,-117.647058823529,4,2,1,55,0,0
152733,-117.647058823529,4,2,1,5,0,0
160410,-142.857142857143,4,2,1,35,0,0
161761,-142.857142857143,4,2,1,5,0,0
161832,-117.647058823529,4,2,1,50,0,0
162116,-100,4,2,1,65,0,1
170932,-100,4,2,1,65,0,0
171216,-100,4,2,1,65,0,1
173206,-117.647058823529,4,2,1,50,0,0
174770,-117.647058823529,4,2,1,5,0,0
174913,-117.647058823529,4,2,1,35,0,0
177472,-117.647058823529,4,2,1,5,0,0

[Colours]
Combo1 : 200,168,183
Combo2 : 253,164,66
Combo3 : 194,194,171
Combo4 : 176,176,255

[HitObjects]
78,284,18515,6,0,P|123:293|182:280,1,101.150001929283,2|0,0:3|0:0,0:0:0:0:
218,254,18941,2,0,P|267:243|316:252,1,101.150001929283,2|0,0:0|0:0,0:0:0:0:
356,283,19368,1,2,0:0:0:0:
433,218,19652,2,0,B|419:191|419:191|421:153|421:153|405:122,1,101.150001929283,0|0,0:0|0:0,0:0:0:0:
418,74,20079,2,0,P|368:84|319:75,1,101.150001929283,2|0,0:0|0:0,0:0:0:0:
287,35,20505,2,0,L|227:46,1,50.5750009646416,2|0,0:0|0:0,0:0:0:0:
195,73,20789,6,0,P|158:66|89:77,1,101.150001929283,0|0,0:0|0:0,0:0:0:0:
29,151,21358,1,2,0:0:0:0:
123,188,21643,1,2,0:0:0:0:
56,264,21927,2,0,P|53:295|85:359,1,101.150001929283,0|0,0:0|0:0,0:0:0:0:
131,366,22353,2,0,B|180:350|180:350|214:311|214:311|261:299,1,151.725002893925,2|2,0:0|0:0,0:0:0:0:
308,317,22922,1,0,0:0:0:0:
355,334,23064,6,0,P|406:326|447:290,1,101.150001929283,2|0,0:3|0:0,0:0:0:0:
453,245,23491,2,0,P|436:205|445:131,1,101.150001929283,2|0,0:0|0:0,0:0:0:0:
458,101,23917,1,2,0:0:0:0:
371,48,24202,2,0,L|269:66,1,101.150001929283,0|0,0:0|0:0,0:0:0:0:
227,41,24628,2,0,L|141:95,1,101.150001929283,2|0,0:0|0:0,0:0:0:0:
90,89,25055,1,2,0:0:0:0:
27,167,25339,6,0,P|53:184|124:184,1,101.150001929283,0|0,0:0|0:0,0:0:0:0:
169,168,25766,2,0,P|151:194|152:265,2,101.150001929283,2|0|0,0:0|0:0|0:0,0:0:0:0:
217,154,26477,1,0,0:0:0:0:
248,250,26761,1,2,0:0:0:0:
327,187,27045,1,2,0:0:0:0:
296,91,27329,1,2,0:0:0:0:
388,48,27614,6,0,P|436:51|486:80,1,101.150001929283,2|0,0:3|0:0,0:0:0:0:
510,118,28041,2,0,P|462:121|412:150,1,101.150001929283,2|0,0:0|0:0,0:0:0:0:
400,194,28467,1,2,0:0:0:0:
469,267,28752,2,0,P|425:291|375:295,1,101.150001929283,0|0,0:0|0:0,0:0:0:0:
326,280,29178,2,0,B|276:275|276:275|223:306,1,101.150001929283,2|0,0:0|0:0,0:0:0:0:
188,327,29605,1,2,0:0:0:0:
87,316,29889,6,0,P|59:290|69:226,1,101.150001929283,0|0,0:0|0:0,0:0:0:0:
99,192,30316,2,0,P|109:144|77:106,1,101.150001929283,2|0,0:0|0:0,0:0:0:0:
29,91,30742,1,2,0:0:0:0:
99,19,31026,2,0,L|201:31,1,101.150001929283,0|0,0:0|0:0,0:0:0:0:
241,59,31453,2,0,B|210:132|260:136|232:206,1,151.725002893925,2|2,0:0|0:0,0:0:0:0:
288,291,32164,6,0,P|331:302|392:283,1,101.150001929283,2|0,0:3|0:0,0:0:0:0:
419,250,32590,2,0,L|431:143,1,101.150001929283,2|0,0:0|0:0,0:0:0:0:
435,98,33017,1,2,0:0:0:0:
356,34,33301,2,0,P|313:23|252:42,1,101.150001929283,0|0,0:0|0:0,0:0:0:0:
225,75,33727,2,0,L|213:182,1,101.150001929283,2|0,0:0|0:0,0:0:0:0:
209,227,34154,1,2,0:0:0:0:
146,306,34439,5,8,0:3:0:0:
51,271,34723,2,0,B|26:208|26:208|36:138|36:138|14:77,1,202.300003858566,2|2,0:0|0:0,0:0:0:0:
29,29,35434,1,0,0:0:0:0:
78,18,35576,2,0,P|125:32|186:22,1,101.150001929283,0|0,0:0|0:0,0:0:0:0:
273,55,36145,1,2,0:0:0:0:
219,140,36429,1,2,0:0:0:0:
316,169,36714,6,0,P|357:194|387:238,1,101.150001929283,2|0,0:3|0:0,0:0:0:0:
423,272,37140,2,0,P|398:313|354:343,1,101.150001929283,2|0,0:0|0:0,0:0:0:0:
307,325,37567,2,0,L|206:325,1,101.150001929283,2|0,0:0|0:0,0:0:0:0:
157,342,37993,2,0,P|115:314|89:272,1,101.150001929283,0|2,0:0|0:0,0:0:0:0:
125,237,38420,2,0,P|153:195|196:169,1,101.150001929283,0|2,0:0|0:0,0:0:0:0:
245,176,38846,1,0,0:0:0:0:
293,182,38988,6,0,P|335:155|363:113,1,101.150001929283,0|0,0:0|0:0,0:0:0:0:
366,62,39415,2,0,B|410:93|424:65|463:92,1,101.150001929283,2|0,0:0|0:0,0:0:0:0:
495,127,39842,1,2,0:0:0:0:
443,213,40126,2,0,B|438:231|438:231|460:268|448:310,1,101.150001929283,2|0,0:0|0:0,0:0:0:0:
408,341,40552,2,0,P|356:329|294:345,1,101.150001929283,2|0,0:0|0:0,0:0:0:0:
263,358,40979,1,2,0:0:0:0:
181,298,41263,6,0,P|131:306|82:294,1,101.150001929283,2|0,0:3|0:0,0:0:0:0:
45,259,41690,2,0,B|52:209|52:209|90:176|90:176|97:124,1,151.725002893925,2|2,0:0|0:0,0:0:0:0:
177,64,42401,2,0,P|186:100|232:147,1,101.150001929283,0|0,0:0|0:0,0:0:0:0:
282,145,42827,2,0,P|319:111|335:64,1,101.150001929283,2|0,0:0|0:0,0:0:0:0:
316,16,43254,1,2,0:0:0:0:
416,24,43538,6,0,L|456:123,1,101.150001929283,8|0,0:3|0:0,0:0:0:0:
492,151,43965,2,0,P|484:208|393:237,1,151.725002893925,2|2,0:0|0:0,0:0:0:0:
303,224,44676,2,0,P|233:243|214:313,2,151.725002893925,8|2|2,0:3|0:0|0:0,0:0:0:0:
365,144,45813,6,0,L|256:116,1,101.150001929283,2|0,0:3|0:0,0:0:0:0:
245,72,46240,2,0,P|216:93|144:103,1,101.150001929283,2|0,0:0|0:0,0:0:0:0:
103,94,46666,1,2,0:0:0:0:
29,163,46951,6,0,P|58:184|130:194,1,101.150001929283,0|0,0:0|0:0,0:0:0:0:
171,188,47377,2,0,L|150:290,1,101.150001929283,2|0,0:0|0:0,0:0:0:0:
128,332,47804,1,2,0:0:0:0:
217,377,48088,6,0,P|255:377|313:348,1,101.150001929283,8|0,0:3|0:0,0:0:0:0:
331,303,48515,2,0,L|310:203,1,101.150001929283,2|0,0:0|0:0,0:0:0:0:
329,157,48941,1,2,0:0:0:0:
277,70,49225,6,0,B|246:68|246:68|204:84,2,75.8625014469624,0|2|0,0:0|0:0|0:0,0:0:0:0:
367,115,49936,1,0,0:0:0:0:
460,75,50221,2,0,L|450:183,1,101.150001929283,0|0,0:0|0:0,0:0:0:0:
480,227,50647,6,0,P|471:292|421:343,1,119,4|2,1:2|0:3,0:0:0:0:
382,352,51074,2,0,P|353:352|321:359,1,59.5,2|0,0:3|1:0,0:0:0:0:
226,289,51500,1,2,0:3:0:0:
127,356,51785,1,0,1:0:0:0:
33,283,52069,2,0,L|15:223,2,59.5,2|2|0,0:3|0:3|1:0,0:0:0:0:
92,278,52496,6,0,P|117:245|119:168,1,119,2|0,0:3|0:0,0:0:0:0:
89,118,52922,2,0,L|215:101,1,119,0|2,1:0|0:3,0:0:0:0:
265,112,53349,1,2,0:3:0:0:
269,116,53491,1,0,1:0:0:0:
375,62,53775,1,2,0:3:0:0:
361,180,54060,1,0,1:0:0:0:
431,275,54344,2,0,L|491:267,2,59.5,2|2|0,0:3|0:3|1:0,0:0:0:0:
388,316,54770,6,0,B|360:340|360:340|276:333,1,119,2|0,0:3|0:0,0:0:0:0:
227,301,55197,2,0,P|180:288|111:307,1,119,0|2,1:0|0:3,0:0:0:0:
68,344,55624,2,0,L|24:302,1,59.5,2|0,0:3|1:0,0:0:0:0:
71,193,56050,1,2,0:3:0:0:
9,91,56334,2,0,L|52:49,1,59.5,0|0,1:0|0:0,0:0:0:0:
111,55,56619,2,0,P|141:96|211:109,1,119,2|0,0:3|1:0,0:0:0:0:
262,94,57045,1,0,0:0:0:0:
319,78,57188,6,0,L|298:198,1,119,2|0,0:3|1:0,0:0:0:0:
378,282,57756,2,0,P|401:284|437:276,2,59.5,2|2|0,0:3|0:3|1:0,0:0:0:0:
277,346,58325,5,2,0:3:0:0:
178,278,58609,1,0,1:0:0:0:
83,351,58894,2,0,L|50:297,1,59.5,4|0,0:3|0:0,0:0:0:0:
63,242,59178,2,0,L|30:188,1,59.5,4|0,0:3|0:0,0:0:0:0:
43,132,59462,1,12,0:3:0:0:
129,50,59747,6,0,P|151:81|154:170,1,119,4|2,1:2|0:3,0:0:0:0:
190,209,60173,1,2,0:3:0:0:
194,213,60316,1,0,1:0:0:0:
291,145,60600,1,2,0:3:0:0:
393,204,60884,1,0,1:0:0:0:
491,138,61169,2,0,P|448:98|391:84,1,119,2|0,0:3|1:0,0:0:0:0:
374,26,61595,6,0,P|323:57|265:61,1,119,2|0,0:3|0:0,0:0:0:0:
216,96,62022,2,0,P|158:83|101:99,2,119,0|2|0,1:0|0:3|1:0,0:0:0:0:
276,198,62875,1,2,0:3:0:0:
393,204,63159,1,0,1:0:0:0:
329,304,63443,2,0,L|262:309,2,59.5,2|2|0,0:3|0:3|1:0,0:0:0:0:
384,325,63870,6,0,B|422:337|422:337|497:308,1,119,2|0,0:3|0:0,0:0:0:0:
497,248,64297,2,0,P|476:204|481:133,1,119,0|2,1:0|0:3,0:0:0:0:
505,81,64723,1,2,0:3:0:0:
509,85,64865,1,0,1:0:0:0:
397,42,65150,1,2,0:3:0:0:
343,148,65434,2,0,P|314:158|272:157,1,59.5,0|0,1:0|0:0,0:0:0:0:
231,134,65718,2,0,P|187:128|125:164,1,119,2|0,0:3|1:0,0:0:0:0:
116,223,66145,1,0,0:0:0:0:
155,267,66287,6,0,P|199:273|261:237,2,119,2|0|2,0:3|1:0|0:3,0:0:0:0:
96,278,66998,2,0,L|104:340,1,59.5,2|0,0:3|1:0,0:0:0:0:
1,275,67425,1,2,0:3:0:0:
51,167,67709,1,0,1:0:0:0:
23,51,67993,2,0,B|60:64|60:64|101:53|101:53|141:66,1,119,4|4,0:3|0:3,0:0:0:0:
165,180,68562,1,12,0:3:0:0:
252,99,68846,6,0,P|304:91|364:117,1,119,4|2,1:2|0:3,0:0:0:0:
392,168,69273,2,0,L|400:229,1,59.5,2|0,0:3|1:0,0:0:0:0:
313,308,69699,2,0,L|294:181,1,119,2|0,0:3|1:0,0:0:0:0:
261,239,70126,2,0,P|231:258|147:263,1,119,2|2,0:3|0:3,0:0:0:0:
67,169,70695,1,0,0:0:0:0:
71,173,70837,6,0,P|108:98|183:171,3,202.300003858566,4|8|8|8,0:0|0:3|0:3|0:3,0:0:0:0:
384,113,73112,6,0,L|377:218,1,101.150001929283,2|0,0:3|0:0,0:0:0:0:
413,249,73538,2,0,P|374:268|341:325,1,101.150001929283,2|0,0:0|0:0,0:0:0:0:
301,345,73965,1,2,0:0:0:0:
210,300,74249,2,0,B|168:296|155:320|111:316,1,101.150001929283,0|0,0:0|0:0,0:0:0:0:
62,300,74676,2,0,P|96:278|121:218,1,101.150001929283,2|0,0:0|0:0,0:0:0:0:
117,173,75102,1,2,0:0:0:0:
217,188,75387,5,0,0:0:0:0:
247,91,75671,2,0,P|228:44|188:15,2,101.150001929283,2|2|2,0:0|0:0|0:0,0:0:0:0:
312,168,76524,2,0,P|338:169|365:163,1,50.5750009646416,0|0,0:0|0:0,0:0:0:0:
456,128,76951,2,0,L|442:233,1,101.150001929283,2|0,0:0|0:0,0:0:0:0:
474,267,77377,1,2,0:0:0:0:
399,334,77661,6,0,P|349:329|295:350,1,101.150001929283,2|0,0:3|0:0,0:0:0:0:
257,321,78088,2,0,P|209:337|159:332,1,101.150001929283,2|0,0:0|0:0,0:0:0:0:
112,352,78515,2,0,P|85:342|61:321,1,50.5750009646416,2|0,0:0|0:0,0:0:0:0:
19,316,78799,2,0,P|3:233|44:172,2,151.725002893925,8|2|2,0:3|0:0|0:0,0:0:0:0:
101,258,79936,6,0,P|131:220|137:161,1,101.150001929283,8|0,0:3|0:0,0:0:0:0:
120,121,80363,2,0,L|226:143,1,101.150001929283,2|0,0:0|0:0,0:0:0:0:
255,176,80789,1,2,0:0:0:0:
320,98,81074,1,8,0:3:0:0:
392,167,81358,1,2,0:0:0:0:
327,245,81643,2,0,P|326:271|334:303,2,50.5750009646416,2|0|2,0:0|0:0|0:0,0:0:0:0:
346,145,82211,6,0,P|357:109|339:43,1,101.150001929283,2|0,0:3|0:0,0:0:0:0:
298,23,82638,2,0,L|176:35,1,101.150001929283,2|0,0:0|0:0,0:0:0:0:
152,56,83064,1,2,0:0:0:0:
172,155,83349,2,0,L|50:143,1,101.150001929283,0|0,0:0|0:0,0:0:0:0:
26,167,83775,2,0,P|32:208|79:258,1,101.150001929283,2|0,0:0|0:0,0:0:0:0:
117,268,84202,1,2,0:0:0:0:
215,244,84486,5,0,0:0:0:0:
256,335,84770,1,2,0:0:0:0:
337,274,85055,2,0,P|377:263|435:271,1,101.150001929283,2|2,0:0|0:0,0:0:0:0:
503,195,85624,1,0,0:0:0:0:
506,144,85766,2,0,P|466:155|408:147,1,101.150001929283,0|2,0:0|0:0,0:0:0:0:
311,95,86334,2,0,L|267:131,1,50.5750009646416,0|2,0:0|0:0,0:0:0:0:
176,91,86761,6,0,B|122:85|126:114|75:107,1,101.150001929283,2|0,0:3|0:0,0:0:0:0:
31,86,87188,2,0,P|33:133|98:153,1,101.150001929283,2|0,0:0|0:0,0:0:0:0:
116,187,87614,1,2,0:0:0:0:
83,282,87898,2,0,B|137:276|133:305|184:298,1,101.150001929283,0|0,0:0|0:0,0:0:0:0:
229,281,88325,2,0,P|231:328|296:348,1,101.150001929283,2|0,0:0|0:0,0:0:0:0:
320,331,88752,2,0,P|336:308|357:288,1,50.5750009646416,2|0,0:0|0:0,0:0:0:0:
400,278,89036,6,0,P|434:248|443:186,1,101.150001929283,8|0,0:3|0:0,0:0:0:0:
411,156,89462,2,0,P|377:126|368:64,1,101.150001929283,2|0,0:0|0:0,0:0:0:0:
391,28,89889,1,2,0:0:0:0:
290,31,90173,2,0,B|281:57|281:57|249:81|249:81|236:118,1,101.150001929283,0|0,0:0|0:0,0:0:0:0:
202,149,90600,2,0,B|193:123|193:123|161:99|161:99|148:62,1,101.150001929283,2|0,0:0|0:0,0:0:0:0:
113,31,91026,1,2,0:0:0:0:
63,119,91311,6,0,B|74:150|74:150|106:174|106:174|115:200,1,101.150001929283,2|2,0:3|0:0,0:0:0:0:
96,247,91737,1,0,0:0:0:0:
78,294,91879,2,0,P|91:342|136:368,1,101.150001929283,2|2,0:0|0:0,0:0:0:0:
228,334,92448,2,0,P|260:326|330:336,1,101.150001929283,0|0,0:0|0:0,0:0:0:0:
370,359,92875,2,0,P|420:354|465:332,1,101.150001929283,2|0,0:0|0:0,0:0:0:0:
480,284,93301,1,2,0:0:0:0:
394,229,93586,6,0,P|375:202|366:129,1,101.150001929283,0|0,0:0|0:0,0:0:0:0:
381,85,94012,1,0,0:0:0:0:
385,89,94154,2,0,L|274:103,1,101.150001929283,2|2,0:0|0:0,0:0:0:0:
191,61,94723,2,0,B|173:85|173:85|101:95,1,101.150001929283,0|0,0:0|0:0,0:0:0:0:
52,84,95150,2,0,P|82:123|93:180,1,101.150001929283,2|0,0:0|0:0,0:0:0:0:
71,218,95576,2,0,P|71:245|75:271,1,50.5750009646416,2|0,0:0|0:0,0:0:0:0:
117,295,95861,6,0,P|158:283|197:238,1,101.150001929283,2|0,0:3|0:0,0:0:0:0:
240,217,96287,2,0,L|259:327,1,101.150001929283,2|0,0:0|0:0,0:0:0:0:
299,344,96714,2,0,P|327:347|361:342,1,50.5750009646416,2|0,0:0|0:0,0:0:0:0:
395,324,96998,2,0,B|401:273|401:273|446:248|446:248|451:198,1,151.725002893925,8|0,0:3|0:0,0:0:0:0:
452,148,97567,1,2,0:0:0:0:
386,71,97851,1,2,0:0:0:0:
302,128,98135,6,0,P|271:133|204:110,1,101.150001929283,0|0,0:0|0:0,0:0:0:0:
178,68,98562,2,0,P|132:87|82:84,1,101.150001929283,2|0,0:0|0:0,0:0:0:0:
36,63,98988,1,2,0:0:0:0:
43,164,99273,2,0,L|30:267,1,101.150001929283,0|0,0:0|0:0,0:0:0:0:
65,300,99699,1,2,0:0:0:0:
100,336,99842,2,0,L|112:235,1,101.150001929283,8|2,0:3|0:0,0:0:0:0:
207,201,100410,6,0,L|219:301,1,101.150001929283,2|0,0:3|0:0,0:0:0:0:
255,337,100837,2,0,P|294:345|356:332,1,101.150001929283,2|0,0:0|0:0,0:0:0:0:
393,302,101263,1,2,0:0:0:0:
339,215,101548,6,0,B|324:191|324:191|350:159|343:123,1,101.150001929283,8|0,0:3|0:0,0:0:0:0:
365,77,101974,2,0,P|324:98|248:96,1,101.150001929283,2|0,0:0|0:0,0:0:0:0:
223,79,102401,1,2,0:0:0:0:
123,62,102685,6,0,B|117:112|140:114|133:164,1,101.150001929283,0|0,0:0|0:0,0:0:0:0:
93,192,103112,2,0,B|99:242|76:244|83:294,1,101.150001929283,2|0,0:0|0:0,0:0:0:0:
115,329,103538,1,2,0:0:0:0:
211,296,103823,6,0,L|218:214,2,75.8625014469624,0|2|0,0:0|0:0|0:0,0:0:0:0:
300,342,104534,1,2,0:0:0:0:
344,318,104676,2,0,P|381:309|445:329,1,101.150001929283,0|4,0:0|0:3,0:0:0:0:
511,230,105244,6,0,P|474:179|473:114,1,119,4|2,1:2|0:3,0:0:0:0:
489,65,105671,1,2,0:3:0:0:
493,69,105813,1,0,1:0:0:0:
380,30,106097,1,2,0:3:0:0:
332,139,106382,1,0,1:0:0:0:
227,82,106666,2,0,L|157:77,2,59.5,2|2|0,0:3|0:3|1:0,0:0:0:0:
244,139,107093,6,0,P|209:186|125:195,1,119,2|0,0:3|0:0,0:0:0:0:
125,254,107519,2,0,P|160:301|244:310,1,119,0|2,1:0|0:3,0:0:0:0:
270,292,107946,2,0,P|282:319|306:349,1,59.5,2|0,0:3|1:0,0:0:0:0:
417,361,108372,1,2,0:3:0:0:
451,246,108657,1,0,1:0:0:0:
356,173,108941,2,0,P|338:149|326:122,2,59.5,2|2|0,0:3|0:3|1:0,0:0:0:0:
356,232,109368,6,0,B|323:224|323:224|230:245,1,119,2|0,0:3|0:0,0:0:0:0:
186,216,109794,2,0,P|173:268|109:307,1,119,0|2,1:0|0:3,0:0:0:0:
62,297,110221,2,0,P|31:297|-3:306,1,59.5,2|0,0:3|1:0,0:0:0:0:
33,188,110647,1,2,0:3:0:0:
3,72,110932,2,0,P|31:78|61:78,1,59.5,0|0,1:0|0:0,0:0:0:0:
116,55,111216,2,0,P|141:102|202:122,1,119,2|0,0:3|1:0,0:0:0:0:
256,100,111643,1,0,0:0:0:0:
311,77,111785,6,0,P|366:93|395:144,1,119,2|0,0:3|1:0,0:0:0:0:
359,257,112353,2,0,P|354:284|353:326,2,59.5,2|2|0,0:3|0:3|1:0,0:0:0:0:
475,232,112922,5,2,0:3:0:0:
395,144,113206,1,0,1:0:0:0:
408,25,113491,2,0,L|340:31,1,59.5,4|0,0:3|0:0,0:0:0:0:
310,77,113775,2,0,L|243:84,1,59.5,4|0,0:3|0:0,0:0:0:0:
193,68,114060,1,12,0:3:0:0:
74,68,114344,6,0,P|77:104|131:171,1,119,4|2,1:2|0:3,0:0:0:0:
182,186,114770,1,2,0:3:0:0:
186,190,114913,1,0,1:0:0:0:
150,303,115197,1,2,0:3:0:0:
256,356,115481,1,0,1:0:0:0:
362,303,115766,2,0,P|391:301|426:295,2,59.5,2|2|0,0:3|0:3|1:0,0:0:0:0:
309,274,116192,6,0,P|294:224|316:162,1,119,2|0,0:3|0:0,0:0:0:0:
367,132,116619,2,0,P|388:77|373:20,1,119,0|2,1:0|0:3,0:0:0:0:
314,16,117045,2,0,P|281:18|238:31,1,59.5,2|0,0:3|1:0,0:0:0:0:
178,115,117472,1,2,0:3:0:0:
59,102,117756,1,0,1:0:0:0:
108,210,118041,2,0,P|110:249|69:323,1,119,2|0,0:3|1:0,0:0:0:0:
30,358,118467,6,0,B|61:353|61:353|96:376|146:364,1,119,2|0,0:3|0:0,0:0:0:0:
199,339,118894,2,0,B|249:327|284:350|284:350|315:345,1,119,0|2,1:0|0:3,0:0:0:0:
370,325,119320,1,2,0:3:0:0:
374,329,119462,1,0,1:0:0:0:
311,227,119747,1,2,0:3:0:0:
393,141,120031,2,0,P|400:110|397:77,1,59.5,0|0,1:0|0:0,0:0:0:0:
368,30,120316,2,0,L|234:43,1,119,2|0,0:3|1:0,0:0:0:0:
205,81,120742,1,0,0:0:0:0:
161,121,120884,6,0,L|27:108,2,119,2|0|2,0:3|1:0|0:3,0:0:0:0:
219,135,121595,2,0,P|220:164|213:193,1,59.5,2|0,0:3|1:0,0:0:0:0:
133,281,122022,5,2,0:3:0:0:
29,221,122306,1,0,1:0:0:0:
70,333,122590,2,0,B|107:346|107:346|148:335|148:335|188:348,1,119,2|2,0:3|0:3,0:0:0:0:
256,252,123159,1,12,0:3:0:0:
328,346,123443,6,0,P|374:353|446:319,1,119,4|2,1:2|0:3,0:0:0:0:
462,269,123870,2,0,P|446:240|437:211,1,59.5,2|0,0:3|1:0,0:0:0:0:
486,106,124297,1,2,0:3:0:0:
384,44,124581,1,0,1:0:0:0:
331,150,124865,2,0,P|285:170|207:152,1,119,2|0,0:3|1:0,0:0:0:0:
175,117,125292,6,0,P|120:95|62:107,1,119,2|0,0:3|0:0,0:0:0:0:
15,144,125718,1,0,1:0:0:0:
109,213,126003,1,2,0:3:0:0:
24,296,126287,1,0,1:0:0:0:
118,365,126571,2,0,P|180:362|227:331,1,119,2|0,0:3|1:0,0:0:0:0:
273,222,127140,2,0,L|263:147,2,59.5,2|2|0,0:3|0:3|1:0,0:0:0:0:
327,247,127567,6,0,B|351:217|351:217|342:133,1,119,2|0,0:3|0:0,0:0:0:0:
314,84,127993,2,0,P|370:102|436:93,1,119,0|2,1:0|0:3,0:0:0:0:
472,54,128420,1,2,0:3:0:0:
476,58,128562,1,0,1:0:0:0:
507,172,128846,2,0,P|501:199|498:233,1,59.5,2|0,0:3|0:0,0:0:0:0:
442,252,129131,2,0,P|436:279|433:313,1,59.5,0|0,1:0|0:0,0:0:0:0:
385,345,129415,2,0,P|335:337|267:364,1,119,2|0,0:3|1:0,0:0:0:0:
218,333,129842,1,0,0:0:0:0:
164,307,129984,6,0,P|114:315|46:288,1,119,2|0,0:3|1:0,0:0:0:0:
9,180,130552,2,0,L|-1:106,2,59.5,2|2|0,0:3|0:3|1:0,0:0:0:0:
126,202,131121,5,2,0:3:0:0:
197,106,131406,1,0,1:0:0:0:
310,143,131690,1,4,0:3:0:0:
309,261,131974,1,4,0:3:0:0:
196,296,132259,1,12,0:3:0:0:
236,184,132543,6,0,P|263:165|354:168,1,119,4|2,1:2|0:3,0:0:0:0:
389,205,132970,2,0,P|400:230|421:259,1,59.5,2|0,0:3|1:0,0:0:0:0:
510,180,133396,2,0,P|482:125|478:62,1,119,2|0,0:3|1:0,0:0:0:0:
492,10,133823,2,0,P|441:37|361:40,1,119,2|2,0:3|0:3,0:0:0:0:
332,78,134249,2,0,P|302:75|267:81,1,59.5,0|2,1:0|0:3,0:0:0:0:
242,120,134534,6,0,P|246:174|280:225,2,101.150001929283,4|8|8,0:0|0:3|0:3,0:0:0:0:
153,70,135387,1,8,0:3:0:0:
100,157,135671,2,0,P|122:201|124:252,1,101.150001929283,0|0,1:0|1:0,0:0:0:0:
188,329,136240,2,0,L|299:340,1,101.150001929283,4|4,0:3|0:3,0:0:0:0:
367,275,136808,5,4,0:0:0:0:
167,147,145908,6,0,L|292:140,1,101.150001929283,4|0,0:0|0:0,0:0:0:0:
344,236,146477,2,0,L|219:243,1,101.150001929283,2|0,0:0|0:0,0:0:0:0:
175,133,147045,6,0,L|300:146,1,101.150001929283,2|0,0:0|0:0,0:0:0:0:
335,249,147614,2,0,L|210:236,1,101.150001929283,2|0,0:0|0:0,0:0:0:0:
188,119,148183,6,0,L|306:154,1,101.150001929283,2|0,0:0|0:0,0:0:0:0:
322,263,148752,2,0,L|204:228,1,101.150001929283,2|4,0:0|0:3,0:0:0:0:
200,109,149320,6,0,L|312:164,1,101.150001929283,4|2,0:3|0:0,0:0:0:0:
310,273,149889,2,0,L|198:217,1,101.150001929283,2|2,0:3|0:3,0:0:0:0:
216,100,150458,6,0,L|316:175,1,101.150001929283,4|0,0:0|0:0,0:0:0:0:
294,282,151027,2,0,L|193:207,1,101.150001929283,2|0,0:0|0:0,0:0:0:0:
232,96,151595,6,0,L|318:185,1,101.150001929283,2|2,0:0|0:3,0:0:0:0:
278,286,152164,2,0,L|192:197,1,101.150001929283,4|4,0:3|0:3,0:0:0:0:
256,192,152733,12,0,155718,0:0:0:0:
349,228,160410,5,0,0:0:0:0:
428,203,160695,2,0,P|432:230|293:170,1,333.199989831543,2|4,0:0|0:3,0:0:0:0:
329,70,162116,6,0,L|207:86,1,119,4|2,1:2|0:3,0:0:0:0:
150,63,162543,1,2,0:3:0:0:
154,67,162685,1,0,1:0:0:0:
72,154,162970,1,2,0:3:0:0:
173,215,163254,1,0,1:0:0:0:
91,302,163538,2,0,P|87:332|87:361,2,59.5,2|2|0,0:3|0:3|1:0,0:0:0:0:
150,302,163965,6,0,P|174:342|249:356,1,119,2|0,0:3|0:0,0:0:0:0:
296,337,164391,2,0,B|352:323|349:368|411:354,1,119,0|2,1:0|0:3,0:0:0:0:
463,327,164818,2,0,P|463:297|466:267,1,59.5,2|0,0:3|1:0,0:0:0:0:
403,167,165244,1,2,0:3:0:0:
298,223,165529,1,0,1:0:0:0:
236,121,165813,2,0,P|236:91|239:61,2,59.5,2|2|0,0:3|0:3|1:0,0:0:0:0:
202,170,166240,6,0,B|181:145|181:145|92:134,1,119,2|0,0:3|0:0,0:0:0:0:
36,126,166666,2,0,P|40:156|114:193,1,119,0|2,1:0|0:3,0:0:0:0:
142,244,167093,2,0,P|120:266|101:298,1,59.5,2|0,0:3|1:0,0:0:0:0:
213,337,167519,1,2,0:3:0:0:
256,225,167804,1,0,1:0:0:0:
299,337,168088,2,0,P|349:352|416:340,1,119,2|0,0:3|1:0,0:0:0:0:
464,309,168515,1,0,0:0:0:0:
486,253,168657,6,0,L|496:129,1,119,2|0,0:3|1:0,0:0:0:0:
382,97,169225,2,0,L|389:173,2,59.5,2|2|0,0:3|0:3|1:0,0:0:0:0:
275,152,169794,6,0,L|305:267,1,119,2|0,0:3|1:0,0:0:0:0:
228,358,170363,2,0,P|202:365|150:356,1,79.3333333333333,2|0,0:3|1:0,0:0:0:0:
116,336,170647,2,0,P|77:326|39:334,1,79.3333333333333,2|0,0:3|1:0,0:0:0:0:
4,354,170932,1,12,0:3:0:0:
34,239,171216,6,0,B|26:203|26:203|43:158|43:158|35:119,1,119,4|2,1:2|0:3,0:0:0:0:
15,63,171643,1,2,0:3:0:0:
19,67,171785,1,0,1:0:0:0:
137,60,172069,2,0,L|149:123,1,59.5,4|0,0:3|0:0,0:0:0:0:
200,148,172353,2,0,L|196:212,1,59.5,4|0,0:3|0:0,0:0:0:0:
238,248,172638,2,0,L|217:308,1,59.5,2|0,0:3|0:0,0:0:0:0:
206,362,172922,1,2,0:3:0:0:
316,348,173206,6,0,P|302:138|124:298,1,556.325010611057,4|0,0:0|0:0,0:0:0:0:
147,334,174913,2,0,B|46:332|46:332|8:255|10:154|69:73|150:26|231:23|310:44|310:44|367:63|436:63|489:39|489:39|447:104|478:165,1,910.350017363549,8|0,0:3|0:0,0:0:0:0:
256,192,177756,12,0,181169,0:0:0:0:
