osu file format v14

[General]
AudioFilename: audio.mp3
AudioLeadIn: 0
PreviewTime: 92857
Countdown: 1
SampleSet: None
StackLeniency: 0.7
Mode: 0
LetterboxInBreaks: 0
WidescreenStoryboard: 0

[Editor]
Bookmarks: 5612,14795,22142,24438,24591,27040,39285,49081,58877,66224,68673,78469,88265,93163,110306,112755,122551,122857,132346
DistanceSpacing: 0.8
BeatDivisor: 3
GridSize: 4
TimelineZoom: 2.899998

[Metadata]
Title:Chronostasis
TitleUnicode:Chronostasis
Artist:dialgadu77 / Sayaka
ArtistUnicode:dialgadu77 / 黒皇帝
Creator:Secretpipe
Version:Time
Source:
Tags:
BeatmapID:1512502
BeatmapSetID:715786

[Difficulty]
HPDrainRate:6
CircleSize:4
OverallDifficulty:8.5
ApproachRate:9.3
SliderMultiplier:1.6
SliderTickRate:1

[Events]
//Background and Video events
0,0,"737831.jpg",0,0
//Break Periods
2,24791,26440
2,68873,77869
//Storyboard Layer 0 (Background)
//Storyboard Layer 1 (Fail)
//Storyboard Layer 2 (Pass)
//Storyboard Layer 3 (Foreground)
//Storyboard Sound Samples

[TimingPoints]
5000,306.122448979592,4,1,1,40,1,0
5000,-133.333333333333,4,2,1,40,0,0
22142,-66.6666666666667,4,1,1,40,0,0
27040,-100,4,1,1,40,0,0
29489,-83.3333333333333,4,1,1,40,0,0
49081,-100,4,1,1,40,0,0
58877,-90.9090909090909,4,1,1,40,0,0
78469,-100,4,1,1,40,0,0
91173,-100,4,2,1,40,0,0
92704,-66.6666666666667,4,1,1,40,0,0
93163,-83.3333333333333,4,1,1,40,0,0
117653,-133.333333333333,4,1,1,40,0,0
121632,-79.9999999999999,4,1,1,40,0,0
121938,-133.333333333333,4,1,1,40,0,0
122244,-100,4,1,1,40,0,0
122857,-66.6666666666667,4,1,1,40,0,0

[HitObjects]
123,254,5000,6,0,L|39:246,3,60.0000022888184,2|0|0|0,0:0|0:0|0:0|0:0,0:0:0:0:
241,304,5612,2,0,L|181:309,3,60.0000022888184
321,341,6224,2,0,L|312:253,1,60.0000022888184
367,215,6530,2,0,L|360:135,1,60.0000022888184
379,67,6836,1,0,0:0:0:0:
300,23,6989,1,0,0:0:0:0:
219,62,7142,1,0,0:0:0:0:
295,109,7295,1,0,0:0:0:0:
144,37,7448,6,0,P|140:76|162:112,3,60.0000022888184,2|0|0|0,0:0|0:0|0:0|0:0,0:0:0:0:
212,152,8061,2,0,P|251:148|287:170,3,60.0000022888184
128,193,8673,2,0,P|89:197|53:175,3,60.0000022888184
224,277,9285,2,0,L|231:208,1,60.0000022888184
158,356,9591,2,0,L|145:278,1,60.0000022888184
315,360,9897,6,0,P|281:360|246:355,2,60.0000022888184,2|0|0,0:0|0:0|0:0,0:0:0:0:
393,323,10357,1,0,0:0:0:0:
447,258,10510,2,0,L|452:193,1,60.0000022888184
405,123,10816,2,0,L|398:52,1,60.0000022888184
331,166,11122,2,0,L|324:89,2,60.0000022888184
286,230,11581,1,0,0:0:0:0:
216,183,11734,2,0,L|154:193,1,60.0000022888184
94,246,12040,2,0,L|15:239,1,60.0000022888184
155,337,12346,6,0,P|172:301|168:261,3,60.0000022888184,2|0|0|0,0:0|0:0|0:0|0:0,0:0:0:0:
286,230,12959,2,0,P|289:259|303:285,3,60.0000022888184
387,353,13571,1,0,0:0:0:0:
452,294,13724,1,0,0:0:0:0:
386,240,13877,2,0,L|372:158,1,60.0000022888184
343,43,14183,2,0,L|331:101,2,60.0000022888184
418,95,14642,1,0,0:0:0:0:
237,188,14795,6,0,P|184:191|122:194,1,90.0000034332277,6|0,0:0|0:0,0:0:0:0:
102,181,15102,1,0,0:0:0:0:
146,57,15255,2,0,L|155:137,1,60.0000022888184
243,247,15561,2,0,L|236:187,1,60.0000022888184
157,251,15867,1,0,0:0:0:0:
372,288,16020,6,0,P|337:283|310:293,1,60.0000022888184
348,367,16326,1,0,0:0:0:0:
437,240,16479,2,0,L|430:170,1,60.0000022888184
371,109,16785,2,0,L|365:37,2,60.0000022888184
244,95,17244,6,0,L|256:20,2,60.0000022888184,2|0|0,0:0|0:0|0:2,0:0:0:0:
189,209,17704,2,0,P|153:208|130:191,1,60.0000022888184
76,125,18010,2,0,L|89:55,2,60.0000022888184
39,288,18469,2,0,P|66:276|144:295,1,90.0000034332277
162,306,18775,1,0,0:0:0:0:
269,200,18928,2,0,P|262:235|261:269,1,60.0000022888184
325,75,19234,2,0,P|331:112|333:156,2,60.0000022888184
156,51,19693,6,0,P|150:117|158:188,1,120.000004577637,2|0,0:0|0:0,0:0:0:0:
168,296,20153,2,0,P|138:305|100:308,1,60.0000022888184
249,250,20459,2,0,P|284:248|324:259,1,60.0000022888184
381,303,20765,1,0,0:0:0:0:
444,240,20918,2,0,L|453:158,2,60.0000022888184
384,72,21377,2,0,L|391:147,1,60.0000022888184
282,37,21683,2,0,L|272:109,1,60.0000022888184
214,179,21989,1,0,0:0:0:0:
259,338,22142,5,8,0:0:0:0:
42,161,22295,2,0,P|92:130|150:136,1,120.000004577637,12|8,0:0|0:0,0:0:0:0:
280,211,22602,1,8,0:0:0:0:
407,31,22755,2,0,B|390:71|390:71|409:162,1,120.000004577637,12|8,0:0|0:0,0:0:0:0:
430,340,23061,1,8,0:0:0:0:
506,218,23214,1,8,0:0:0:0:
297,64,23367,5,8,0:0:0:0:
316,108,23443,1,8,0:0:0:0:
306,156,23520,1,8,0:0:0:0:
278,196,23596,1,8,0:0:0:0:
258,240,23673,1,12,0:0:0:0:
265,287,23750,1,8,0:0:0:0:
303,315,23826,1,8,0:0:0:0:
348,298,23903,1,8,0:0:0:0:
395,291,23979,5,12,0:0:0:0:
441,305,24056,1,8,0:0:0:0:
475,337,24132,2,0,L|470:299,2,30.0000011444092,8|8|8,0:0|0:0|0:0,0:0:0:0:
460,232,24285,2,0,L|467:151,1,60.0000022888184,12|8,0:0|0:0,0:0:0:0:
437,105,24438,2,0,L|432:75,2,30.0000011444092,8|8|8,0:0|0:0|0:0,0:0:0:0:
373,35,24591,5,12,0:0:0:0:
208,167,27040,5,8,0:0:0:0:
361,295,27193,2,0,B|326:302|326:302|269:289,1,80,12|0,0:0|0:0,0:0:0:0:
142,238,27500,1,8,0:0:0:0:
385,196,27653,2,0,B|350:203|350:203|293:190,1,80,12|0,0:0|0:0,0:0:0:0:
141,125,27959,1,8,0:0:0:0:
55,320,28112,2,0,L|47:241,1,80,12|0,0:0|0:0,0:0:0:0:
135,366,28418,1,8,0:0:0:0:
260,270,28571,1,8,0:0:0:0:
141,125,28724,6,0,L|146:156,4,20,8|0|8|0|8,0:0|0:0|0:0|0:0|0:0,0:0:0:0:
91,205,29030,1,8,0:0:0:0:
193,47,29183,1,8,0:0:0:0:
65,82,29336,1,8,0:0:0:0:
248,160,29489,6,0,P|322:157|405:150,1,143.999995605469,4|0,0:0|0:0,0:0:0:0:
420,128,29795,1,2,0:0:0:0:
239,59,29948,2,0,L|174:41,2,47.9999985351563
137,119,30255,1,8,0:0:0:0:
173,303,30408,2,0,P|189:226|177:197,1,95.9999970703126,2|0,0:0|0:0,0:0:0:0:
228,356,30714,1,8,0:0:0:0:
262,340,30790,1,0,0:0:0:0:
300,337,30867,1,0,0:0:0:0:
336,348,30943,1,0,0:0:0:0:
370,365,31020,5,2,0:0:0:0:
423,183,31173,2,0,L|430:249,2,47.9999985351563
359,274,31479,1,8,0:0:0:0:
455,110,31632,2,0,P|393:109|355:144,1,95.9999970703126,2|0,0:0|0:0,0:0:0:0:
341,156,31862,1,0,0:0:0:0:
322,189,31938,5,8,0:0:0:0:
502,183,32091,1,0,0:0:0:0:
298,85,32244,2,0,P|248:101|194:91,1,95.9999970703126,2|0,0:0|0:0,0:0:0:0:
39,25,32551,2,0,L|52:125,1,95.9999970703126,0|8,0:0|0:0,0:0:0:0:
80,333,32857,1,2,0:0:0:0:
162,247,33010,1,0,0:0:0:0:
162,247,33086,1,0,0:0:0:0:
162,247,33163,6,0,P|206:229|269:242,1,95.9999970703126,8|0,0:0|0:0,0:0:0:0:
427,307,33469,1,2,0:0:0:0:
310,349,33622,2,0,P|301:321|302:287,2,47.9999985351563
363,202,33928,1,8,0:0:0:0:
265,31,34081,1,2,0:0:0:0:
191,114,34234,1,0,0:0:0:0:
191,114,34311,1,0,0:0:0:0:
191,114,34387,6,0,L|112:122,2,47.9999985351563,8|0|0,0:0|0:0|0:0,0:0:0:0:
363,202,34693,2,0,P|388:148|371:94,1,95.9999970703126,2|0,0:0|0:0,0:0:0:0:
286,232,35000,1,0,0:0:0:0:
371,326,35153,1,8,0:0:0:0:
289,146,35306,2,0,L|174:158,1,95.9999970703126,2|0,0:0|0:0,0:0:0:0:
78,175,35612,6,0,P|67:152|66:128,2,47.9999985351563,8|0|0,0:0|0:0|0:0,0:0:0:0:
152,298,35918,2,0,P|192:282|251:288,1,95.9999970703126,2|0,0:0|0:0,0:0:0:0:
342,336,36224,1,0,0:0:0:0:
272,202,36377,1,8,0:0:0:0:
476,248,36530,2,0,P|425:257|367:240,1,95.9999970703126,2|0,0:0|0:0,0:0:0:0:
272,202,36836,5,8,0:0:0:0:
253,173,36913,1,0,0:0:0:0:
250,139,36989,1,0,0:0:0:0:
259,106,37066,1,0,0:0:0:0:
283,83,37142,2,0,P|324:71|395:82,2,95.9999970703126,2|0|0,0:0|0:0|0:0,0:0:0:0:
151,128,37602,1,8,0:0:0:0:
193,325,37755,2,0,P|216:256|201:213,1,95.9999970703126,2|0,0:0|0:0,0:0:0:0:
117,260,38061,5,8,0:0:0:0:
300,343,38214,1,8,0:0:0:0:
239,83,38367,1,2,0:0:0:0:
365,169,38520,1,8,0:0:0:0:
365,169,38596,2,0,L|315:171,1,47.9999985351563,2|0,0:0|0:0,0:0:0:0:
241,201,38750,1,2,0:0:0:0:
241,201,38826,2,0,L|178:194,1,47.9999985351563,8|0,0:0|0:0,0:0:0:0:
122,162,38979,5,2,0:0:0:0:
95,127,39056,1,0,0:0:0:0:
95,84,39132,1,0,0:0:0:0:
118,47,39209,1,0,0:0:0:0:
159,35,39285,6,0,L|226:45,3,47.9999985351563,8|0|0|0,0:0|0:0|0:0|0:0,0:0:0:0:
275,76,39591,2,0,L|323:69,3,47.9999985351563,2|0|0|0,0:0|0:0|0:0|0:0,0:0:0:0:
401,110,39897,1,0,0:0:0:0:
434,20,40051,1,8,0:0:0:0:
333,172,40204,2,0,L|345:279,1,95.9999970703126,2|0,0:0|0:0,0:0:0:0:
195,360,40510,6,0,L|202:309,3,47.9999985351563,8|0|0|0,0:0|0:0|0:0|0:0,0:0:0:0:
147,256,40816,2,0,L|140:205,3,47.9999985351563,2|0|0|0,0:0|0:0|0:0|0:0,0:0:0:0:
216,210,41122,1,0,0:0:0:0:
247,188,41198,1,0,0:0:0:0:
261,152,41275,1,0,0:0:0:0:
257,113,41352,1,0,0:0:0:0:
245,72,41428,2,0,L|238:21,3,47.9999985351563,2|0|0|0,0:0|0:0|0:0|0:0,0:0:0:0:
330,93,41734,5,8,0:0:0:0:
323,130,41810,1,0,0:0:0:0:
327,168,41887,1,0,0:0:0:0:
341,203,41963,1,0,0:0:0:0:
368,230,42040,2,0,L|431:233,3,47.9999985351563,2|0|0|0,0:0|0:0|0:0|0:0,0:0:0:0:
464,293,42346,2,0,L|527:290,3,47.9999985351563,0|0|8|0,0:0|0:0|0:0|0:0,0:0:0:0:
390,318,42652,2,0,L|331:306,3,47.9999985351563,2|0|0|0,0:0|0:0|0:0|0:0,0:0:0:0:
264,335,42959,6,0,P|256:315|258:285,3,47.9999985351563,8|0|0|0,0:0|0:0|0:0|0:0,0:0:0:0:
287,213,43265,2,0,P|295:193|293:163,3,47.9999985351563,2|0|0|0,0:0|0:0|0:0|0:0,0:0:0:0:
225,103,43571,2,0,L|161:100,3,47.9999985351563,0|0|8|0,0:0|0:0|0:0|0:0,0:0:0:0:
104,143,43877,2,0,P|91:98|107:54,1,95.9999970703126,2|0,0:0|0:0,0:0:0:0:
158,213,44183,5,12,0:0:0:0:
87,336,44336,1,8,0:0:0:0:
312,282,44489,2,0,B|269:269|269:269|192:285,1,95.9999970703126,2|8,0:0|0:0,0:0:0:0:
352,358,44795,1,8,0:0:0:0:
417,222,44948,1,8,0:0:0:0:
198,163,45102,2,0,B|239:180|239:180|316:162,1,95.9999970703126,2|0,0:0|0:0,0:0:0:0:
189,82,45408,5,12,0:0:0:0:
154,98,45484,1,0,0:0:0:0:
131,129,45561,1,0,0:0:0:0:
122,166,45637,1,0,0:0:0:0:
125,204,45714,1,2,0:0:0:0:
143,237,45790,1,0,0:0:0:0:
160,271,45867,1,0,0:0:0:0:
166,308,45943,1,0,0:0:0:0:
146,341,46020,6,0,L|78:349,3,47.9999985351563,8|0|0|0,0:0|0:0|0:0|0:0,0:0:0:0:
228,356,46326,2,0,L|295:365,3,47.9999985351563,2|0|0|0,0:0|0:0|0:0|0:0,0:0:0:0:
344,312,46632,1,12,0:0:0:0:
292,139,46785,2,0,L|296:168,4,23.9999992675781,8|0|0|0|2,0:0|0:0|0:0|0:0|0:0,0:0:0:0:
173,55,47091,2,0,L|177:84,4,23.9999992675781,0|0|0|0|12,0:0|0:0|0:0|0:0|0:0,0:0:0:0:
94,182,47397,2,0,L|98:211,4,23.9999992675781,0|0|0|0|2,0:0|0:0|0:0|0:0|0:0,0:0:0:0:
185,262,47704,2,0,L|193:302,2,23.9999992675781
246,348,47857,5,12,0:0:0:0:
281,334,47933,1,0,0:0:0:0:
319,331,48010,1,0,0:0:0:0:
352,350,48086,1,0,0:0:0:0:
389,359,48163,1,6,0:0:0:0:
425,348,48239,1,0,0:0:0:0:
453,321,48316,1,0,0:0:0:0:
456,283,48392,1,0,0:0:0:0:
432,252,48469,6,8,L|421:188,3,47.9999985351563
380,136,48775,2,8,L|387:67,3,47.9999985351563,10|8|8|8,0:0|0:0|0:0|0:0,0:0:0:0:
469,36,49081,6,0,L|458:147,1,80,2|0,0:2|0:0,0:0:0:0:
293,148,49387,2,0,L|285:68,1,80,8|0,0:0|0:0,0:0:0:0:
476,34,49693,2,0,L|465:145,1,80,8|0,0:0|0:0,0:0:0:0:
283,151,49999,2,0,L|275:71,1,80,8|0,0:0|0:0,0:0:0:0:
324,230,50306,6,0,P|278:240|231:221,1,80,2|0,0:2|0:0,0:0:0:0:
380,175,50612,2,0,P|426:165|466:186,1,80,8|0,0:0|0:0,0:0:0:0:
320,308,50918,2,0,P|274:314|226:301,1,80,8|0,0:0|0:0,0:0:0:0:
59,209,51224,1,8,0:0:0:0:
170,275,51377,1,8,0:0:0:0:
75,363,51530,6,0,P|69:326|95:277,2,80,2|0|8,0:2|0:0|0:0,0:0:0:0:
170,275,51989,1,0,0:0:0:0:
148,168,52142,2,0,P|149:130|129:90,2,80,8|0|8,0:0|0:0|0:0,0:0:0:0:
60,48,52602,1,0,0:0:0:0:
221,217,52755,6,0,L|315:220,1,80,2|0,0:2|0:0,0:0:0:0:
442,265,53061,2,0,L|349:272,1,80,8|0,0:0|0:0,0:0:0:0:
208,297,53367,2,0,L|302:300,1,80,8|8,0:0|0:0,0:0:0:0:
144,353,53673,1,8,0:0:0:0:
128,324,53750,1,8,0:0:0:0:
125,292,53826,1,8,0:0:0:0:
135,261,53903,1,8,0:0:0:0:
155,236,53979,6,0,L|144:142,1,80,2|0,0:2|0:0,0:0:0:0:
237,222,54285,1,8,0:0:0:0:
352,146,54438,2,0,L|241:138,2,80,0|8|0,0:0|0:0|0:0,0:0:0:0:
452,116,54897,2,0,P|433:153|438:209,1,80,8|0,0:0|0:0,0:0:0:0:
461,275,55204,6,0,P|401:258|284:274,1,160,2|8,0:2|0:0,0:0:0:0:
230,303,55663,1,0,0:0:0:0:
130,231,55816,1,8,0:0:0:0:
209,187,55969,1,0,0:0:0:0:
123,315,56122,5,8,0:0:0:0:
80,159,56275,1,8,0:0:0:0:
166,47,56428,6,2,L|155:144,1,80,2|0,0:2|0:2,0:2:0:0:
209,187,56734,2,0,L|218:266,1,80,8|0,0:0|0:0,0:0:0:0:
296,218,57040,2,0,L|283:127,1,80,8|0,0:0|0:0,0:0:0:0:
130,248,57346,2,0,L|141:352,1,80,8|0,0:0|0:0,0:0:0:0:
326,348,57653,6,0,P|282:331|236:339,1,80,8|0,0:0|0:0,0:0:0:0:
394,290,57959,2,0,P|406:241|387:202,1,80,8|0,0:0|0:0,0:0:0:0:
294,67,58265,1,8,0:0:0:0:
414,43,58418,1,8,0:0:0:0:
279,167,58571,1,8,0:0:0:0:
249,179,58647,1,8,0:0:0:0:
217,182,58724,1,8,0:0:0:0:
185,173,58801,1,8,0:0:0:0:
154,164,58877,6,0,P|102:148|46:173,1,88.000002685547,12|0,0:0|0:0,0:0:0:0:
233,286,59183,2,0,L|329:275,2,88.000002685547,2|0|8,0:0|0:0|0:0,0:0:0:0:
352,352,59642,1,0,0:0:0:0:
380,150,59795,2,0,L|393:250,1,88.000002685547,2|0,0:0|0:0,0:0:0:0:
433,92,60102,6,0,P|377:75|301:137,1,132.00000402832,8|0,0:0|0:0,0:0:0:0:
288,147,60408,2,0,P|238:153|194:136,1,88.000002685547,2|0,0:0|0:0,0:0:0:0:
58,81,60714,2,0,P|108:75|152:92,1,88.000002685547,8|0,0:0|0:0,0:0:0:0:
288,147,61020,1,2,0:0:0:0:
197,319,61173,1,8,0:0:0:0:
148,174,61326,6,0,L|142:83,2,88.000002685547,8|0|2,0:0|0:0|0:0,0:0:0:0:
56,112,61785,1,0,0:0:0:0:
111,254,61938,2,0,L|105:341,2,88.000002685547,8|0|2,0:0|0:0|0:0,0:0:0:0:
20,326,62397,1,0,0:0:0:0:
204,236,62551,6,0,P|246:222|306:243,1,88.000002685547,8|0,0:0|0:0,0:0:0:0:
438,273,62857,2,0,P|396:287|336:266,1,88.000002685547,2|0,0:0|0:0,0:0:0:0:
488,206,63163,1,8,0:0:0:0:
360,359,63316,1,8,0:0:0:0:
271,181,63469,1,10,0:0:0:0:
258,148,63545,1,8,0:0:0:0:
261,112,63622,1,8,0:0:0:0:
278,81,63698,1,8,0:0:0:0:
306,59,63775,6,0,L|402:52,1,88.000002685547,12|0,0:0|0:0,0:0:0:0:
425,68,64005,1,8,0:0:0:0:
442,98,64081,2,0,L|452:167,1,44.0000013427735,2|0,0:0|0:0,0:0:0:0:
446,176,64234,1,8,0:0:0:0:
366,342,64464,1,8,0:0:0:0:
316,233,64617,1,0,0:0:0:0:
306,199,64693,2,0,L|316:102,1,88.000002685547,2|0,0:0|0:0,0:0:0:0:
185,40,65000,6,0,L|191:152,1,88.000002685547,12|0,0:0|0:0,0:0:0:0:
185,162,65229,1,8,0:0:0:0:
189,197,65306,2,0,L|198:278,1,44.0000013427735,2|0,0:0|0:0,0:0:0:0:
192,276,65459,1,8,0:0:0:0:
398,146,65688,1,8,0:0:0:0:
317,81,65841,1,0,0:0:0:0:
340,54,65917,2,0,P|380:36|446:53,1,88.000002685547,2|0,0:0|0:0,0:0:0:0:
455,280,66224,6,0,P|407:284|371:267,1,88.000002685547,12|0,0:0|0:0,0:0:0:0:
345,244,66454,1,8,0:0:0:0:
313,228,66530,2,0,L|255:237,1,44.0000013427735,2|0,0:0|0:0,0:0:0:0:
235,245,66683,1,8,0:0:0:0:
78,329,66836,2,0,L|90:213,1,88.000002685547,12|0,0:0|0:0,0:0:0:0:
84,206,67066,1,8,0:0:0:0:
96,173,67142,2,0,L|84:113,1,44.0000013427735,2|0,0:0|0:0,0:0:0:0:
93,94,67295,1,8,0:0:0:0:
276,70,67448,5,12,0:0:0:0:
295,99,67525,1,0,0:0:0:0:
303,133,67602,1,0,0:0:0:0:
293,166,67678,1,0,0:0:0:0:
273,195,67755,1,14,0:0:0:0:
257,226,67831,1,0,0:0:0:0:
254,261,67908,1,0,0:0:0:0:
263,294,67984,1,0,0:0:0:0:
285,321,68061,6,0,L|355:332,1,44.0000013427735,12|0,0:0|0:0,0:0:0:0:
402,303,68214,2,0,L|449:295,1,44.0000013427735
498,244,68367,2,0,L|511:194,1,44.0000013427735,14|0,0:0|0:0,0:0:0:0:
483,132,68520,2,0,L|472:72,1,44.0000013427735
423,37,68673,5,4,0:0:0:0:
44,263,78469,6,0,B|77:276|77:276|147:260,1,80,8|0,0:0|0:0,0:0:0:0:
277,227,78775,2,0,B|244:219|244:219|199:228,1,80,8|0,0:0|0:0,0:0:0:0:
394,323,79081,2,0,B|363:263|363:263|316:303,1,120,2|0,0:0|0:0,0:0:0:0:
303,322,79387,1,8,0:0:0:0:
475,224,79540,5,2,0:0:0:0:
434,68,79693,1,8,0:0:0:0:
311,212,79846,1,2,0:0:0:0:
396,161,80000,1,8,0:0:0:0:
314,101,80153,1,8,0:0:0:0:
238,278,80306,2,0,L|227:164,1,80,2|0,0:0|0:0,0:0:0:0:
218,168,80535,1,0,0:0:0:0:
207,137,80612,1,2,0:0:0:0:
313,210,80765,1,8,0:0:0:0:
183,328,80918,6,0,P|223:349|279:332,1,80,8|0,0:0|0:0,0:0:0:0:
348,313,81224,1,8,0:0:0:0:
416,81,81377,6,0,B|404:117|404:117|414:162,1,80,6|0,0:0|0:0,0:0:0:0:
260,118,81683,2,0,B|267:155|267:155|298:189,1,80,6|0,0:0|0:0,0:0:0:0:
441,300,81989,1,6,0:0:0:0:
249,341,82142,1,8,0:0:0:0:
241,341,82448,1,8,0:0:0:0:
296,222,82602,1,8,0:0:0:0:
146,64,82755,2,0,L|163:162,1,80,2|0,0:0|0:0,0:0:0:0:
109,207,82984,1,0,0:0:0:0:
109,207,83061,2,0,L|102:300,1,80,2|8,0:0|0:0,0:0:0:0:
230,121,83367,5,8,0:0:0:0:
230,121,83520,1,8,0:0:0:0:
75,164,83673,1,8,0:0:0:0:
75,164,83826,1,8,0:0:0:0:
258,236,83979,1,8,0:0:0:0:
258,236,84132,1,8,0:0:0:0:
159,57,84285,1,8,0:0:0:0:
159,57,84438,1,8,0:0:0:0:
157,233,84591,5,8,0:0:0:0:
230,121,84744,1,8,0:0:0:0:
75,164,84897,1,8,0:0:0:0:
167,329,85051,1,8,0:0:0:0:
236,218,85204,1,8,0:0:0:0:
77,291,85357,1,8,0:0:0:0:
259,312,85510,1,8,0:0:0:0:
165,121,85663,1,8,0:0:0:0:
236,218,85816,5,8,0:0:0:0:
266,227,85892,1,8,0:0:0:0:
298,224,85969,1,8,0:0:0:0:
326,210,86045,1,8,0:0:0:0:
355,197,86122,1,8,0:0:0:0:
385,189,86198,1,8,0:0:0:0:
416,194,86275,1,8,0:0:0:0:
439,216,86352,1,8,0:0:0:0:
448,246,86428,6,0,L|462:308,3,40,8|0|8|0,0:0|0:0|0:0|0:0,0:0:0:0:
375,355,86734,2,0,L|383:315,3,40,8|0|8|0,0:0|0:0|0:0|0:0,0:0:0:0:
315,288,87040,1,8,0:0:0:0:
315,288,87117,1,0,0:0:0:0:
315,288,87193,2,8,L|311:242,2,40
252,201,87423,5,8,0:0:0:0:
252,201,87500,2,8,L|248:155,2,40
193,109,87729,1,8,0:0:0:0:
193,109,87806,2,8,L|186:66,2,40
125,34,88035,1,8,0:0:0:0:
93,27,88112,1,8,0:0:0:0:
61,29,88188,5,8,0:0:0:0:
256,192,88265,12,0,91173,0:0:0:0:
351,54,91326,5,0,0:0:0:0:
362,70,91403,1,0,0:0:0:0:
369,88,91479,1,0,0:0:0:0:
372,107,91556,1,0,0:0:0:0:
371,126,91632,1,0,0:0:0:0:
364,145,91709,1,0,0:0:0:0:
355,162,91785,1,0,0:0:0:0:
344,179,91862,1,0,0:0:0:0:
334,196,91938,5,0,0:0:0:0:
327,214,92015,1,0,0:0:0:0:
322,233,92091,1,0,0:0:0:0:
321,253,92168,1,0,0:0:0:0:
323,272,92244,1,0,0:0:0:0:
331,290,92321,1,0,0:0:0:0:
343,305,92397,1,0,0:0:0:0:
359,316,92474,1,0,0:0:0:0:
378,320,92551,5,2,0:0:0:0:
458,174,92704,1,8,0:0:0:0:
126,145,92857,2,0,P|212:129|166:101,1,180.000006866455,2|0,0:0|0:0,0:0:0:0:
123,70,93163,6,0,L|26:75,1,95.9999970703126,8|0,0:0|0:0,0:0:0:0:
186,260,93469,2,0,P|261:220|275:102,1,191.999994140625,2|0,0:0|0:0,0:0:0:0:
126,145,93928,1,8,0:0:0:0:
178,336,94081,2,0,B|214:328|214:328|282:340,1,95.9999970703126,2|0,0:0|0:0,0:0:0:0:
416,353,94387,6,0,L|401:235,1,95.9999970703126,8|0,0:0|0:0,0:0:0:0:
425,31,94693,2,0,P|460:65|403:190,1,191.999994140625,2|0,0:0|0:0,0:0:0:0:
260,247,95153,1,8,0:0:0:0:
310,44,95306,2,0,L|323:155,1,95.9999970703126,2|0,0:0|0:0,0:0:0:0:
307,348,95612,5,8,0:0:0:0:
176,210,95765,1,0,0:0:0:0:
204,184,95841,1,0,0:0:0:0:
240,170,95918,1,2,0:0:0:0:
278,172,95994,1,0,0:0:0:0:
312,189,96071,1,0,0:0:0:0:
341,212,96147,1,0,0:0:0:0:
373,232,96224,6,0,L|362:170,3,47.9999985351563,0|0|8|0,0:0|0:0|0:0|0:0,0:0:0:0:
412,120,96530,2,0,L|420:72,3,47.9999985351563,2|0|0|0,0:0|0:0|0:0|0:0,0:0:0:0:
459,193,96836,2,0,L|473:290,1,95.9999970703126,8|0,0:0|0:0,0:0:0:0:
247,305,97142,2,0,B|244:253|288:223|288:223|227:247|176:214,1,191.999994140625,2|0,0:0|0:0,0:0:0:0:
83,174,97602,1,8,0:0:0:0:
351,183,97755,2,0,P|362:228|342:271,1,95.9999970703126,2|0,0:0|0:0,0:0:0:0:
294,105,98061,6,0,L|411:111,1,95.9999970703126,8|0,0:0|0:0,0:0:0:0:
237,320,98367,2,0,P|194:279|263:171,1,191.999994140625,2|0,0:0|0:0,0:0:0:0:
358,291,98826,1,8,0:0:0:0:
136,163,98979,2,0,L|126:42,1,95.9999970703126,2|0,0:0|0:0,0:0:0:0:
72,323,99285,6,0,L|84:219,1,95.9999970703126,8|0,0:0|0:0,0:0:0:0:
347,207,99591,2,0,B|299:215|278:252|278:252|212:268|159:220,1,191.999994140625,2|0,0:0|0:0,0:0:0:0:
64,158,100051,1,8,0:0:0:0:
242,47,100204,2,0,P|258:101|234:147,1,95.9999970703126,2|0,0:0|0:0,0:0:0:0:
84,82,100510,6,0,L|183:91,1,95.9999970703126,8|0,0:0|0:0,0:0:0:0:
431,56,100816,2,0,B|392:105|423:152|423:152|386:189|405:237,1,191.999994140625,2|0,0:0|0:0,0:0:0:0:
435,362,101275,1,8,0:0:0:0:
195,306,101428,2,0,B|229:326|229:326|323:314,1,95.9999970703126,2|0,0:0|0:0,0:0:0:0:
76,258,101734,1,8,0:0:0:0:
116,352,101887,1,8,0:0:0:0:
156,172,102040,6,0,L|151:55,1,95.9999970703126,2|8,0:0|0:0,0:0:0:0:
144,38,102270,1,2,0:0:0:0:
318,44,102423,2,0,L|329:109,1,47.9999985351563,2|8,0:0|0:0,0:0:0:0:
374,202,102653,1,8,0:0:0:0:
395,234,102730,1,8,0:0:0:0:
398,271,102806,1,8,0:0:0:0:
383,306,102883,1,8,0:0:0:0:
351,328,102959,6,0,P|301:303|246:311,1,95.9999970703126,12|0,0:0|0:0,0:0:0:0:
49,353,103265,2,0,B|74:280|74:280|55:228|55:228|75:166,1,191.999994140625,2|0,0:0|0:0,0:0:0:0:
136,38,103724,1,8,0:0:0:0:
322,145,103877,2,0,P|258:155|217:124,1,95.9999970703126,2|0,0:0|0:0,0:0:0:0:
413,20,104183,6,0,L|397:132,1,95.9999970703126,8|0,0:0|0:0,0:0:0:0:
312,289,104489,2,0,P|210:263|147:320,1,191.999994140625,2|0,0:0|0:0,0:0:0:0:
358,363,104948,1,8,0:0:0:0:
416,217,105102,2,0,L|406:158,3,47.9999985351563,2|0|0|0,0:0|0:0|0:0|0:0,0:0:0:0:
487,201,105408,6,0,L|465:86,1,95.9999970703126,8|0,0:0|0:0,0:0:0:0:
185,76,105714,2,0,P|247:143|339:133,1,191.999994140625,2|0,0:0|0:0,0:0:0:0:
286,44,106173,1,8,0:0:0:0:
104,168,106326,2,0,L|114:288,1,95.9999970703126,2|0,0:0|0:0,0:0:0:0:
216,346,106632,6,0,L|279:335,2,63.9999980468751,8|0|0,0:0|0:0|0:0,0:0:0:0:
424,345,106938,2,0,B|392:293|417:241|417:241|387:208|395:152,1,191.999994140625,2|0,0:0|0:0,0:0:0:0:
414,27,107397,1,8,0:0:0:0:
495,184,107551,1,2,0:0:0:0:
255,142,107704,1,2,0:0:0:0:
255,142,107780,1,2,0:0:0:0:
255,142,107857,6,0,B|208:119|208:119|146:129,1,95.9999970703126,12|0,0:0|0:0,0:0:0:0:
70,325,108163,2,0,B|122:333|122:333|163:317,1,95.9999970703126,2|0,0:0|0:0,0:0:0:0:
348,248,108469,2,0,L|242:234,1,95.9999970703126,8|0,0:0|0:0,0:0:0:0:
446,366,108775,2,0,P|467:318|450:272,1,95.9999970703126,2|0,0:0|0:0,0:0:0:0:
361,29,109081,6,0,L|382:188,1,143.999995605469,12|0,0:0|0:0,0:0:0:0:
397,206,109387,2,0,P|451:211|496:190,1,95.9999970703126,2|0,0:0|0:0,0:0:0:0:
252,106,109693,1,8,0:0:0:0:
77,230,109923,1,8,0:0:0:0:
99,261,110000,2,0,L|113:347,1,47.9999985351563,2|0,0:0|0:0,0:0:0:0:
101,346,110153,1,8,0:0:0:0:
281,309,110306,5,12,0:0:0:0:
310,271,110382,1,0,0:0:0:0:
314,222,110459,1,0,0:0:0:0:
293,178,110535,1,0,0:0:0:0:
256,146,110612,1,2,0:0:0:0:
242,100,110688,1,0,0:0:0:0:
258,54,110765,1,0,0:0:0:0:
301,33,110841,1,0,0:0:0:0:
345,51,110918,6,0,L|424:61,3,47.9999985351563,12|0|0|0,0:0|0:0|0:0|0:0,0:0:0:0:
438,123,111224,2,0,L|517:133,3,47.9999985351563,2|0|0|0,0:0|0:0|0:0|0:0,0:0:0:0:
374,169,111530,1,12,0:0:0:0:
430,291,111683,2,0,L|433:317,4,23.9999992675781,0|0|0|0|6,0:0|0:0|0:0|0:0|0:0,0:0:0:0:
293,252,111989,2,0,L|290:278,4,23.9999992675781,0|0|0|0|12,0:0|0:0|0:0|0:0|0:0,0:0:0:0:
110,311,112295,1,0,0:0:0:0:
89,272,112372,1,0,0:0:0:0:
89,229,112448,2,0,L|86:205,4,23.9999992675781,6|0|0|0|0,0:0|0:0|0:0|0:0|0:0,0:0:0:0:
256,192,112755,12,0,117346,0:0:0:0:
37,305,117653,6,0,L|143:294,1,90.0000034332277,2|0,0:3|0:0,0:0:0:0:
170,268,117959,2,0,L|173:190,2,60.0000022888184,2|0|0,0:0|0:0|0:0,0:0:0:0:
231,342,118418,1,0,0:0:0:0:
351,273,118571,2,0,L|275:280,1,60.0000022888184,2|0,0:0|0:0,0:0:0:0:
411,325,118877,2,0,P|429:285|425:245,1,60.0000022888184,2|0,0:3|0:0,0:0:0:0:
361,139,119183,2,0,P|365:168|379:194,1,60.0000022888184,2|0,0:0|0:0,0:0:0:0:
422,101,119489,2,0,P|396:74|356:69,1,60.0000022888184
230,94,119795,2,0,P|266:93|294:83,1,60.0000022888184,2|0,0:0|0:0,0:0:0:0:
157,46,120102,6,0,L|154:85,2,40.000001525879,2|0|0,0:3|0:0|0:0,0:0:0:0:
105,145,120408,2,0,L|120:225,1,60.0000022888184,2|0,0:0|0:0,0:0:0:0:
180,292,120714,2,0,L|188:250,2,40.000001525879,2|0|2,0:3|0:0|0:3,0:0:0:0:
239,192,121020,2,0,P|269:187|322:191,1,60.0000022888184,2|0,0:0|0:0,0:0:0:0:
438,223,121326,2,0,P|398:224|372:220,1,60.0000022888184,2|0,0:3|0:0,0:0:0:0:
484,155,121632,6,0,P|519:205|455:299,1,150,2|0,0:0|0:0,0:0:0:0:
420,331,121938,2,0,L|364:326,2,40.000001525879,2|0|0,0:3|0:0|0:0,0:0:0:0:
304,268,122244,6,0,P|292:252|290:190,2,53.3333333333333,2|0|0,0:0|0:0|0:0,0:0:0:0:
349,186,122551,6,0,P|306:145|251:157,1,106.666666666667,8|0,0:0|0:0,0:0:0:0:
390,262,122857,6,0,P|443:292|513:265,1,120.000004577637,6|0,0:0|0:0,0:0:0:0:
240,318,123163,2,0,P|187:348|117:321,1,120.000004577637,8|0,0:0|0:0,0:0:0:0:
197,111,123469,2,0,P|245:154|238:228,1,120.000004577637,2|0,0:0|0:0,0:0:0:0:
77,130,123775,2,0,P|78:66|130:25,1,120.000004577637,8|0,0:0|0:0,0:0:0:0:
411,92,124081,6,0,L|284:81,1,120.000004577637,2|0,0:0|0:0,0:0:0:0:
119,224,124387,2,0,L|246:213,1,120.000004577637,8|0,0:0|0:0,0:0:0:0:
447,346,124693,1,2,0:0:0:0:
376,177,124846,1,8,0:0:0:0:
155,302,125000,6,0,P|234:309|268:283,1,120.000004577637,8|0,0:0|0:0,0:0:0:0:
220,129,125306,2,0,P|141:122|107:148,1,120.000004577637,2|0,0:0|0:0,0:0:0:0:
270,196,125612,2,0,P|304:141|238:47,1,180.000006866455,8|0,0:0|0:0,0:0:0:0:
201,37,125918,2,0,L|342:27,1,120.000004577637,2|0,0:0|0:0,0:0:0:0:
440,301,126224,6,0,P|385:207|413:121,1,180.000006866455,8|0,0:0|0:0,0:0:0:0:
444,113,126530,2,0,L|289:113,1,120.000004577637,2|0,0:0|0:0,0:0:0:0:
99,35,126836,2,0,P|82:94|106:162,1,120.000004577637,8|0,0:0|0:0,0:0:0:0:
123,189,127066,1,8,0:0:0:0:
158,220,127142,2,0,L|226:226,1,60.0000022888184,2|0,0:0|0:0,0:0:0:0:
264,214,127295,1,2,0:0:0:0:
281,169,127372,1,2,0:0:0:0:
263,124,127448,5,12,0:0:0:0:
167,140,127602,1,8,0:0:0:0:
320,229,127755,1,2,0:0:0:0:
243,46,127908,1,8,0:0:0:0:
184,223,128061,1,8,0:0:0:0:
340,141,128214,1,8,0:0:0:0:
156,57,128367,1,2,0:0:0:0:
251,180,128520,1,8,0:0:0:0:
322,52,128673,5,12,0:0:0:0:
198,120,128826,1,8,0:0:0:0:
320,229,128979,1,2,0:0:0:0:
272,106,129132,1,8,0:0:0:0:
202,319,129285,1,8,0:0:0:0:
242,224,129438,1,8,0:0:0:0:
128,253,129591,1,2,0:0:0:0:
308,312,129744,1,8,0:0:0:0:
415,134,129897,5,12,0:0:0:0:
384,96,129974,1,0,0:0:0:0:
336,89,130051,1,0,0:0:0:0:
290,104,130127,1,0,0:0:0:0:
265,145,130204,1,2,0:0:0:0:
233,180,130280,1,0,0:0:0:0:
186,192,130357,1,0,0:0:0:0:
141,173,130433,1,0,0:0:0:0:
130,125,130510,6,0,L|140:62,3,60.0000022888184,12|0|0|0,0:0|0:0|0:0|0:0,0:0:0:0:
67,231,130816,2,0,L|57:168,3,60.0000022888184,6|0|0|0,0:0|0:0|0:0|0:0,0:0:0:0:
131,293,131122,1,12,0:0:0:0:
289,301,131275,2,0,L|253:306,4,30.0000011444092,0|0|0|0|6,0:0|0:0|0:0|0:0|0:0,0:0:0:0:
365,197,131581,2,0,L|401:202,2,30.0000011444092
284,194,131734,6,0,P|209:221|281:64,1,420.000016021729,12|0,0:0|0:0,0:0:0:0:
338,99,132346,5,4,0:0:0:0:
